osu file format v14

[General]
AudioFilename: audio.mp3
AudioLeadIn: 0
PreviewTime: 72150
Countdown: 1
SampleSet: Soft
StackLeniency: 0.5
Mode: 0
LetterboxInBreaks: 0
WidescreenStoryboard: 0

[Editor]
Bookmarks: 21744,39042,56339,69312,73636,82285,90933,99582,108231,116879
DistanceSpacing: 1
BeatDivisor: 4
GridSize: 4
TimelineZoom: 1

[Metadata]
Title:Yakou Ressha~nothing to lose~
TitleUnicode:夜行列車~nothing to lose~
Artist:Aimer
ArtistUnicode:Aimer
Creator:William K
Version:Train
Source:
Tags:Sleepless Nights Night Train
BeatmapID:1249608
BeatmapSetID:590442

[Difficulty]
HPDrainRate:7
CircleSize:4
OverallDifficulty:8
ApproachRate:8.5
SliderMultiplier:1.8
SliderTickRate:1

[Events]
//Background and Video events
//Break Periods
//Storyboard Layer 0 (Background)
//Storyboard Layer 1 (Fail)
//Storyboard Layer 2 (Pass)
//Storyboard Layer 3 (Foreground)
//Storyboard Sound Samples

[TimingPoints]
123.152747067002,540.540540540541,4,2,1,32,1,0
38501,-100,4,2,2,32,0,0
38771,-100,4,2,1,32,0,0
71474,-100,4,2,1,42,0,0
73096,-133.333333333333,4,2,1,55,0,0
73636,-100,4,2,1,55,0,1
90393,-133.333333333333,4,2,1,55,0,0
90933,-100,4,2,1,55,0,1
108231,-100,4,2,1,55,0,0

[HitObjects]
160,178,123,6,0,P|132:158|56:162,1,90
47,293,663,1,0,0:0:0:0:
140,273,933,2,0,L|244:257,1,90
290,373,1474,1,0,0:0:0:0:
318,279,1744,2,0,P|332:240|325:183,1,90
240,72,2285,6,0,L|246:161,2,90
365,19,3096,2,0,L|358:108,2,90
488,72,3906,2,0,L|494:161,1,90
413,269,4447,6,0,P|455:253|498:261,1,90
463,356,4988,2,0,L|354:349,1,90
310,270,5528,2,0,L|399:264,1,90
241,330,6069,2,0,L|210:288,2,45
243,206,6609,5,0,0:0:0:0:
310,270,6879,1,0,0:0:0:0:
273,105,7150,1,0,0:0:0:0:
344,180,7420,1,0,0:0:0:0:
344,180,7555,1,0,0:0:0:0:
344,180,7690,1,0,0:0:0:0:
178,130,7960,1,0,0:0:0:0:
376,85,8231,2,0,L|470:75,1,90
489,231,8771,6,0,P|460:217|436:158,1,90
297,265,9312,2,0,L|415:256,1,90
353,353,9852,2,0,L|263:346,1,90
206,232,10393,2,0,L|202:280,2,45
177,362,10933,5,0,0:0:0:0:
111,301,11204,1,0,0:0:0:0:
213,185,11474,1,0,0:0:0:0:
202,276,11744,1,0,0:0:0:0:
202,276,11879,1,0,0:0:0:0:
202,276,12015,1,0,0:0:0:0:
143,126,12285,1,0,0:0:0:0:
213,185,12555,1,0,0:0:0:0:
203,49,12825,1,0,0:0:0:0:
289,242,13096,6,0,L|386:228,1,90
444,147,13636,2,0,L|354:134,1,90
297,51,14177,2,0,P|353:34|399:46,1,90
444,147,14717,1,0,0:0:0:0:
444,147,14852,1,0,0:0:0:0:
444,147,14988,1,0,0:0:0:0:
427,315,15258,5,0,0:0:0:0:
378,229,15528,1,0,0:0:0:0:
337,355,15798,1,0,0:0:0:0:
288,269,16068,1,0,0:0:0:0:
288,269,16204,1,0,0:0:0:0:
288,269,16339,1,0,0:0:0:0:
427,315,16609,1,0,0:0:0:0:
241,359,16879,2,0,L|141:346,1,90
9,269,17420,6,0,P|45:293|62:335,1,90
210,247,17960,2,0,P|166:237|112:261,1,90
9,102,18501,2,0,P|45:126|61:167,1,90
61,334,19042,1,0,0:0:0:0:
61,334,19177,1,0,0:0:0:0:
61,334,19312,1,0,0:0:0:0:
161,165,19582,5,0,0:0:0:0:
115,259,19852,1,0,0:0:0:0:
52,177,20123,1,0,0:0:0:0:
9,269,20393,1,0,0:0:0:0:
215,249,20663,2,0,L|302:227,1,90
161,165,21204,1,0,0:0:0:0:
115,259,21474,1,0,0:0:0:0:
100,76,21744,6,0,P|155:57|215:73,2,90,4|0|0,0:0|0:0|0:0,0:0:0:0:
185,60,22555,2,0,P|227:78|271:76,2,90
356,61,23366,2,0,P|315:77|271:76,1,90
339,161,23906,6,0,L|484:153,1,135
512,152,24447,1,0,0:0:0:0:
339,161,24717,2,0,P|330:209|349:256,1,90
482,332,25258,2,0,P|434:323|387:342,1,90
256,262,25798,1,0,0:0:0:0:
116,335,26069,6,0,L|122:245,2,90
122,245,26879,2,0,L|115:155,2,90
122,65,27690,1,0,0:0:0:0:
27,206,27960,1,0,0:0:0:0:
214,277,28231,6,0,P|280:243|351:267,1,135
368,279,28771,1,0,0:0:0:0:
214,277,29042,2,0,L|226:170,1,90
304,66,29582,2,0,L|316:173,1,90
288,345,30123,1,0,0:0:0:0:
451,265,30393,6,0,P|421:258|360:287,2,90
367,278,31204,2,0,L|381:189,2,90
371,103,32015,2,0,P|369:162|392:202,1,90
452,33,32555,6,0,L|311:17,1,135
281,11,33096,1,0,0:0:0:0:
452,33,33366,2,0,P|465:92|452:129,1,90
295,194,33906,2,0,P|354:181|391:194,1,90
345,272,34447,1,0,0:0:0:0:
199,215,34717,6,0,L|208:109,1,90
29,171,35258,1,0,0:0:0:0:
113,223,35528,2,0,P|177:208|219:226,1,90
201,349,36069,1,0,0:0:0:0:
120,312,36339,2,0,L|111:206,1,90
284,224,36879,6,0,P|229:207|190:218,1,90
201,349,37420,1,0,0:0:0:0:
284,314,37690,1,0,0:0:0:0:
407,378,37960,2,0,L|417:235,1,135
420,199,38501,1,8,0:0:0:0:
500,370,38771,1,0,0:0:0:0:
500,370,38906,1,8,0:0:0:0:
500,370,39042,6,0,L|505:274,2,90,4|0|0,0:0|0:0|0:0,0:0:0:0:
504,280,39852,2,0,L|499:184,2,90
499,190,40663,2,0,L|504:94,1,90
362,42,41204,6,0,P|418:30|389:99,1,135
346,118,41744,1,0,0:0:0:0:
283,72,42015,2,0,P|317:43|361:41,1,90
331,200,42555,2,0,P|324:156|346:117,1,90
409,249,43096,1,0,0:0:0:0:
409,249,43231,1,0,0:0:0:0:
409,249,43366,6,0,P|360:288|297:283,1,90
332,201,43906,1,0,0:0:0:0:
409,249,44177,2,0,P|418:300|399:349,1,90
334,291,44717,1,0,0:0:0:0:
409,249,44988,1,0,0:0:0:0:
407,335,45258,1,0,0:0:0:0:
198,219,45528,6,0,L|331:201,1,135
409,249,46069,1,0,0:0:0:0:
335,113,46339,2,0,P|322:156|331:200,1,90
500,167,46879,2,0,L|402:157,1,90
246,127,47420,1,0,0:0:0:0:
246,127,47555,1,0,0:0:0:0:
246,127,47690,6,0,L|347:111,2,90
335,113,48501,2,0,P|322:156|331:200,2,90
327,23,49312,2,0,L|336:128,1,90
234,34,49852,6,0,P|184:16|104:75,1,135
182,98,50393,1,0,0:0:0:0:
106,221,50663,2,0,P|97:175|112:125,1,90
253,134,51204,2,0,P|262:180|247:230,1,90
16,227,51744,1,0,0:0:0:0:
16,227,51879,1,0,0:0:0:0:
16,227,52015,6,0,L|109:220,1,90
168,358,52555,1,0,0:0:0:0:
21,312,52825,2,0,L|114:305,1,90
260,362,53366,1,0,0:0:0:0:
229,193,53636,2,0,L|217:285,1,90
347,363,54177,6,0,L|341:262,1,90
449,323,54717,1,0,0:0:0:0:
417,224,54988,2,0,L|332:279,1,90
244,337,55528,1,0,0:0:0:0:
261,233,55798,2,0,L|351:278,1,90
171,279,56339,5,4,0:0:0:0:
209,144,56609,1,0,0:0:0:0:
261,233,56879,1,0,0:0:0:0:
126,188,57150,1,0,0:0:0:0:
126,188,57420,2,0,P|118:147|144:77,1,90
209,144,57960,1,0,0:0:0:0:
171,279,58231,6,0,L|70:269,1,90
209,144,58771,2,0,L|298:135,1,90
126,188,59312,2,0,L|25:178,1,90
164,53,59852,2,0,L|253:44,1,90
355,53,60393,1,0,0:0:0:0:
297,221,60663,6,0,P|288:164|310:118,1,90
366,295,61204,1,0,0:0:0:0:
395,198,61474,1,0,0:0:0:0:
268,315,61744,2,0,L|157:303,1,90
297,221,62285,1,0,0:0:0:0:
366,295,62555,6,0,P|366:340|341:384,1,90
395,198,63096,2,0,P|440:198|484:223,1,90
297,221,63636,2,0,P|297:176|322:132,1,90
268,315,64177,1,0,0:0:0:0:
366,295,64447,1,0,0:0:0:0:
297,221,64717,1,0,0:0:0:0:
187,371,64988,5,0,0:0:0:0:
208,235,65258,1,0,0:0:0:0:
268,315,65528,1,0,0:0:0:0:
130,294,65798,1,0,0:0:0:0:
157,162,66069,2,0,P|214:146|287:195,1,135
208,235,66609,1,0,0:0:0:0:
75,215,66879,1,0,0:0:0:0:
75,215,67015,1,0,0:0:0:0:
75,215,67150,6,0,P|64:153|85:102,1,90
157,162,67690,1,0,0:0:0:0:
236,112,67960,2,0,L|339:102,1,90
308,280,68501,2,0,P|288:241|304:169,1,90
388,180,69042,1,0,0:0:0:0:
398,333,69312,6,0,L|215:319,1,180,4|0,0:0|0:0,0:0:0:0:
109,313,70123,1,0,0:0:0:0:
166,222,70393,2,0,P|212:206|260:219,1,90
341,111,70933,2,0,P|295:127|247:114,1,90
70,27,71474,5,8,0:0:0:0:
164,122,71744,1,0,0:0:0:0:
252,19,72015,1,0,0:0:0:0:
73,124,72285,1,0,0:0:0:0:
213,205,72555,1,0,0:0:0:0:
161,24,72825,1,8,0:0:0:0:
82,233,73096,6,0,B|87:257|79:280|79:280|84:285|84:285|74:307|87:341,1,101.250003862381,8|0,0:0|0:0,0:0:0:0:
81,375,73636,6,0,P|143:323|207:341,1,135,4|0,0:0|0:0,0:0:0:0:
276,368,74177,2,0,L|269:257,1,90,8|0,0:0|0:0,0:0:0:0:
204,145,74717,2,0,L|198:234,1,90
356,310,75258,1,8,0:0:0:0:
435,216,75528,1,0,0:0:0:0:
435,216,75663,1,8,0:3:0:0:
435,216,75798,6,0,P|394:191|340:188,1,90
121,174,76339,2,0,P|165:168|203:144,1,90,8|0,0:0|0:0,0:0:0:0:
297,41,76879,2,0,L|154:23,1,135
74,17,77420,1,8,0:0:0:0:
297,41,77690,1,0,0:0:0:0:
297,41,77825,1,8,0:3:0:0:
297,41,77960,6,0,L|400:33,1,90
352,186,78501,1,8,0:0:0:0:
245,204,78771,2,0,P|246:159|279:108,1,90
311,266,79312,1,0,0:0:0:0:
155,210,79582,2,0,L|258:202,1,90,8|0,0:0|0:0,0:0:0:0:
311,266,79988,1,8,0:3:0:0:
311,266,80123,6,0,P|258:291|218:288,1,90
71,185,80663,2,0,P|115:187|154:209,1,90,8|0,0:0|0:0,0:0:0:0:
227,290,81069,1,8,0:0:0:0:
206,306,81204,1,0,0:0:0:0:
181,316,81339,1,8,0:0:0:0:
154,318,81474,1,0,0:0:0:0:
71,185,81744,2,0,L|79:90,1,90,8|0,0:0|0:0,0:0:0:0:
86,9,82150,1,8,0:3:0:0:
86,9,82285,6,0,P|129:23|164:91,1,90,4|0,0:0|0:0,0:0:0:0:
312,59,82825,2,0,P|269:72|241:106,1,90,8|0,0:0|0:0,0:0:0:0:
71,185,83366,2,0,B|123:169|123:169|208:192,1,135
293,182,83906,1,8,0:0:0:0:
126,260,84177,1,0,0:0:0:0:
126,260,84312,1,8,0:3:0:0:
126,260,84447,6,0,P|148:304|136:356,1,90
71,185,84988,1,8,0:0:0:0:
200,190,85258,1,0,0:0:0:0:
200,190,85393,1,8,0:0:0:0:
200,190,85528,1,0,0:0:0:0:
59,316,85798,1,0,0:0:0:0:
29,107,86069,2,0,L|39:8,1,90,8|0,0:0|0:0,0:0:0:0:
120,49,86474,1,8,0:3:0:0:
120,49,86609,6,0,P|183:68|222:49,1,90
365,4,87150,1,8,0:0:0:0:
305,105,87420,2,0,L|298:212,1,90
294,294,87960,1,0,0:0:0:0:
378,150,88231,2,0,P|347:118|305:105,1,90,8|0,0:0|0:0,0:0:0:0:
218,123,88636,1,0,0:0:0:0:
216,149,88771,5,0,0:0:0:0:
214,176,88906,1,8,0:0:0:0:
212,203,89041,1,8,0:0:0:0:
246,35,89312,1,8,0:0:0:0:
299,194,89582,1,0,0:0:0:0:
150,59,89852,1,8,0:0:0:0:
150,59,89988,1,8,0:0:0:0:
150,59,90123,1,0,0:0:0:0:
346,17,90393,6,0,B|375:6|396:18|396:18|405:10|405:10|431:24|472:7,1,101.250003862381,8|0,0:0|0:0,0:0:0:0:
441,15,90933,6,0,P|430:67|456:112,1,90,4|0,0:0|0:0,0:0:0:0:
476,311,91474,2,0,P|487:259|461:214,1,90,8|0,0:0|0:0,0:0:0:0:
354,108,92015,2,0,L|483:95,1,90
403,269,92555,1,8,0:0:0:0:
310,180,92825,1,0,0:0:0:0:
310,180,92960,1,0,0:0:0:0:
310,180,93096,6,0,P|325:130|373:101,1,90
300,289,93636,2,0,P|239:266|211:273,1,90,8|0,0:0|0:0,0:0:0:0:
140,313,94042,1,0,0:0:0:0:
140,313,94177,2,0,L|144:213,1,90
140,133,94582,1,0,0:0:0:0:
140,133,94717,2,0,L|144:233,1,90,8|0,0:0|0:0,0:0:0:0:
216,270,95123,1,0,0:0:0:0:
216,270,95258,6,0,P|261:267|300:289,1,90
140,133,95798,1,8,0:0:0:0:
253,154,96069,2,0,L|260:30,1,90
143,222,96609,1,0,0:0:0:0:
300,289,96879,2,0,L|403:276,1,90,8|0,0:0|0:0,0:0:0:0:
480,267,97285,1,0,0:0:0:0:
480,267,97420,6,0,P|466:329|473:355,1,90
381,191,97960,2,0,P|395:253|388:279,1,90,8|0,0:0|0:0,0:0:0:0:
476,104,98501,1,0,0:0:0:0:
473,135,98636,1,8,0:0:0:0:
470,166,98771,1,0,0:0:0:0:
400,38,99042,2,0,P|350:25|305:46,1,90,8|0,0:0|0:0,0:0:0:0:
264,120,99447,1,0,0:0:0:0:
264,120,99582,6,0,L|359:113,1,90,4|0,0:0|0:0,0:0:0:0:
224,319,100123,2,0,P|220:269|245:223,1,90,8|0,0:0|0:0,0:0:0:0:
353,113,100663,2,0,L|347:226,1,90
66,202,101204,2,0,P|129:184|177:204,1,90,8|0,0:0|0:0,0:0:0:0:
235,233,101609,1,0,0:0:0:0:
235,233,101744,6,0,L|231:129,1,90
118,278,102285,1,8,0:0:0:0:
230,363,102555,1,0,0:0:0:0:
151,189,102825,2,0,P|106:184|66:202,1,90
336,296,103366,2,0,P|380:300|421:283,1,90,8|0,0:0|0:0,0:0:0:0:
470,208,103771,1,0,0:0:0:0:
470,208,103906,6,0,L|464:109,1,90
459,28,104312,1,0,0:0:0:0:
459,28,104447,2,0,L|464:117,1,90,8|0,0:0|0:0,0:0:0:0:
475,297,104988,2,0,L|469:198,1,90
303,170,105528,2,0,P|357:159|401:174,1,90,8|0,0:0|0:0,0:0:0:0:
105,288,106069,5,8,0:0:0:0:
166,142,106339,1,0,0:0:0:0:
179,349,106609,1,8,0:0:0:0:
64,172,106879,1,8,0:0:0:0:
278,309,107150,1,8,0:0:0:0:
313,304,107285,1,8,0:0:0:0:
349,300,107420,1,0,0:0:0:0:
166,142,107690,2,0,L|287:157,1,90,8|0,0:0|0:0,0:0:0:0:
457,285,108231,5,4,0:0:0:0:
480,170,108501,1,0,0:0:0:0:
349,300,108771,1,8,0:0:0:0:
387,203,109042,1,0,0:0:0:0:
457,285,109312,1,0,0:0:0:0:
457,285,109582,1,0,0:0:0:0:
375,119,109852,2,0,L|363:26,1,90,8|0,0:0|0:0,0:0:0:0:
288,80,110258,1,0,0:0:0:0:
288,80,110393,6,0,P|249:67|194:77,1,90
41,195,110933,1,8,0:0:0:0:
79,80,111204,1,0,0:0:0:0:
149,174,111474,2,0,L|147:279,1,90
319,235,112015,2,0,P|256:213|228:218,1,90,8|0,0:0|0:0,0:0:0:0:
260,305,112420,1,0,0:0:0:0:
260,305,112555,5,0,0:0:0:0:
393,280,112825,1,0,0:0:0:0:
309,111,113096,1,8,0:0:0:0:
319,235,113366,1,0,0:0:0:0:
420,164,113636,1,0,0:0:0:0:
420,164,113906,1,0,0:0:0:0:
260,305,114177,2,0,L|155:287,1,90,8|0,0:0|0:0,0:0:0:0:
151,374,114582,1,0,0:0:0:0:
151,374,114717,6,0,P|172:327|171:290,1,90
156,202,115123,1,0,0:0:0:0:
156,202,115258,2,0,L|244:217,1,90,8|0,0:0|0:0,0:0:0:0:
195,94,115798,1,0,0:0:0:0:
163,99,115933,1,8,0:0:0:0:
132,104,116068,1,0,0:0:0:0:
244,217,116339,1,8,0:0:0:0:
287,72,116609,1,0,0:0:0:0:
260,305,116879,5,4,0:0:0:0:
329,185,117150,1,0,0:0:0:0:
173,287,117420,1,8,0:0:0:0:
301,384,117690,1,0,0:0:0:0:
244,217,117960,1,0,0:0:0:0:
244,217,118231,1,0,0:0:0:0:
79,368,118501,2,0,P|24:366|-7:333,1,90,8|0,0:0|0:0,0:0:0:0:
35,263,118906,1,0,0:0:0:0:
35,263,119042,6,0,L|43:153,1,90
244,217,119582,1,8,0:0:0:0:
137,240,119852,1,0,0:0:0:0:
179,64,120123,1,0,0:0:0:0:
176,95,120258,1,8,0:0:0:0:
174,127,120393,1,0,0:0:0:0:
362,141,120663,2,0,P|322:113|267:108,1,90,8|0,0:0|0:0,0:0:0:0:
287,318,121204,5,0,0:0:0:0:
407,254,121474,1,0,0:0:0:0:
137,240,121744,1,8,0:0:0:0:
191,370,122015,1,0,0:0:0:0:
276,264,122285,1,0,0:0:0:0:
276,264,122555,1,0,0:0:0:0:
49,181,122825,2,0,L|39:297,1,90,8|0,0:0|0:0,0:0:0:0:
35,364,123231,1,0,0:0:0:0:
35,364,123366,5,8,0:0:0:0:
194,294,123636,1,0,0:0:0:0:
49,181,123906,1,0,0:0:0:0:
129,372,124177,5,0,0:0:0:0:
242,203,124447,1,0,0:0:0:0:
35,364,124717,5,8,0:0:0:0:
297,294,124988,1,8,0:0:0:0:
49,181,125258,1,8,0:0:0:0:
