osu file format v14

[General]
AudioFilename: audio.mp3
AudioLeadIn: 0
PreviewTime: 72150
Countdown: 1
SampleSet: Soft
StackLeniency: 0.7
Mode: 0
LetterboxInBreaks: 0
WidescreenStoryboard: 1

[Editor]
DistanceSpacing: 1
BeatDivisor: 4
GridSize: 4
TimelineZoom: 1

[Metadata]
Title:Yakou Ressha~nothing to lose~
TitleUnicode:夜行列車~nothing to lose~
Artist:Aimer
ArtistUnicode:Aimer
Creator:William K
Version:Normal
Source:
Tags:Sleepless Nights Night Train
BeatmapID:1249751
BeatmapSetID:590442

[Difficulty]
HPDrainRate:3.5
CircleSize:3.4
OverallDifficulty:4
ApproachRate:5
SliderMultiplier:1.2
SliderTickRate:1

[Events]
//Background and Video events
//Break Periods
//Storyboard Layer 0 (Background)
//Storyboard Layer 1 (Fail)
//Storyboard Layer 2 (Pass)
//Storyboard Layer 3 (Foreground)
//Storyboard Sound Samples

[TimingPoints]
123.152747067002,540.540540540541,4,2,1,32,1,0
38501,-100,4,2,2,32,0,0
39042,-100,4,2,1,32,0,0
71474,-100,4,2,1,42,0,0
73096,-100,4,2,1,55,0,0
73636,-100,4,2,1,55,0,1
89852,-100,4,2,1,55,0,0
90933,-100,4,2,1,55,0,1
108231,-100,4,2,1,55,0,0

[HitObjects]
96,117,123,6,0,P|136:91|220:112,1,120
246,126,933,2,0,L|241:246,1,120
237,294,1744,1,0,0:0:0:0:
354,276,2285,6,0,P|407:288|465:236,1,120
470,207,3096,2,0,B|457:160|457:160|480:83,1,120
498,49,3906,1,0,0:0:0:0:
378,63,4447,6,0,L|302:52,1,60
277,78,4988,2,0,L|217:86,1,60
173,68,5528,2,0,P|197:110|177:182,1,120
131,288,6609,2,0,L|57:272,2,60
182,304,7420,1,0,0:0:0:0:
182,304,7690,2,0,B|227:286|227:286|312:309,1,120
402,357,8771,6,0,L|397:296,1,60
429,263,9312,2,0,L|434:202,1,60
442,158,9852,2,0,P|408:164|339:103,1,120
395,7,10933,2,0,P|432:12|462:28,2,60
354,30,11744,1,0,0:0:0:0:
354,30,12015,2,0,L|219:15,1,120
169,115,13096,6,0,L|179:193,1,60
203,214,13636,2,0,L|193:292,1,60
182,319,14177,2,0,P|220:313|259:324,2,60
66,354,15258,2,0,P|59:326|60:292,1,60
87,254,15798,2,0,P|94:226|93:192,1,60
81,150,16339,2,0,L|3:155,2,60
194,108,17420,6,0,L|262:114,1,60
299,98,17960,2,0,L|358:92,1,60
407,84,18501,2,0,P|397:47|402:10,2,60
440,202,19582,2,0,P|400:211|368:207,1,60
337,226,20123,2,0,P|297:217|265:221,1,60
235,237,20663,1,0,0:0:0:0:
153,154,21204,2,0,L|155:83,1,60
156,51,21744,6,0,P|123:71|41:52,1,120,4|0,0:0|0:0,0:0:0:0:
9,24,22555,2,0,L|18:157,1,120
20,192,23366,1,0,0:0:0:0:
30,311,23906,6,0,P|76:295|144:334,1,120
165,364,24717,1,0,0:0:0:0:
284,342,25258,2,0,L|404:351,1,120
450,364,26069,6,0,P|438:325|479:255,1,120
494,216,26879,2,0,B|441:228|441:228|367:212,1,120
338,186,27690,1,0,0:0:0:0:
227,230,28231,2,0,L|237:110,1,120
241,61,29042,1,0,0:0:0:0:
127,91,29582,2,0,L|120:24,2,60
133,138,30393,6,0,P|86:122|16:153,1,120
15,194,31204,2,0,L|30:319,1,120
31,361,32015,1,0,0:0:0:0:
144,323,32555,6,0,P|201:307|272:341,1,120
287,365,33366,1,0,0:0:0:0:
366,276,33906,2,0,L|355:148,1,120
351,110,34717,6,0,P|404:123|468:75,1,120
492,62,35528,2,0,L|481:181,1,120
473,229,36339,1,0,0:0:0:0:
455,349,36879,2,0,B|416:332|416:332|329:341,1,120
293,350,37690,1,0,0:0:0:0:
293,350,37960,1,0,0:0:0:0:
235,245,38501,1,8,0:0:0:0:
154,337,39042,6,0,P|125:320|31:343,1,120,4|0,0:0|0:0,0:0:0:0:
8,366,39852,2,0,L|12:238,1,120
15,197,40663,1,0,0:0:0:0:
110,122,41204,2,0,P|155:112|219:143,1,120
247,182,42015,2,0,L|240:39,2,120
248,229,43366,5,0,0:0:0:0:
355,177,43906,1,0,0:0:0:0:
383,217,44177,2,0,L|375:342,1,120
369,384,44988,1,0,0:0:0:0:
252,357,45528,2,0,P|206:331|132:348,1,120
113,303,46339,2,0,P|67:329|-7:312,2,120
145,268,47690,5,0,0:0:0:0:
116,152,48231,1,0,0:0:0:0:
155,122,48501,2,0,P|213:103|280:131,1,120
300,157,49312,1,0,0:0:0:0:
397,91,49852,2,0,P|417:151|403:214,1,120
382,247,50663,2,0,L|502:240,2,120
334,254,52015,5,0,0:0:0:0:
248,337,52555,1,0,0:0:0:0:
210,306,52825,2,0,P|173:289|83:313,1,120
57,330,53636,2,0,L|55:244,1,60
56,222,54177,1,0,0:0:0:0:
119,121,54717,1,0,0:0:0:0:
88,83,54988,2,0,P|26:87|-9:138,2,120
119,121,56339,6,0,L|115:250,1,120,4|0,0:0|0:0,0:0:0:0:
151,353,57420,2,0,P|207:313|268:324,1,120
295,291,58231,2,0,L|294:155,2,120
397,349,59852,1,0,0:0:0:0:
471,255,60393,1,0,0:0:0:0:
457,210,60663,6,0,P|442:157|476:82,1,120
347,61,61744,2,0,P|303:79|233:49,1,120
201,22,62555,2,0,L|209:153,2,120
81,44,64177,2,0,L|14:27,2,60
126,61,64988,6,0,P|99:106|117:191,1,120
165,277,66069,2,0,L|45:263,1,120
2,241,66879,2,0,P|37:284|22:359,2,120
104,171,68501,1,0,0:0:0:0:
165,277,69042,1,0,0:0:0:0:
207,298,69312,6,0,P|275:314|342:284,2,120,4|0|0,0:0|0:0|0:0,0:0:0:0:
264,191,70933,1,0,0:0:0:0:
217,81,71474,2,0,P|177:69|104:104,1,120,8|0,0:0|0:0,0:0:0:0:
75,136,72285,1,0,0:0:0:0:
75,136,72555,2,0,L|82:211,2,60,0|8|8,0:0|0:0|0:0,0:0:0:0:
189,171,73636,6,0,L|176:314,1,120,4|8,0:0|0:0,0:0:0:0:
178,342,74447,1,0,0:0:0:0:
178,342,74717,2,0,P|225:317|297:333,1,120,0|8,0:0|0:0,0:0:0:0:
404,363,75798,2,0,L|396:232,1,120,0|8,0:0|0:0,0:0:0:0:
397,198,76609,1,0,0:0:0:0:
397,198,76879,2,0,P|457:195|493:161,2,90
355,176,77960,5,0,0:0:0:0:
297,71,78501,2,0,L|232:62,1,60,8|0,0:0|0:0,0:0:0:0:
191,53,79042,2,0,P|210:97|186:163,1,120,0|8,0:0|0:0,0:0:0:0:
125,264,80123,2,0,L|257:256,1,120,0|8,0:0|0:0,0:0:0:0:
294,250,80933,1,0,0:0:0:0:
294,250,81204,2,0,P|282:298|299:357,2,90
325,214,82285,5,4,0:0:0:0:
273,105,82825,2,0,L|352:113,1,60,8|0,0:0|0:0,0:0:0:0:
379,120,83366,2,0,P|372:83|397:21,2,90
424,151,84447,1,0,0:0:0:0:
325,214,84988,2,0,L|246:200,1,60,8|0,0:0|0:0,0:0:0:0:
220,191,85528,2,0,B|237:146|237:146|217:63,1,120
118,141,86609,6,0,L|126:272,1,120,0|8,0:0|0:0,0:0:0:0:
129,308,87420,2,0,P|161:295|240:328,1,120
268,361,88231,1,8,0:0:0:0:
385,334,88771,2,0,L|380:259,1,60
375,226,89312,1,8,0:0:0:0:
454,136,89852,2,0,P|503:128|533:140,2,60,0|0|8,0:0|0:0|0:0,0:0:0:0:
354,72,90933,6,0,P|310:88|232:59,1,120,4|8,0:0|0:0,0:0:0:0:
212,39,91744,1,0,0:0:0:0:
212,39,92015,2,0,L|219:178,1,120,0|8,0:0|0:0,0:0:0:0:
171,269,93096,2,0,P|247:260|289:285,1,120,0|8,0:0|0:0,0:0:0:0:
320,319,93906,1,0,0:0:0:0:
320,319,94177,2,0,L|328:220,2,90
312,365,95258,6,0,P|354:336|430:343,1,120,0|8,0:0|0:0,0:0:0:0:
465,357,96069,1,0,0:0:0:0:
457,237,96609,2,0,L|526:231,2,60,0|8|0,0:0|0:0|0:0,0:0:0:0:
409,244,97420,2,0,P|434:187|420:122,1,120,0|8,0:0|0:0,0:0:0:0:
414,88,98231,1,0,0:0:0:0:
414,88,98501,2,0,P|445:69|507:80,2,90
369,71,99582,5,4,0:0:0:0:
267,134,100123,2,0,L|195:128,1,60,8|0,0:0|0:0,0:0:0:0:
166,151,100663,2,0,P|135:132|73:143,2,90
185,195,101744,2,0,L|175:317,1,120,0|8,0:0|0:0,0:0:0:0:
299,315,102825,2,0,L|288:181,1,120,0|8,0:0|0:0,0:0:0:0:
289,147,103636,1,0,0:0:0:0:
289,147,103906,6,0,P|326:151|384:113,2,90
257,111,104988,2,0,P|202:91|131:118,1,120,0|8,0:0|0:0,0:0:0:0:
63,196,106069,2,0,L|53:93,2,90,8|0|0,0:0|0:0|0:0,0:0:0:0:
70,244,107150,2,0,P|106:241|149:250,1,60,8|0,0:0|0:0,0:0:0:0:
169,271,107690,1,8,0:0:0:0:
286,308,108231,6,0,L|354:303,1,60,4|0,0:0|0:0,0:0:0:0:
390,285,108771,2,0,L|458:290,1,60,8|0,0:0|0:0,0:0:0:0:
497,296,109312,2,0,P|474:247|499:174,1,120,0|8,0:0|0:0,0:0:0:0:
481,68,110393,2,0,L|489:-2,2,60,0|0|8,0:0|0:0|0:0,0:0:0:0:
443,96,111204,1,0,0:0:0:0:
443,96,111474,2,0,B|402:78|402:78|312:91,1,120,0|8,0:0|0:0,0:0:0:0:
219,135,112555,6,0,P|225:178|218:217,1,60
204,238,113096,2,0,P|198:267|199:297,1,60,8|0,0:0|0:0,0:0:0:0:
211,344,113636,2,0,P|276:327|342:361,1,120,0|8,0:0|0:0,0:0:0:0:
441,345,114717,2,0,P|479:317|528:311,2,90
401,374,115798,2,0,L|406:249,1,120,0|8,0:0|0:0,0:0:0:0:
420,135,116879,6,0,L|350:139,1,60,4|0,0:0|0:0,0:0:0:0:
320,164,117420,2,0,L|260:160,1,60,8|0,0:0|0:0,0:0:0:0:
212,158,117960,2,0,P|220:192|215:241,2,60,0|0|8,0:0|0:0|0:0,0:0:0:0:
114,89,119042,2,0,P|128:58|162:31,2,60,0|0|8,0:0|0:0|0:0,0:0:0:0:
121,141,119852,1,0,0:0:0:0:
121,141,120123,2,0,P|79:120|5:156,1,120,0|8,0:0|0:0,0:0:0:0:
39,259,121204,6,0,L|102:268,1,60
137,240,121744,2,0,L|196:231,1,60,8|0,0:0|0:0,0:0:0:0:
245,223,122285,2,0,P|236:263|245:308,2,60,0|0|8,0:0|0:0|0:0,0:0:0:0:
305,119,123366,6,0,P|276:103|224:108,2,60,8|0|0,0:0|0:0|0:0,0:0:0:0:
339,162,124177,1,0,0:0:0:0:
339,162,124447,2,0,L|418:151,1,60,0|8,0:0|0:0,0:0:0:0:
449,145,124988,1,8,0:0:0:0:
449,145,125258,1,8,0:0:0:0:
