osu file format v14

[General]
AudioFilename: audio.mp3
AudioLeadIn: 0
PreviewTime: 72150
Countdown: 1
SampleSet: Soft
StackLeniency: 0.7
Mode: 0
LetterboxInBreaks: 0
WidescreenStoryboard: 1

[Editor]
DistanceSpacing: 1
BeatDivisor: 4
GridSize: 32
TimelineZoom: 1

[Metadata]
Title:Yakou Ressha~nothing to lose~
TitleUnicode:夜行列車~nothing to lose~
Artist:Aimer
ArtistUnicode:Aimer
Creator:William K
Version:Hard
Source:
Tags:Sleepless Nights Night Train
BeatmapID:1250314
BeatmapSetID:590442

[Difficulty]
HPDrainRate:5
CircleSize:3.8
OverallDifficulty:6
ApproachRate:7
SliderMultiplier:1.5
SliderTickRate:1

[Events]
//Background and Video events
//Break Periods
//Storyboard Layer 0 (Background)
//Storyboard Layer 1 (Fail)
//Storyboard Layer 2 (Pass)
//Storyboard Layer 3 (Foreground)
//Storyboard Sound Samples

[TimingPoints]
123.152747067002,540.540540540541,4,2,1,32,1,0
38501,-100,4,2,2,32,0,0
38771,-100,4,2,1,32,0,0
71474,-100,4,2,1,42,0,0
73096,-100,4,2,1,55,0,0
73636,-100,4,2,1,55,0,1
89852,-100,4,2,1,55,0,0
90933,-100,4,2,1,55,0,1
108231,-100,4,2,1,55,0,0

[HitObjects]
157,152,123,6,0,P|194:139|251:149,1,75
205,228,663,1,0,0:0:0:0:
116,234,933,2,0,P|79:199|68:143,1,75
157,152,1474,1,0,0:0:0:0:
205,228,1744,2,0,P|199:281|160:313,1,75
25,326,2285,6,0,P|65:317|117:333,1,75
166,383,2825,1,0,0:0:0:0:
186,296,3096,2,0,P|226:287|278:303,1,75
329,350,3636,1,0,0:0:0:0:
378,274,3906,2,0,L|380:189,1,75
287,131,4447,6,0,L|288:205,1,75
379,199,4988,2,0,P|420:191|465:210,1,75
486,284,5528,2,0,P|445:292|400:273,1,75
324,290,6069,2,0,L|332:344,2,37.5
287,158,6609,6,0,B|250:142|250:142|198:143,1,75
130,171,7150,1,0,0:0:0:0:
153,84,7420,2,0,L|156:37,2,37.5
130,171,7960,1,0,0:0:0:0:
81,95,8231,2,0,P|115:80|152:83,1,75
203,230,8771,6,0,L|197:314,1,75
271,361,9312,2,0,P|287:318|336:295,1,75
399,302,9852,2,0,P|426:326|437:361,1,75
510,305,10393,2,0,L|505:249,2,37.5
436,219,10933,6,0,L|442:127,1,75
453,56,11474,1,0,0:0:0:0:
371,88,11744,2,0,P|339:91|315:84,2,37.5
351,0,12285,1,0,0:0:0:0:
267,31,12555,1,0,0:0:0:0:
351,0,12825,1,0,0:0:0:0:
248,120,13096,6,0,P|257:192|271:221,1,75
265,284,13636,2,0,L|177:274,1,75
218,363,14177,2,0,L|306:353,1,75
365,303,14717,2,0,P|378:325|381:361,2,37.5
506,252,15258,6,0,P|464:264|426:249,1,75
386,180,15798,1,0,0:0:0:0:
470,142,16069,2,0,L|465:182,2,37.5
488,56,16609,1,0,0:0:0:0:
403,86,16879,2,0,P|357:96|326:86,1,75
191,36,17420,6,0,L|287:26,1,75
253,115,17960,2,0,P|242:160|256:205,1,75
285,270,18501,2,0,L|189:260,1,75
130,221,19042,2,0,L|123:273,2,37.5
146,132,19582,6,0,P|99:136|59:164,1,75
20,219,20123,2,0,B|41:248|41:248|37:291,1,75
39,376,20663,2,0,P|110:349|190:376,1,150
252,317,21474,1,0,0:0:0:0:
375,375,21744,6,0,P|418:372|462:337,2,75,4|0|0,0:0|0:0|0:0,0:0:0:0:
390,285,22555,2,0,P|408:246|400:190,2,75
319,228,23366,2,0,L|245:212,1,75
122,160,23906,6,0,P|176:153|214:56,1,150
136,25,24717,2,0,L|29:16,1,75
218,74,25258,2,0,L|325:65,1,75
382,46,25798,1,0,0:0:0:0:
353,204,26069,6,0,P|347:170|365:123,2,75
402,279,26879,2,0,P|434:290|466:329,2,75
313,281,27690,2,0,L|216:274,1,75
172,347,28231,6,0,B|192:298|192:298|177:198,1,150
167,115,29042,2,0,P|127:130|102:159,1,75
246,147,29582,2,0,L|336:141,1,75
385,80,30123,1,0,0:0:0:0:
392,206,30393,6,0,P|380:246|385:280,2,75
457,143,31204,2,0,P|469:103|464:69,2,75
512,215,32015,2,0,P|516:252|504:287,1,75
372,360,32555,6,0,P|334:342|317:231,1,150
250,178,33366,2,0,P|285:159|333:158,1,75
222,261,33906,2,0,P|188:240|163:199,1,75
182,122,34447,1,0,0:0:0:0:
319,155,34717,6,0,L|475:143,1,150
512,66,35528,2,0,P|503:20|484:-2,2,75
468,143,36339,1,0,0:0:0:0:
512,220,36609,1,0,0:0:0:0:
486,343,36879,6,0,P|462:309|350:311,1,150
291,357,37690,1,0,0:0:0:0:
245,286,37960,2,0,P|190:298|125:255,1,112.5
140,275,38501,2,0,L|153:188,1,75,8|0,0:0|0:0,0:0:0:0:
161,159,38906,1,8,0:0:0:0:
161,159,39042,6,0,P|118:167|76:147,2,75,4|0|0,0:0|0:0|0:0,0:0:0:0:
127,77,39852,2,0,P|98:43|94:-2,2,75
215,87,40663,2,0,L|305:75,1,75
412,91,41204,6,0,P|362:85|307:159,1,150
390,235,42015,2,0,L|380:138,1,75
472,290,42555,2,0,L|482:193,1,75
388,331,43096,1,0,0:0:0:0:
388,331,43231,1,0,0:0:0:0:
388,331,43366,6,0,P|328:300|297:303,1,75
242,340,43906,1,0,0:0:0:0:
252,250,44177,2,0,L|258:147,1,75
260,85,44717,1,0,0:0:0:0:
179,128,44988,2,0,P|132:131|95:105,1,75
156,44,45528,6,0,L|133:220,1,150
124,282,46339,2,0,L|37:263,1,75
137,361,46879,2,0,L|224:342,1,75
306,268,47420,1,0,0:0:0:0:
306,268,47555,1,0,0:0:0:0:
306,268,47690,6,0,P|292:314|300:355,1,75
381,317,48231,1,0,0:0:0:0:
453,264,48501,2,0,P|465:229|464:191,1,75
378,215,49042,1,0,0:0:0:0:
407,130,49312,2,0,L|414:34,1,75
317,149,49852,6,0,P|249:177|176:141,1,150
144,66,50663,2,0,P|148:32|177:-5,2,75
93,142,51474,1,0,0:0:0:0:
194,244,51744,1,0,0:0:0:0:
194,244,51879,1,0,0:0:0:0:
194,244,52015,6,0,P|156:237|74:314,1,150
162,328,52825,2,0,L|241:341,2,75
194,244,53636,1,0,0:0:0:0:
282,260,53906,1,0,0:0:0:0:
256,103,54177,6,0,P|247:147|257:186,1,75
282,260,54717,1,0,0:0:0:0:
366,228,54988,2,0,P|428:223|452:237,2,75
336,143,55798,2,0,P|345:107|337:63,1,75
252,175,56339,5,4,0:0:0:0:
178,122,56609,2,0,P|148:115|93:135,1,75
43,195,57150,1,0,0:0:0:0:
43,195,57420,2,0,P|19:162|16:113,2,75
100,263,58231,2,0,P|153:242|192:251,1,75
277,300,58771,6,0,L|266:392,1,75
363,335,59312,2,0,L|352:243,1,75
280,186,59852,2,0,L|269:278,1,75
366,215,60393,1,0,0:0:0:0:
321,99,60663,5,0,0:0:0:0:
407,131,60933,2,0,P|460:135|492:117,1,75
437,46,61474,1,0,0:0:0:0:
437,46,61744,2,0,L|355:29,2,75
479,126,62555,2,0,L|468:216,1,75
402,325,63096,6,0,L|392:250,1,75
323,193,63636,2,0,P|359:166|402:161,1,75
469,200,64177,1,0,0:0:0:0:
392,250,64447,1,0,0:0:0:0:
323,193,64717,1,0,0:0:0:0:
322,316,64988,5,0,0:0:0:0:
254,255,65258,2,0,L|170:239,1,75
92,226,65798,1,0,0:0:0:0:
150,155,66069,2,0,P|173:121|140:18,1,150
263,52,66879,1,0,0:0:0:0:
263,52,67015,1,0,0:0:0:0:
263,52,67150,6,0,P|312:72|345:63,1,75
415,32,67690,1,0,0:0:0:0:
407,120,67960,2,0,L|401:201,1,75
323,281,68501,2,0,L|317:206,1,75
419,288,69042,1,0,0:0:0:0:
264,349,69312,6,0,P|234:314|123:318,1,150,4|0,0:0|0:0,0:0:0:0:
63,359,70123,1,0,0:0:0:0:
60,267,70393,2,0,L|66:177,1,75
71,102,70933,1,0,0:0:0:0:
156,214,71204,1,0,0:0:0:0:
156,214,71339,1,0,0:0:0:0:
156,214,71474,6,0,P|201:216|241:191,1,75,8|0,0:0|0:0,0:0:0:0:
298,146,72015,1,0,0:0:0:0:
297,259,72285,1,0,0:0:0:0:
227,203,72555,1,0,0:0:0:0:
370,204,72825,1,8,0:0:0:0:
296,336,73096,2,0,L|176:314,1,112.5,8|0,0:0|0:0,0:0:0:0:
114,359,73636,6,0,P|135:313|81:235,1,150,4|8,0:0|0:0,0:0:0:0:
0,192,74447,1,0,0:0:0:0:
82,136,74717,2,0,L|162:123,1,75
271,102,75258,2,0,P|235:136|225:183,1,75,8|0,0:0|0:0,0:0:0:0:
351,136,75798,6,0,P|355:80|338:46,2,75,0|0|8,0:0|0:0|0:0,0:0:0:0:
291,214,76609,1,0,0:0:0:0:
378,265,76879,2,0,P|441:251|495:291,1,112.5
481,272,77420,2,0,L|480:165,1,75,8|0,0:0|0:0,0:0:0:0:
378,265,77960,6,0,L|377:339,2,75,0|0|8,0:0|0:0|0:0,0:0:0:0:
295,215,78771,1,0,0:0:0:0:
242,296,79042,1,0,0:0:0:0:
219,163,79312,2,0,L|226:86,2,75,0|8|0,0:0|0:0|0:0,0:0:0:0:
242,296,80123,6,0,P|194:270|151:274,2,75,0|0|8,0:0|0:0|0:0,0:0:0:0:
341,336,80933,1,0,0:0:0:0:
341,336,81069,1,0,0:0:0:0:
341,336,81204,2,0,L|331:389,2,37.5,0|8|0,0:0|0:0|0:0,0:0:0:0:
405,264,81744,2,0,P|392:203|396:177,1,75,8|0,0:0|0:0,0:0:0:0:
459,49,82285,6,0,L|450:131,2,75,4|0|8,0:0|0:0|0:0,0:0:0:0:
376,0,83096,1,0,0:0:0:0:
314,75,83366,2,0,P|260:79|213:35,1,112.5
217,43,83906,2,0,L|218:131,1,75,8|0,0:0|0:0,0:0:0:0:
142,237,84447,6,0,L|135:159,2,75,0|0|8,0:0|0:0|0:0,0:0:0:0:
182,355,85258,1,0,0:0:0:0:
182,355,85393,1,8,0:0:0:0:
182,355,85528,2,0,P|216:329|266:328,1,75
392,314,86069,1,8,0:0:0:0:
316,253,86339,1,0,0:0:0:0:
182,355,86609,6,0,L|91:329,2,75,0|0|8,0:0|0:0|0:0,0:0:0:0:
169,260,87420,2,0,P|157:216|168:177,1,75
222,113,87960,1,0,0:0:0:0:
72,174,88231,2,0,L|-10:171,1,75,8|0,0:0|0:0,0:0:0:0:
2,82,88771,5,0,0:0:0:0:
2,82,88906,1,8,0:0:0:0:
2,82,89042,1,8,0:0:0:0:
93,46,89312,2,0,L|197:45,1,75,8|0,0:0|0:0,0:0:0:0:
267,20,89852,1,8,0:0:0:0:
267,20,89988,1,8,0:0:0:0:
267,20,90123,1,0,0:0:0:0:
215,129,90393,2,0,P|208:179|214:223,1,75,8|0,0:0|0:0,0:0:0:0:
365,177,90933,6,0,P|323:165|276:180,1,75,4|0,0:0|0:0,0:0:0:0:
352,270,91474,2,0,L|446:257,1,75,8|0,0:0|0:0,0:0:0:0:
507,218,92015,2,0,P|477:184|440:172,1,75
352,270,92555,1,8,0:0:0:0:
412,358,92825,1,0,0:0:0:0:
412,358,92960,1,0,0:0:0:0:
412,358,93096,6,0,P|364:376|325:372,1,75
261,260,93636,2,0,L|249:345,1,75,8|0,0:0|0:0,0:0:0:0:
222,377,94042,1,0,0:0:0:0:
222,377,94177,2,0,P|188:329|126:329,1,112.5
138,324,94717,2,0,P|147:275|145:237,1,75,8|0,0:0|0:0,0:0:0:0:
124,214,95123,1,0,0:0:0:0:
124,214,95258,6,0,P|173:228|211:204,1,75
300,158,95798,1,8,0:0:0:0:
211,122,96069,2,0,P|246:79|277:67,1,75
386,143,96609,1,0,0:0:0:0:
479,31,96879,2,0,L|472:136,1,75,8|0,0:0|0:0,0:0:0:0:
392,217,97420,6,0,L|385:134,1,75
492,229,97960,2,0,L|481:312,1,75,8|0,0:0|0:0,0:0:0:0:
405,359,98501,1,0,0:0:0:0:
405,359,98636,1,8,0:0:0:0:
405,359,98771,1,0,0:0:0:0:
392,217,99042,2,0,P|346:205|289:214,1,75,8|0,0:0|0:0,0:0:0:0:
238,313,99582,6,0,L|335:308,2,75,4|0|8,0:0|0:0|0:0,0:0:0:0:
140,328,100393,1,0,0:0:0:0:
174,238,100663,2,0,B|181:192|181:192|165:117,1,112.5
167,127,101204,2,0,P|237:134|257:126,1,75,8|0,0:0|0:0,0:0:0:0:
355,71,101744,6,0,P|357:28|371:-7,2,75,0|0|8,0:0|0:0|0:0,0:0:0:0:
332,166,102555,1,0,0:0:0:0:
422,144,102825,2,0,P|468:172|485:223,1,75
407,307,103366,2,0,P|393:276|400:223,1,75,8|0,0:0|0:0,0:0:0:0:
348,381,103906,6,0,B|305:350|305:350|229:365,1,112.5
246,361,104447,2,0,P|246:321|230:277,1,75,8|0,0:0|0:0,0:0:0:0:
154,235,104988,2,0,P|143:270|143:308,2,75,0|0|8,0:0|0:0|0:0,0:0:0:0:
235,184,105798,1,0,0:0:0:0:
116,84,106069,6,0,B|159:104|159:104|253:82,1,112.5,8|0,0:0|0:0,0:0:0:0:
269,78,106609,1,8,0:0:0:0:
338,149,106879,1,8,0:0:0:0:
410,85,107150,1,8,0:0:0:0:
410,85,107285,1,8,0:0:0:0:
410,85,107420,1,0,0:0:0:0:
402,223,107690,1,8,0:0:0:0:
402,223,108231,6,0,P|425:256|425:315,1,75,4|0,0:0|0:0,0:0:0:0:
350,377,108771,1,8,0:0:0:0:
271,320,109042,2,0,P|227:309|191:316,2,75
125,359,109852,2,0,P|114:305|154:239,1,112.5,8|0,0:0|0:0,0:0:0:0:
136,254,110393,6,0,L|26:261,1,75
1,138,110933,1,8,0:0:0:0:
95,160,111204,1,0,0:0:0:0:
173,99,111474,2,0,L|258:96,1,75
369,34,112015,2,0,P|343:67|339:111,1,75,8|0,0:0|0:0,0:0:0:0:
356,148,112420,1,0,0:0:0:0:
356,148,112555,6,0,L|452:136,1,75
489,260,113096,1,8,0:0:0:0:
392,239,113366,2,0,P|393:286|410:319,2,75
324,351,114177,2,0,P|285:314|250:311,1,75,8|0,0:0|0:0,0:0:0:0:
226,331,114582,1,0,0:0:0:0:
226,331,114717,6,0,L|228:212,1,112.5
227,218,115258,2,0,P|183:231|139:221,1,75,8|0,0:0|0:0,0:0:0:0:
187,139,115798,1,0,0:0:0:0:
187,139,115933,1,8,0:0:0:0:
187,139,116069,1,0,0:0:0:0:
312,185,116339,2,0,L|406:185,1,75,8|0,0:0|0:0,0:0:0:0:
492,283,116879,6,0,P|438:269|404:285,1,75,4|0,0:0|0:0,0:0:0:0:
337,372,117420,1,8,0:0:0:0:
327,275,117690,2,0,L|226:268,1,75
184,341,118231,1,0,0:0:0:0:
212,183,118501,2,0,P|221:128|167:79,1,112.5,8|0,0:0|0:0,0:0:0:0:
187,86,119042,6,0,P|244:93|278:73,1,75
385,33,119582,1,8,0:0:0:0:
353,123,119852,1,0,0:0:0:0:
458,114,120123,1,0,0:0:0:0:
458,114,120258,1,8,0:0:0:0:
458,114,120393,1,0,0:0:0:0:
313,213,120663,2,0,L|203:201,1,75,8|0,0:0|0:0,0:0:0:0:
191,201,121069,1,0,0:0:0:0:
191,201,121204,6,0,P|200:243|186:292,1,75
98,358,121744,1,8,0:0:0:0:
196,359,122015,2,0,L|283:345,1,75
367,328,122555,1,0,0:0:0:0:
194,274,122825,2,0,L|87:258,1,75,8|0,0:0|0:0,0:0:0:0:
76,254,123231,1,0,0:0:0:0:
76,254,123366,6,0,P|100:200|92:156,1,75,8|0,0:0|0:0,0:0:0:0:
79,92,123906,1,0,0:0:0:0:
173,117,124177,1,0,0:0:0:0:
244,54,124447,1,0,0:0:0:0:
236,195,124717,5,8,0:0:0:0:
173,117,124988,1,8,0:0:0:0:
310,132,125258,1,8,0:0:0:0:
