osu file format v14

[General]
AudioFilename: audio.mp3
AudioLeadIn: 0
PreviewTime: 157611
Countdown: 0
SampleSet: Soft
StackLeniency: 0.5
Mode: 0
LetterboxInBreaks: 0
WidescreenStoryboard: 0

[Editor]
DistanceSpacing: 1.3
BeatDivisor: 8
GridSize: 4
TimelineZoom: 1.5

[Metadata]
Title:Torches
TitleUnicode:Torches
Artist:Aimer
ArtistUnicode:Aimer
Creator:alevi
Version:Braveheart
Source:ヴィンランド・サガ
Tags:エメ jpop j-pop japanese pop walpurgis full version female vocalist 1st season one vinland saga ending ed anime english maaadbot
BeatmapID:3159395
BeatmapSetID:1545741

[Difficulty]
HPDrainRate:4.8
CircleSize:4.2
OverallDifficulty:7.8
ApproachRate:8.6
SliderMultiplier:1.8
SliderTickRate:1

[Events]
//Background and Video events
0,0,"lana-marushchenko-.jpg",0,0
//Break Periods
//Storyboard Layer 0 (Background)
//Storyboard Layer 1 (Fail)
//Storyboard Layer 2 (Pass)
//Storyboard Layer 3 (Foreground)
//Storyboard Layer 4 (Overlay)
//Storyboard Sound Samples

[TimingPoints]
22703,731.707317073171,4,2,2,30,1,0
22703,-100,4,2,2,30,0,0
23801,731.707317073171,4,2,2,30,1,0
23801,-100,4,2,2,30,0,0
44314,731.707317073171,4,2,2,30,1,0
44314,-100,4,2,2,30,0,0
47240,-90.9090909090909,4,2,2,40,0,0
53070,731.707317073171,4,2,2,40,1,0
53070,-90.9090909090909,4,2,2,40,0,0
57440,731.707317073171,4,2,2,40,1,0
57440,-90.9090909090909,4,2,2,40,0,0
58923,731.707317073171,4,2,2,40,1,0
58923,-90.9090909090909,4,2,2,40,0,0
61138,731.707317073171,4,2,2,40,1,0
61138,-90.9090909090909,4,2,2,40,0,0
64776,731.707317073171,4,2,2,40,1,0
64776,-90.9090909090909,4,2,2,40,0,0
66239,-90.9090909090909,4,2,2,45,0,0
67702,-66.6666666666667,4,2,2,50,0,1
67794,-66.6666666666667,4,2,2,50,0,0
85263,-100,4,2,2,50,0,0
91117,-80,4,2,2,55,0,0
111239,-200,4,2,2,40,0,0
113434,-100,4,2,2,40,0,0
114532,-80,4,2,2,40,0,0
137946,-80,4,2,2,45,0,0
149654,-80,4,2,2,50,0,0
155507,-80,4,2,2,55,0,0
157702,-80,4,2,2,55,0,0
158434,-66.6666666666667,4,2,2,70,0,1
180385,-100,4,2,2,60,0,1
181849,-80,4,2,2,60,0,0
205263,-80,4,2,2,65,0,1
205355,-80,4,2,2,65,0,0
211026,-80,4,2,2,5,0,0
211117,-80,4,2,2,65,0,0
216971,-80,4,2,2,65,0,1
217062,-80,4,2,2,65,0,0
228678,-80,4,2,2,65,0,1
228769,-80,4,2,2,65,0,0
236178,-80,4,2,2,5,0,0
236269,-80,4,2,2,65,0,0
236452,-80,4,2,2,5,0,0
236544,-80,4,2,2,65,0,0
236910,-80,4,2,2,5,0,0
237001,-80,4,2,2,65,0,0
237184,-80,4,2,2,5,0,0
237276,-80,4,2,2,65,0,0
240385,-80,4,2,2,70,0,1
240477,-80,4,2,2,70,0,0
252093,-66.6666666666667,4,2,2,75,0,1
262611,-66.6666666666667,4,2,2,5,0,1
262702,-66.6666666666667,4,2,2,75,0,1
275507,-133.333333333333,4,2,2,50,0,0
276239,-133.333333333333,4,2,2,30,0,0
279577,731.707317073171,4,2,2,40,1,0
279577,-133.333333333333,4,2,2,40,0,0
280400,-133.333333333333,4,2,2,5,0,0
281040,-133.333333333333,4,2,2,40,0,0
281131,-133.333333333333,4,2,2,5,0,0
281334,769.23076923077,4,2,2,30,1,0
281334,-133.333333333333,4,2,2,30,0,0
284026,-200,4,2,2,30,0,0
289026,-200,4,2,2,10,0,0

[Colours]
Combo1 : 16,182,182
Combo2 : 241,150,105
Combo3 : 113,242,242
Combo4 : 241,241,107

[HitObjects]
412,224,22703,6,0,P|424:188|419:170,1,45,2|0,0:2|0:2,0:2:0:0:
369,107,23069,2,0,B|285:100|333:68|242:62,1,135,2|0,0:2|0:2,0:2:0:0:
156,118,23801,6,0,P|132:162|136:214,1,90,6|2,0:2|0:2,0:2:0:0:
303,282,24532,2,0,P|301:237|279:199,1,90,2|2,0:2|0:2,0:2:0:0:
143,297,25264,2,0,P|76:296|49:232,1,135,2|0,0:2|0:2,0:2:0:0:
113,155,25996,2,0,B|134:139|134:139|205:155,1,90,2|2,0:2|0:2,0:2:0:0:
298,206,26544,1,2,0:2:0:0:
298,206,26727,6,0,L|287:308,1,90,2|2,0:2|0:2,0:2:0:0:
424,133,27459,2,0,L|441:237,1,90,2|2,0:2|0:2,0:2:0:0:
298,206,28191,1,2,0:2:0:0:
228,148,28374,1,2,0:2:0:0:
261,58,28557,2,0,P|252:30|231:13,1,45,2|0,0:2|0:2,0:2:0:0:
168,72,28922,2,0,B|106:76|141:99|76:104,1,90,2|0,0:2|0:2,0:2:0:0:
22,185,29471,1,2,0:2:0:0:
22,185,29654,6,0,P|47:227|97:232,1,90,6|2,0:2|0:2,0:2:0:0:
232,145,30386,2,0,P|183:145|153:186,1,90,2|2,0:2|0:2,0:2:0:0:
262,319,31118,2,0,B|347:311|298:278|390:273,1,135,2|0,0:2|0:2,0:2:0:0:
471,201,31849,2,0,B|455:138|455:138|441:160,1,90,2|2,0:2|0:2,0:2:0:0:
348,191,32398,1,2,0:2:0:0:
348,191,32581,6,0,P|308:154|267:157,1,90,2|2,0:2|0:2,0:2:0:0:
184,318,33313,2,0,P|227:313|257:281,1,90,2|2,0:2|0:2,0:2:0:0:
172,176,34044,1,2,0:2:0:0:
88,208,34227,1,2,0:2:0:0:
27,142,34410,1,2,0:2:0:0:
65,56,34593,1,2,0:2:0:0:
65,56,34776,2,0,B|127:61|92:84|161:89,1,90,2|2,0:2|0:2,0:2:0:0:
264,42,35325,1,2,0:2:0:0:
264,42,35508,6,0,P|303:85|300:131,1,90,6|2,0:2|0:2,0:2:0:0:
135,214,36240,2,0,P|142:170|175:141,1,90,2|2,0:2|0:2,0:2:0:0:
298,209,36971,2,0,P|349:202|380:160,1,90,2|2,0:2|0:2,0:2:0:0:
295,298,37703,2,0,P|244:291|213:249,1,90,2|2,0:2|0:2,0:2:0:0:
227,146,38252,1,2,0:2:0:0:
227,146,38435,6,0,B|197:124|197:124|131:142,1,90,2|2,0:2|0:2,0:2:0:0:
38,258,39166,2,0,B|68:280|68:280|134:262,1,90,2|2,0:2|0:2,0:2:0:0:
296,193,39898,1,2,0:2:0:0:
360,130,40081,1,2,0:2:0:0:
328,48,40264,2,0,P|310:37|279:28,1,45,2|2,0:2|0:2,0:2:0:0:
217,84,40630,1,2,0:2:0:0:
217,84,40813,2,0,P|191:124|139:123,1,90,2|0,0:2|0:2,0:2:0:0:
31,105,41361,6,0,L|46:207,1,90,6|2,0:2|0:2,0:2:0:0:
175,341,42093,2,0,L|191:231,1,90,2|2,0:2|0:2,0:2:0:0:
257,173,42642,1,2,0:2:0:0:
257,173,42825,2,0,P|294:157|346:191,1,90,2|2,0:2|0:2,0:2:0:0:
379,263,43374,2,0,P|416:279|468:245,1,90,2|0,0:2|0:2,0:2:0:0:
498,182,43922,2,0,P|492:151|482:123,1,45,2|0,0:2|0:2,0:2:0:0:
407,55,44314,6,0,B|347:59|381:82|315:86,1,90,2|2,0:2|0:2,0:2:0:0:
167,173,45045,2,0,B|224:177|191:199|254:203,1,90,2|2,0:2|0:2,0:2:0:0:
289,354,45777,1,2,0:2:0:0:
289,354,46326,1,2,0:2:0:0:
199,293,46509,2,0,P|186:240|207:201,1,90,2|2,0:2|0:2,0:2:0:0:
281,258,47057,1,2,0:2:0:0:
292,149,47240,6,0,P|251:91|172:94,1,148.50000453186,6|0,0:2|0:2,0:2:0:0:
121,216,47972,2,0,P|169:209|203:174,1,99.0000030212403,2|2,0:2|0:2,0:2:0:0:
273,63,48704,2,0,P|309:11|409:19,1,148.50000453186,6|0,0:2|0:2,0:2:0:0:
438,126,49436,2,0,P|389:119|355:84,1,99.0000030212403,2|2,0:2|0:2,0:2:0:0:
167,11,50167,6,0,B|193:38|193:38|182:107,1,99.0000030212403,6|2,0:2|0:2,0:2:0:0:
49,223,50899,2,0,B|23:196|23:196|34:127,1,99.0000030212403,2|2,0:2|0:2,0:2:0:0:
200,196,51630,2,0,B|272:189|231:162|310:157,1,99.0000030212403,2|2,0:2|0:2,0:2:0:0:
384,215,52179,1,2,0:2:0:0:
384,215,52362,2,0,P|421:175|414:121,1,99.0000030212403,2|2,0:2|0:2,0:2:0:0:
368,42,52910,1,2,0:2:0:0:
240,104,53070,6,0,B|145:94|199:59|95:52,1,148.50000453186,6|0,0:2|0:2,0:2:0:0:
6,179,53802,2,0,B|78:172|37:145|116:140,1,99.0000030212403,2|2,0:2|0:2,0:2:0:0:
240,265,54534,2,0,P|161:265|161:190,1,148.50000453186,6|0,0:2|0:2,0:2:0:0:
276,154,55265,2,0,P|327:150|347:110,1,99.0000030212403,2|2,0:2|0:2,0:2:0:0:
367,239,55996,6,0,P|344:286|348:342,1,99.0000030212403,6|2,0:2|0:2,0:2:0:0:
510,178,56728,1,0,0:2:0:0:
445,313,57094,1,0,0:2:0:0:
373,145,57440,2,0,B|278:155|332:190|228:197,1,148.50000453186,0|0,0:2|0:2,0:2:0:0:
143,122,58171,6,0,L|152:73,2,49.5000015106202,2|2|2,0:2|0:2|0:2,0:2:0:0:
125,216,58720,1,2,0:2:0:0:
125,216,58923,2,0,L|104:328,1,99.0000030212403,6|2,0:2|0:2,0:2:0:0:
218,190,59655,2,0,P|201:140|147:123,1,99.0000030212403,2|2,0:2|0:2,0:2:0:0:
190,283,60387,2,0,P|241:293|283:255,1,99.0000030212403,4|2,0:2|0:2,0:2:0:0:
383,160,61138,2,0,P|434:149|476:187,1,99.0000030212403,2|2,0:2|0:2,0:2:0:0:
495,277,61687,1,2,0:2:0:0:
495,277,61870,6,0,L|388:259,1,99.0000030212403,6|2,0:2|0:2,0:2:0:0:
248,235,62602,1,2,0:2:0:0:
387,170,62968,1,2,0:2:0:0:
253,327,63333,2,0,B|158:317|212:282|108:275,1,148.50000453186,2|0,0:2|0:2,0:2:0:0:
35,320,64065,6,0,L|44:369,2,49.5000015106202,2|2|2,0:2|0:2|0:2,0:2:0:0:
17,226,64614,1,2,0:2:0:0:
17,226,64776,2,0,L|-3:113,1,99.0000030212403,6|2,0:2|0:2,0:2:0:0:
168,33,65508,2,0,L|147:145,1,99.0000030212403,2|2,0:2|0:2,0:2:0:0:
238,272,66239,2,0,P|310:272|326:197,1,148.50000453186,6|0,0:2|0:2,0:2:0:0:
279,111,66971,5,2,0:2:0:0:
424,176,67154,1,2,0:2:0:0:
424,176,67520,1,2,0:2:0:0:
160,266,67702,6,0,L|187:60,1,202.500007724762,6|2,3:2|0:2,0:2:0:0:
320,147,68434,1,2,0:2:0:0:
320,147,69166,2,0,B|401:183|446:127|432:54|377:60|346:83,1,202.500007724762,2|2,0:2|0:2,0:2:0:0:
234,113,69897,2,0,P|206:159|225:253,1,135.000005149842,2|2,0:2|1:2,0:2:0:0:
277,311,70446,1,0,0:0:0:0:
490,235,70629,6,0,B|453:171|299:197|388:314|273:310,1,270.000010299683,2|2,3:2|0:2,0:2:0:0:
108,80,71727,2,0,P|125:115|130:146,1,67.5000025749208,2|2,0:2|0:2,0:2:0:0:
225,228,72093,2,0,P|240:150|276:80,1,135.000005149842,6|0,0:2|0:2,0:2:0:0:
358,49,72641,1,2,0:2:0:0:
408,210,72824,2,0,P|370:177|321:180,2,101.250003862381,2|2|2,1:2|1:2|0:2,0:2:0:0:
261,270,73556,6,0,P|191:198|232:111,1,202.500007724762,2|2,3:2|0:2,0:2:0:0:
321,179,74288,1,2,0:2:0:0:
321,179,74836,1,2,0:2:0:0:
228,318,75019,2,0,B|102:304|174:258|37:249,1,202.500007724762,6|2,0:2|0:2,0:2:0:0:
2,121,75751,2,0,P|39:58|106:62,1,135.000005149842,2|2,0:2|1:2,0:2:0:0:
103,148,76300,1,0,0:0:0:0:
261,183,76483,6,0,B|359:123|333:33|245:-5|210:57|212:107,1,270.000010299683,2|0,3:2|0:2,0:2:0:0:
246,267,77580,2,0,L|317:256,1,67.5000025749208,2|2,0:2|0:2,0:2:0:0:
213,350,77946,2,0,P|137:282|180:193,1,202.500007724762,6|2,0:2|0:2,0:2:0:0:
256,126,78678,5,2,1:2:0:0:
312,256,78861,1,2,0:2:0:0:
312,256,79227,1,2,0:2:0:0:
158,116,79410,2,0,P|202:26|298:33,1,202.500007724762,6|0,3:2|0:2,0:2:0:0:
194,212,80141,2,0,P|98:212|58:125,1,202.500007724762,2|0,1:2|0:2,0:2:0:0:
194,31,80873,2,0,B|245:24|245:24|275:44|275:44|332:36,1,135.000005149842,6|0,0:2|0:0,0:2:0:0:
357,249,81605,1,2,1:2:0:0:
357,249,81788,2,0,P|273:235|261:189,1,135.000005149842,2|2,0:2|0:2,0:2:0:0:
336,118,82336,5,2,3:2:0:0:
267,38,82519,1,2,0:2:0:0:
166,57,82702,1,2,1:2:0:0:
166,57,82885,2,0,B|75:66|126:99|27:106,1,135.000005149842,2|2,1:2|0:2,0:2:0:0:
1,211,83434,1,2,0:2:0:0:
42,104,83617,1,2,0:2:0:0:
122,252,83800,6,0,L|199:236,1,67.5000025749208,6|0,0:2|0:0,0:2:0:0:
230,161,84166,1,0,1:2:0:0:
293,52,84349,1,2,0:2:0:0:
293,52,84440,1,2,0:2:0:0:
293,52,84532,2,0,B|383:62|332:95|431:102,1,135.000005149842,2|2,1:2|0:2,0:2:0:0:
491,144,85080,1,2,0:2:0:0:
421,304,85263,6,0,B|394:282|360:288|360:288|379:171,1,180,2|2,3:2|0:2,0:2:0:0:
255,54,86361,2,0,L|246:109,1,45,2|2,0:2|0:2,0:2:0:0:
226,222,86727,2,0,P|253:288|169:302,1,180,6|0,0:2|1:2,0:2:0:0:
123,118,87824,2,0,L|71:108,1,45,2|0,1:2|0:0,0:0:0:0:
12,251,88190,6,0,L|69:242,1,45,2|0,3:2|0:2,0:2:0:0:
178,190,88556,1,2,1:2:0:0:
178,190,88739,2,0,L|267:205,1,90,2|0,1:2|0:2,0:2:0:0:
403,236,89288,1,2,0:2:0:0:
332,136,89471,1,2,0:2:0:0:
238,290,89654,6,0,B|180:295|212:316|150:320,2,90,2|2|2,1:2|0:2|0:2,0:2:0:0:
425,356,90751,1,2,0:2:0:0:
425,356,90934,1,2,0:2:0:0:
339,194,91117,6,0,B|293:185|293:185|268:157|268:157|233:169|233:169|176:158,1,168.75,6|0,3:2|0:2,3:2:0:0:
99,234,91849,2,0,L|116:358,1,112.5,10|2,0:2|0:2,0:2:0:0:
88,145,92397,1,2,0:2:0:0:
88,145,92489,1,2,0:2:0:0:
88,145,92580,2,0,L|72:33,2,112.5,2|2|10,1:2|1:2|0:2,0:2:0:0:
247,61,93678,2,0,L|258:0,1,56.25,2|0,1:2|0:2,0:2:0:0:
322,116,94044,6,0,P|282:154|213:133,2,112.5,2|2|10,3:2|1:2|0:2,0:2:0:0:
388,274,95141,1,2,0:2:0:0:
303,346,95324,1,2,0:2:0:0:
207,280,95507,2,0,B|133:272|175:245|94:239,1,112.5,2|2,1:2|1:2,0:2:0:0:
29,279,96056,1,2,0:2:0:0:
210,185,96239,2,0,B|283:177|241:150|322:144,1,112.5,10|2,0:2|1:2,0:2:0:0:
381,226,96788,1,2,0:2:0:0:
191,266,96971,6,0,P|114:210|137:135,1,168.75,6|0,3:2|0:2,0:2:0:0:
178,50,97702,2,0,L|66:24,1,112.5,10|2,0:2|0:2,0:2:0:0:
278,78,98251,1,2,0:2:0:0:
278,78,98343,1,2,0:2:0:0:
278,78,98434,2,0,L|387:103,2,112.5,2|0|10,1:2|1:2|0:2,0:2:0:0:
156,211,99532,2,0,P|131:185|130:152,1,56.25,2|0,1:2|0:2,0:2:0:0:
246,172,99897,6,0,P|274:216|254:280,2,112.5,2|2|10,3:2|1:2|0:2,0:2:0:0:
62,255,100995,1,2,0:2:0:0:
165,219,101178,1,2,0:2:0:0:
165,219,101269,1,2,0:0:0:0:
165,219,101361,2,0,L|148:98,1,112.5,2|0,3:2|1:2,0:2:0:0:
306,259,102093,2,0,P|353:246|356:175,1,112.5,10|0,0:2|1:2,0:2:0:0:
308,96,102641,1,2,0:2:0:0:
308,96,102733,1,2,0:2:0:0:
308,96,102824,6,0,B|207:107|265:144|153:152,1,168.75,6|0,3:2|0:2,0:2:0:0:
64,218,103556,2,0,L|52:339,1,112.5,10|2,0:2|0:2,0:2:0:0:
81,126,104105,1,2,0:2:0:0:
81,126,104196,1,2,0:2:0:0:
81,126,104288,2,0,L|92:14,2,112.5,2|2|10,1:2|1:2|0:2,0:2:0:0:
232,224,105385,2,0,L|292:212,1,56.25,2|0,1:2|0:2,0:2:0:0:
184,292,105751,6,0,P|144:245|152:197,2,112.5,2|2|10,3:2|1:2|0:2,0:2:0:0:
362,196,106849,1,2,0:2:0:0:
398,114,107032,1,2,0:2:0:0:
345,38,107215,2,0,B|302:44|302:44|282:68|282:68|237:76,1,112.5,2|2,1:2|1:2,0:2:0:0:
72,111,107946,1,10,0:2:0:0:
135,210,108129,2,0,B|208:202|166:175|247:169,1,112.5,2|0,0:2|0:2,0:2:0:0:
384,243,108678,5,2,3:2:0:0:
290,294,108861,1,2,0:2:0:0:
237,169,109044,2,0,L|247:104,1,56.25,0|0,1:2|0:2,0:2:0:0:
384,243,109410,2,0,L|374:178,1,56.25,10|0,0:2|0:2,0:2:0:0:
360,64,109776,5,2,0:2:0:0:
259,13,109958,1,2,0:2:0:0:
129,110,110141,2,0,L|198:93,1,56.25,2|0,1:2|0:2,0:2:0:0:
102,216,110507,2,0,L|47:202,1,56.25,2|0,1:2|0:2,0:2:0:0:
222,254,110873,5,10,0:2:0:0:
203,171,111056,1,2,0:2:0:0:
243,342,111239,2,0,B|304:361|328:306|317:272|340:213|412:229,1,225,2|0,1:2|0:2,0:2:0:0:
497,91,113434,6,0,P|468:70|442:64,1,45,2|0,0:2|0:2,0:2:0:0:
369,111,113800,2,0,B|314:115|345:136|286:140,1,90,2|0,0:2|0:2,0:2:0:0:
187,79,114349,1,2,0:2:0:0:
187,79,114440,1,2,0:2:0:0:
187,79,114532,6,0,P|153:141|183:185,1,112.5,6|2,3:2|1:2,0:2:0:0:
370,281,115263,2,0,P|347:214|246:214,1,168.75,2|2,0:2|0:2,0:2:0:0:
177,270,115995,2,0,P|118:262|98:213,1,112.5,2|0,1:2|1:2,0:2:0:0:
245,79,116727,2,0,B|289:74|289:74|317:85|317:85|363:80,1,112.5,10|2,0:2|1:2,0:2:0:0:
410,175,117276,1,2,0:2:0:0:
251,281,117458,6,0,L|270:163,1,112.5,2|0,3:2|1:2,0:2:0:0:
95,48,118190,2,0,L|114:166,1,112.5,2|0,0:2|0:2,0:2:0:0:
133,249,118739,1,2,0:2:0:0:
133,249,118922,5,2,1:2:0:0:
208,196,119105,1,2,0:2:0:0:
286,261,119288,2,0,L|275:322,1,56.25,2|0,1:2|0:2,0:2:0:0:
445,242,119654,2,0,P|411:194|345:200,1,112.5,10|2,0:2|1:2,0:2:0:0:
286,261,120202,1,2,0:2:0:0:
179,365,120385,6,0,B|106:357|148:330|67:324,1,112.5,2|2,3:2|1:2,0:2:0:0:
0,167,121117,2,0,B|104:155|44:116|160:108,1,168.75,2|2,0:2|0:2,0:2:0:0:
259,140,121849,2,0,P|261:75|220:36,1,112.5,2|2,1:2|1:2,0:2:0:0:
195,234,122580,2,0,P|250:268|304:252,1,112.5,10|2,0:2|1:2,0:2:0:0:
439,104,123129,1,2,0:2:0:0:
439,104,123221,1,2,0:2:0:0:
439,104,123312,6,0,B|408:87|408:87|431:174,1,112.5,2|0,3:2|1:2,0:2:0:0:
293,259,124044,2,0,L|311:148,1,112.5,2|0,0:2|0:2,0:2:0:0:
253,64,124593,1,2,0:2:0:0:
253,64,124776,1,2,1:2:0:0:
193,138,124958,1,2,0:2:0:0:
113,90,125141,2,0,L|47:78,1,56.25,2|0,1:2|0:2,0:2:0:0:
199,224,125507,2,0,B|272:216|230:189|311:183,1,112.5,10|2,0:2|1:2,0:2:0:0:
409,269,126056,1,2,0:2:0:0:
409,269,126147,1,2,0:2:0:0:
409,269,126239,6,0,P|377:323|319:328,1,112.5,2|2,3:2|1:2,0:2:0:0:
199,224,126971,2,0,B|153:218|153:218|123:230|123:230|75:225,1,112.5,2|2,0:2|0:2,0:2:0:0:
254,288,127702,2,0,P|282:248|266:172,1,112.5,2|2,1:2|1:2,0:2:0:0:
164,21,128434,2,0,P|136:61|152:137,1,112.5,10|2,0:2|1:2,0:2:0:0:
276,186,128983,1,2,0:2:0:0:
276,186,129074,1,2,0:2:0:0:
276,186,129166,6,0,B|349:178|307:151|388:145,1,112.5,2|2,3:2|1:2,0:2:0:0:
257,277,129897,2,0,B|184:269|226:242|145:236,1,112.5,2|2,0:2|0:2,0:2:0:0:
61,284,130446,1,2,0:2:0:0:
61,284,130629,1,2,1:2:0:0:
19,193,130812,1,2,0:2:0:0:
78,118,130995,2,0,L|144:128,1,56.25,2|2,1:2|0:2,0:0:0:0:
267,29,131361,2,0,L|151:46,1,112.5,10|2,0:2|1:2,0:2:0:0:
280,130,131910,1,2,0:2:0:0:
280,130,132001,1,2,0:2:0:0:
280,130,132093,6,0,P|305:169|307:248,1,112.5,2|2,3:2|1:2,0:2:0:0:
143,313,132824,2,0,P|145:257|173:209,1,112.5,2|2,0:2|0:2,0:2:0:0:
248,268,133373,1,2,0:2:0:0:
280,130,133556,2,0,P|245:93|167:94,1,112.5,2|2,1:2|1:2,0:2:0:0:
70,258,134288,2,0,L|90:135,1,112.5,10|2,0:2|1:2,0:2:0:0:
248,268,135019,6,0,B|293:262|293:262|316:243|316:243|364:237,1,112.5,2|0,3:2|1:2,0:2:0:0:
474,89,135751,2,0,B|429:83|429:83|406:64|406:64|358:58,1,112.5,2|2,0:2|0:2,0:2:0:0:
381,167,136300,1,2,0:2:0:0:
492,199,136483,2,0,L|471:76,1,112.5,2|0,1:2|1:2,0:2:0:0:
381,167,137032,1,2,0:2:0:0:
302,10,137215,1,10,0:2:0:0:
219,41,137397,1,2,3:2:0:0:
219,41,137580,2,0,L|226:96,1,56.25,2|0,1:2|0:2,0:2:0:0:
242,205,137946,5,6,3:2:0:0:
109,179,138129,1,2,0:2:0:0:
215,312,138312,2,0,L|282:300,1,56.25,2|0,1:2|0:2,0:2:0:0:
109,179,138678,2,0,L|176:191,1,56.25,10|0,0:2|0:2,0:2:0:0:
0,245,139044,5,2,0:2:0:0:
113,288,139227,1,2,0:2:0:0:
251,219,139410,2,0,L|242:150,1,56.25,2|0,1:2|0:2,0:2:0:0:
155,28,139776,2,0,L|146:97,1,56.25,2|0,1:2|0:2,0:2:0:0:
113,288,140141,1,10,0:2:0:0:
230,333,140324,2,0,B|303:325|261:298|342:292,1,112.5,2|0,0:2|0:2,0:2:0:0:
472,342,140873,5,2,3:2:0:0:
332,292,141056,1,2,0:2:0:0:
449,202,141239,2,0,L|458:257,1,56.25,2|0,1:2|0:2,0:2:0:0:
370,117,141605,2,0,L|361:173,1,56.25,10|0,0:2|0:2,0:2:0:0:
477,51,141971,5,2,0:2:0:0:
370,117,142154,1,2,0:2:0:0:
278,31,142336,2,0,L|217:21,1,56.25,2|0,1:2|0:2,0:2:0:0:
156,159,142702,2,0,L|217:149,1,56.25,2|0,1:2|0:2,0:2:0:0:
370,117,143068,1,10,0:2:0:0:
356,228,143251,2,0,L|370:115,1,112.5,2|0,0:2|0:2,0:2:0:0:
461,187,143800,5,2,3:2:0:0:
439,283,143983,1,2,0:2:0:0:
348,332,144166,2,0,L|277:323,1,56.25,2|0,1:2|0:2,0:2:0:0:
461,187,144532,2,0,L|405:194,1,56.25,10|0,0:2|0:2,0:2:0:0:
493,105,144897,5,2,0:2:0:0:
405,194,145080,1,2,0:2:0:0:
333,102,145263,2,0,L|342:38,1,56.25,2|0,1:2|0:2,0:2:0:0:
182,102,145629,2,0,L|189:157,1,56.25,2|0,1:2|0:2,0:2:0:0:
227,322,145995,5,10,0:2:0:0:
129,366,146178,1,2,0:2:0:0:
66,275,146361,2,0,L|75:211,1,56.25,2|0,1:2|0:2,0:2:0:0:
104,36,146727,5,2,3:2:0:0:
86,143,146910,1,2,0:2:0:0:
222,101,147093,2,0,L|212:36,1,56.25,2|0,1:2|0:2,0:2:0:0:
77,198,147458,2,0,L|86:143,1,56.25,10|0,0:2|0:2,0:2:0:0:
158,286,147824,5,2,0:2:0:0:
249,209,148007,1,2,0:2:0:0:
325,308,148190,2,0,L|257:300,1,56.25,2|0,1:2|0:2,0:2:0:0:
158,286,148556,2,0,L|90:278,1,56.25,2|0,1:2|0:2,0:2:0:0:
25,105,148922,5,10,0:2:0:0:
152,167,149105,1,2,0:2:0:0:
34,218,149288,1,2,1:2:0:0:
161,72,149471,1,2,0:2:0:0:
161,72,149562,1,2,0:2:0:0:
161,72,149654,6,0,B|234:80|192:107|273:113,1,112.5,2|2,3:2|1:2,0:2:0:0:
350,249,150202,1,0,0:0:0:0:
256,313,150385,2,0,B|232:283|232:283|251:202,1,112.5,10|2,0:2|0:2,0:2:0:0:
263,112,150934,1,2,0:2:0:0:
380,223,151117,6,0,B|423:217|423:217|448:198|448:198|492:193,1,112.5,2|2,1:2|1:2,0:2:0:0:
318,360,151849,2,0,B|275:354|275:354|250:335|250:335|206:330,1,112.5,10|2,0:2|1:2,0:2:0:0:
111,316,152397,1,0,0:0:0:0:
31,384,152580,5,2,3:2:0:0:
111,316,152763,1,0,0:0:0:0:
65,223,152946,2,0,L|52:157,1,56.25,2|0,1:2|0:0,0:0:0:0:
218,165,153312,2,0,L|234:48,1,112.5,10|2,0:2|0:2,0:2:0:0:
328,0,153861,1,2,0:2:0:0:
362,135,154044,6,0,L|350:76,1,56.25,2|0,1:2|0:2,0:2:0:0:
480,55,154410,2,0,L|468:110,1,56.25,2|0,1:2|0:2,0:2:0:0:
430,282,154776,1,10,0:2:0:0:
272,341,154958,1,2,0:2:0:0:
327,226,155141,1,2,1:2:0:0:
377,370,155324,1,2,0:2:0:0:
377,370,155416,1,2,0:2:0:0:
377,370,155507,6,0,B|334:364|334:364|309:345|309:345|265:340,1,112.5,2|2,3:2|0:2,0:2:0:0:
138,152,156239,2,0,B|109:178|109:178|128:261,1,112.5,2|2,0:2|0:2,0:2:0:0:
157,378,156971,1,6,0:2:0:0:
157,378,157702,5,2,0:2:0:0:
270,331,157885,1,2,0:2:0:0:
97,158,158251,1,2,0:2:0:0:
97,158,158343,1,2,0:2:0:0:
97,158,158434,6,0,B|173:141|144:211|226:192,1,135.000005149842,6|0,3:2|1:2,0:2:0:0:
372,92,158983,1,2,0:2:0:0:
341,310,159166,2,0,L|361:166,1,135.000005149842,10|2,0:2|0:2,0:2:0:0:
497,162,159715,1,2,0:2:0:0:
279,42,159897,6,0,B|228:52|228:52|209:84|209:84|149:95,1,135.000005149842,2|2,1:2|1:2,0:2:0:0:
13,124,160446,1,2,0:2:0:0:
195,306,160629,2,0,L|181:227,1,67.5000025749208,10|0,0:2|0:2,0:2:0:0:
163,92,160995,1,2,1:2:0:0:
43,249,161178,1,2,0:2:0:0:
254,147,161361,6,0,B|330:164|301:94|383:113,1,135.000005149842,2|2,1:2|1:2,0:2:0:0:
449,237,161910,1,2,0:2:0:0:
230,279,162093,2,0,L|255:137,1,135.000005149842,10|2,0:2|0:2,0:2:0:0:
113,8,162641,1,2,0:2:0:0:
113,8,162733,1,2,0:2:0:0:
113,8,162824,6,0,L|127:87,1,67.5000025749208,6|0,3:2|0:2,0:2:0:0:
0,182,163190,2,0,L|14:103,1,67.5000025749208,2|0,1:2|0:2,0:2:0:0:
161,197,163556,1,10,0:2:0:0:
244,75,163739,1,2,0:2:0:0:
294,268,163922,1,2,1:2:0:0:
124,74,164105,1,2,0:2:0:0:
415,16,164288,6,0,B|386:55|386:55|416:154,1,135.000005149842,2|2,3:2|1:2,0:2:0:0:
470,287,164836,1,2,0:2:0:0:
282,145,165019,2,0,B|206:128|235:198|153:179,1,135.000005149842,10|0,0:2|0:2,0:2:0:0:
88,82,165568,1,2,0:2:0:0:
278,232,165751,6,0,L|261:373,1,135.000005149842,2|0,1:2|0:2,0:2:0:0:
167,265,166300,1,2,0:2:0:0:
382,199,166483,2,0,L|365:130,1,67.5000025749208,10|0,0:2|0:2,0:2:0:0:
209,10,166849,1,2,1:2:0:0:
254,150,167032,1,2,0:2:0:0:
378,30,167215,6,0,B|429:40|429:40|448:72|448:72|508:83,1,135.000005149842,2|2,3:2|1:2,0:2:0:0:
382,199,167763,1,2,0:2:0:0:
187,93,167946,2,0,B|111:76|140:146|58:127,1,135.000005149842,10|2,0:2|0:2,0:2:0:0:
209,244,168495,1,2,0:2:0:0:
209,244,168586,1,2,0:2:0:0:
209,244,168678,6,0,L|196:162,1,67.5000025749208,6|0,3:2|0:2,0:2:0:0:
48,303,169044,2,0,L|61:221,1,67.5000025749208,2|0,1:2|0:2,0:2:0:0:
224,346,169410,1,10,0:2:0:0:
48,303,169593,1,2,0:2:0:0:
209,244,169776,1,0,1:2:0:0:
96,384,169958,1,2,0:2:0:0:
335,287,170141,6,0,L|311:140,1,135.000005149842,6|0,3:2|0:0,0:2:0:0:
298,59,170690,1,0,0:2:0:0:
131,204,170873,2,0,P|81:150|114:80,1,135.000005149842,10|0,0:2|0:0,0:2:0:0:
154,22,171422,1,0,0:2:0:0:
236,181,171605,2,0,B|350:206|306:101|429:130,1,202.500007724762,2|0,1:2|0:2,0:2:0:0:
351,308,172336,5,10,0:2:0:0:
432,195,172519,2,0,L|417:116,1,67.5000025749208,2|0,0:2|1:2,0:2:0:0:
278,221,172885,1,2,0:2:0:0:
197,108,173068,2,0,L|212:29,1,67.5000025749208,2|0,1:2|0:2,0:2:0:0:
303,146,173434,1,2,1:2:0:0:
401,56,173617,1,2,0:2:0:0:
202,217,173800,6,0,B|150:210|150:210|122:235|122:235|61:227,1,135.000005149842,10|2,0:2|0:2,0:2:0:0:
190,328,174349,1,2,0:2:0:0:
303,146,174532,2,0,L|325:286,1,135.000005149842,2|2,1:2|0:2,0:2:0:0:
89,134,175263,2,0,L|101:51,1,67.5000025749208,10|2,0:2|0:2,0:2:0:0:
202,217,175629,2,0,L|189:134,1,67.5000025749208,2|2,1:2|0:2,0:2:0:0:
111,273,175995,6,0,P|148:319|222:321,1,135.000005149842,2|2,3:2|1:2,0:2:0:0:
303,271,176544,1,2,0:2:0:0:
213,139,176727,1,10,0:2:0:0:
213,139,177093,1,2,0:2:0:0:
177,231,177276,1,2,0:2:0:0:
122,361,177458,6,0,B|46:378|75:308|-7:327,1,135.000005149842,2|2,1:2|1:2,0:2:0:0:
107,200,178007,1,2,0:2:0:0:
302,354,178190,2,0,P|366:329|372:261,1,135.000005149842,10|2,0:2|0:2,0:2:0:0:
345,165,178739,1,2,0:2:0:0:
189,297,178922,6,0,L|175:220,1,67.5000025749208,2|0,1:2|0:2,0:2:0:0:
150,91,179288,1,2,0:2:0:0:
42,203,179471,1,2,0:2:0:0:
229,114,179654,6,0,B|280:124|280:124|299:156|299:156|359:167,1,135.000005149842,10|2,0:2|1:2,0:2:0:0:
461,88,180202,1,2,0:2:0:0:
355,253,180385,2,0,L|342:150,2,90,2|2|2,3:2|0:2|0:2,0:2:0:0:
166,188,181483,1,2,0:2:0:0:
189,265,181666,1,2,0:2:0:0:
314,84,181849,6,0,B|219:105|255:18|154:41,1,168.75,6|0,3:2|0:2,0:2:0:0:
44,183,182580,2,0,L|60:61,1,112.5,10|2,0:2|0:2,0:2:0:0:
36,270,183129,1,2,0:2:0:0:
36,270,183221,1,2,0:2:0:0:
36,270,183312,2,0,L|21:381,2,112.5,2|2|10,1:2|1:2|0:2,0:2:0:0:
235,236,184410,2,0,L|173:245,1,56.25,2|0,1:2|0:2,0:2:0:0:
307,329,184776,5,2,3:2:0:0:
384,255,184958,1,2,0:2:0:0:
344,147,185141,2,0,L|354:87,1,56.25,2|0,1:2|0:2,0:2:0:0:
235,236,185507,2,0,L|245:296,1,56.25,10|0,0:2|0:2,0:2:0:0:
102,351,185873,5,2,0:2:0:0:
64,266,186056,1,2,0:2:0:0:
125,189,186239,2,0,B|199:181|157:154|238:148,1,112.5,2|2,1:2|1:2,0:2:0:0:
319,189,186788,1,2,0:2:0:0:
116,101,186971,2,0,B|42:93|84:66|3:60,1,112.5,10|2,0:2|1:2,0:2:0:0:
132,195,187519,1,2,0:2:0:0:
132,195,187611,1,2,0:2:0:0:
132,195,187702,6,0,P|192:172|214:110,1,112.5,2|2,3:2|1:2,0:2:0:0:
383,237,188434,2,0,L|398:350,1,112.5,10|2,0:2|0:2,0:2:0:0:
370,148,188983,1,2,0:2:0:0:
370,148,189074,1,2,0:2:0:0:
370,148,189166,2,0,L|354:36,2,112.5,2|2|10,1:2|1:2|0:2,0:2:0:0:
167,220,190263,2,0,L|178:153,1,56.25,2|0,1:2|0:2,0:2:0:0:
195,64,190629,5,2,3:2:0:0:
100,12,190812,1,2,0:2:0:0:
21,79,190995,2,0,L|32:146,1,56.25,2|0,1:2|0:2,0:2:0:0:
195,64,191361,2,0,L|206:-3,1,56.25,10|0,0:2|0:2,0:2:0:0:
326,41,191727,5,2,0:2:0:0:
302,145,191910,1,2,0:2:0:0:
374,240,192093,2,0,L|442:227,1,56.25,2|0,1:2|0:2,0:2:0:0:
302,145,192458,2,0,L|234:132,1,56.25,2|0,1:2|0:2,0:2:0:0:
121,106,192824,5,10,0:2:0:0:
182,209,193007,1,2,0:2:0:0:
202,60,193190,1,2,1:2:0:0:
78,178,193373,1,2,0:2:0:0:
78,178,193465,1,2,0:2:0:0:
78,178,193556,6,0,B|52:158|20:163|20:163|38:52,1,168.75,6|0,3:2|0:2,0:2:0:0:
235,149,194288,2,0,B|309:141|267:114|348:108,1,112.5,10|2,0:2|0:2,0:2:0:0:
223,242,194836,1,2,0:2:0:0:
223,242,194928,1,2,0:2:0:0:
223,242,195019,2,0,B|149:234|191:207|110:201,2,112.5,2|2|10,1:2|1:2|0:2,0:2:0:0:
441,151,196117,2,0,L|430:78,1,56.25,2|0,1:2|0:2,0:2:0:0:
350,192,196483,5,2,3:2:0:0:
403,288,196666,1,2,0:2:0:0:
328,365,196849,2,0,L|264:354,1,56.25,2|0,1:2|0:2,0:2:0:0:
350,192,197215,2,0,L|414:181,1,56.25,10|0,0:2|0:2,0:2:0:0:
504,91,197580,5,2,0:2:0:0:
407,23,197763,1,2,0:2:0:0:
504,91,197946,2,0,L|495:152,1,56.25,2|0,1:2|0:2,0:2:0:0:
350,192,198312,2,0,L|359:253,1,56.25,2|0,1:2|0:2,0:2:0:0:
334,95,198678,5,10,0:2:0:0:
186,133,198861,1,2,0:2:0:0:
259,30,199044,1,0,1:2:0:0:
204,219,199227,1,2,0:2:0:0:
204,219,199318,1,2,0:2:0:0:
204,219,199410,6,0,B|99:207|158:169|44:161,1,168.75,2|0,3:2|0:2,0:2:0:0:
186,133,200141,2,0,L|171:18,1,112.5,10|2,0:2|0:2,0:2:0:0:
204,219,200690,1,2,0:2:0:0:
204,219,200782,1,2,0:2:0:0:
204,219,200873,2,0,L|218:330,2,112.5,2|2|10,1:2|1:2|0:2,0:2:0:0:
341,140,201971,2,0,P|380:120|409:120,1,56.25,2|0,1:2|0:2,0:2:0:0:
493,272,202336,5,2,3:2:0:0:
406,200,202519,1,2,0:2:0:0:
308,253,202702,2,0,L|321:319,1,56.25,2|0,1:2|0:2,0:2:0:0:
180,177,203068,2,0,L|193:111,1,56.25,10|0,0:2|0:2,0:2:0:0:
212,19,203434,5,2,0:2:0:0:
333,76,203617,1,2,0:2:0:0:
212,19,203800,2,0,B|142:26|181:51|105:57,1,112.5,2|2,1:2|1:2,0:2:0:0:
26,146,204349,1,2,0:2:0:0:
232,224,204532,2,0,L|214:104,1,112.5,10|2,0:2|1:2,0:2:0:0:
123,183,205080,1,2,0:2:0:0:
295,52,205263,6,0,B|359:43|359:43|393:74|393:74|469:64,1,168.75,6|0,3:2|0:2,0:2:0:0:
366,227,205995,2,0,L|306:217,1,56.25,10|0,0:2|0:0,0:2:0:0:
215,204,206361,5,2,0:2:0:0:
139,282,206544,1,2,0:2:0:0:
239,348,206727,2,0,L|228:283,1,56.25,2|0,1:2|0:2,0:2:0:0:
215,204,207093,5,2,0:2:0:0:
136,147,207276,1,2,0:2:0:0:
15,237,207458,2,0,L|25:181,1,56.25,10|0,0:2|0:2,0:2:0:0:
58,76,207824,5,2,0:2:0:0:
136,147,208007,1,2,0:2:0:0:
237,95,208190,2,0,B|300:80|276:139|344:123,1,112.5,2|2,3:2|1:2,0:2:0:0:
417,63,208739,1,2,0:2:0:0:
238,238,208922,6,0,L|228:174,1,56.25,10|0,0:2|0:2,0:2:0:0:
327,278,209288,2,0,L|337:214,1,56.25,2|0,0:2|0:2,0:2:0:0:
146,301,209654,2,0,L|136:237,1,56.25,0|0,1:2|0:2,0:2:0:0:
407,349,210019,2,0,L|417:285,1,56.25,2|0,1:2|0:2,0:2:0:0:
59,361,210385,2,0,L|49:297,1,56.25,10|0,0:2|0:2,0:2:0:0:
99,133,210751,2,0,P|132:103|179:103,1,84.375,2|0,1:2|0:2,0:2:0:0:
170,100,211117,5,2,3:2:0:0:
240,200,211300,1,2,0:2:0:0:
170,295,211483,2,0,L|101:283,1,56.25,2|0,1:2|0:2,0:2:0:0:
283,108,211849,2,0,L|352:96,1,56.25,10|0,0:2|0:2,0:2:0:0:
444,183,212215,5,2,0:2:0:0:
360,258,212397,1,2,0:2:0:0:
479,347,212580,2,0,L|467:283,1,56.25,2|0,1:2|0:2,0:2:0:0:
283,108,212946,5,2,1:2:0:0:
367,183,213128,1,2,0:2:0:0:
248,272,213312,2,0,L|260:208,1,56.25,10|0,0:2|0:2,0:2:0:0:
111,173,213678,5,2,1:2:0:0:
138,275,213861,1,2,0:2:0:0:
168,384,214044,2,0,B|197:378|197:378|213:360|213:360|236:367|236:367|272:360,1,112.5,2|2,1:2|1:2,0:2:0:0:
374,281,214593,1,2,0:2:0:0:
220,126,214776,6,0,L|232:194,1,56.25,10|0,0:2|0:2,0:2:0:0:
327,91,215141,2,0,L|315:159,1,56.25,2|0,0:2|0:2,0:2:0:0:
116,80,215507,2,0,L|128:148,1,56.25,2|0,1:2|0:2,0:2:0:0:
166,319,215873,1,2,1:2:0:0:
261,155,216056,1,2,0:2:0:0:
261,155,216147,1,2,0:2:0:0:
261,155,216239,2,0,L|328:144,1,56.25,10|0,0:2|0:2,0:2:0:0:
402,39,216605,1,2,1:2:0:0:
251,244,216788,1,2,0:2:0:0:
251,244,216879,1,2,0:2:0:0:
251,244,216971,6,0,B|188:259|212:200|144:216,1,112.5,6|0,3:2|1:2,0:2:0:0:
391,360,217702,1,10,0:2:0:0:
312,176,217885,1,2,0:2:0:0:
226,332,218068,2,0,L|297:320,1,56.25,2|0,0:2|0:2,0:2:0:0:
451,287,218434,5,2,3:2:0:0:
267,246,218617,1,2,0:2:0:0:
391,360,218800,1,2,1:2:0:0:
423,199,218983,2,0,L|402:80,1,112.5,2|2,0:2|0:2,0:2:0:0:
270,28,219532,2,0,B|287:14|287:14|336:20,1,56.25,2|0,1:2|0:2,0:2:0:0:
231,163,219897,6,0,B|161:156|200:131|124:125,1,112.5,2|2,3:2|1:2,0:2:0:0:
216,338,220629,1,10,0:2:0:0:
323,253,220812,2,0,B|355:222|355:222|332:139,1,112.5,2|0,0:2|0:2,0:2:0:0:
214,17,221361,2,0,L|200:137,1,112.5,2|2,1:2|1:2,0:2:0:0:
185,268,221910,1,2,0:0:0:0:
185,268,222093,1,10,0:2:0:0:
100,177,222276,1,2,0:2:0:0:
55,311,222458,1,2,1:2:0:0:
203,184,222641,1,2,0:2:0:0:
203,184,222733,1,2,0:2:0:0:
203,184,222824,6,0,B|266:169|242:228|310:212,1,112.5,2|2,3:2|1:2,0:2:0:0:
452,123,223556,2,0,L|443:67,1,56.25,10|0,0:2|0:2,0:2:0:0:
345,188,223922,2,0,L|354:132,1,56.25,2|0,1:2|0:2,0:2:0:0:
486,270,224288,1,2,0:2:0:0:
486,270,224654,6,0,L|424:282,1,56.25,2|0,1:2|0:2,0:2:0:0:
289,177,225019,2,0,L|351:189,1,56.25,10|0,0:2|0:2,0:2:0:0:
238,295,225385,2,0,L|226:229,1,56.25,2|0,1:2|0:2,0:2:0:0:
110,120,225751,6,0,L|87:243,1,112.5,2|2,3:2|1:2,0:2:0:0:
178,54,226483,2,0,P|152:28|126:23,1,56.25,10|0,0:2|0:2,0:2:0:0:
216,149,226849,2,0,P|242:139|260:118,1,56.25,2|0,0:2|0:2,0:2:0:0:
425,41,227215,6,0,B|416:85|416:85|430:109|430:109|419:159,1,112.5,2|2,1:2|1:2,0:2:0:0:
371,357,227946,1,10,0:2:0:0:
266,254,228129,1,2,0:2:0:0:
387,227,228312,1,2,1:2:0:0:
243,363,228495,1,2,0:2:0:0:
187,152,228678,6,0,B|261:144|219:117|300:111,1,112.5,6|2,3:2|1:2,0:2:0:0:
182,235,229410,2,0,L|126:226,1,56.25,10|0,1:2|0:0,0:2:0:0:
31,206,229776,5,2,0:2:0:0:
9,116,229958,1,2,0:2:0:0:
70,42,230141,2,0,L|142:52,1,56.25,2|0,1:2|0:2,0:2:0:0:
260,63,230507,5,2,0:2:0:0:
343,154,230690,1,2,0:2:0:0:
234,209,230873,2,0,L|248:146,1,56.25,10|0,0:2|0:2,0:2:0:0:
333,263,231239,5,2,1:2:0:0:
430,207,231422,1,2,0:2:0:0:
471,107,231605,2,0,P|451:53|391:31,1,112.5,2|2,1:2|1:2,0:2:0:0:
369,141,232154,1,2,0:2:0:0:
234,209,232336,6,0,L|244:145,1,56.25,10|0,0:2|0:2,0:2:0:0:
333,263,232702,2,0,L|323:199,1,56.25,2|0,1:2|0:2,0:2:0:0:
142,278,233068,2,0,L|152:214,1,56.25,2|0,1:2|0:2,0:2:0:0:
425,298,233434,2,0,L|415:234,1,56.25,2|0,1:2|0:2,0:2:0:0:
55,328,233800,2,0,L|65:264,1,56.25,10|0,0:2|0:2,0:2:0:0:
187,108,234166,2,0,L|197:172,1,56.25,2|0,1:2|0:2,0:2:0:0:
105,72,234532,5,2,3:2:0:0:
64,177,234715,1,2,0:2:0:0:
147,253,234897,2,0,L|208:241,1,56.25,2|0,1:2|0:2,0:2:0:0:
105,72,235263,2,0,L|44:60,1,56.25,10|0,0:2|0:2,0:2:0:0:
198,97,235629,5,2,0:2:0:0:
282,43,235812,1,2,0:2:0:0:
339,186,235995,6,0,P|339:149|328:126,1,56.25,2|0,1:2|0:2,0:2:0:0:
255,168,236269,6,0,P|222:187|198:185,1,56.25,2|0,0:2|0:2,0:2:0:0:
132,156,236544,5,2,0:2:0:0:
7,259,236727,6,0,L|15:322,1,56.25,10|0,0:2|0:2,0:2:0:0:
88,367,237001,6,0,L|96:304,1,56.25,2|0,0:2|0:2,0:2:0:0:
169,258,237276,5,2,0:2:0:0:
332,289,237458,6,0,B|358:256|358:256|337:173,1,112.5,2|2,3:2|1:2,0:2:0:0:
309,62,238007,1,2,0:2:0:0:
138,172,238190,6,0,L|79:164,1,56.25,10|0,0:2|0:2,0:2:0:0:
196,82,238556,2,0,L|137:90,1,56.25,2|0,0:2|0:2,0:2:0:0:
230,254,238922,2,0,L|171:246,1,56.25,2|0,1:2|0:2,0:2:0:0:
239,0,239288,2,0,L|180:8,1,56.25,2|0,1:2|0:2,0:2:0:0:
296,341,239654,2,0,L|237:333,1,56.25,10|0,0:2|0:2,0:2:0:0:
360,196,240019,1,2,0:2:0:0:
415,309,240202,1,2,0:2:0:0:
279,170,240385,6,0,P|303:122|369:112,1,112.5,6|0,3:2|1:2,0:2:0:0:
183,294,241117,2,0,L|175:227,1,56.25,10|0,0:2|0:2,0:2:0:0:
69,208,241483,2,0,L|95:145,1,56.25,2|0,0:2|0:2,0:2:0:0:
47,54,241849,2,0,L|170:39,1,112.5,2|2,1:2|1:2,0:2:0:0:
287,72,242397,1,2,0:2:0:0:
287,72,242489,1,2,0:2:0:0:
287,72,242580,2,0,P|300:107|298:139,1,56.25,10|0,0:2|0:2,0:2:0:0:
173,203,242946,2,0,P|175:175|186:149,1,56.25,2|0,1:2|0:2,0:2:0:0:
326,238,243312,6,0,B|400:230|358:203|439:197,1,112.5,2|0,3:2|1:2,0:2:0:0:
294,366,244044,2,0,L|236:357,1,56.25,10|0,0:2|0:2,0:2:0:0:
146,266,244410,2,0,L|204:257,1,56.25,2|0,0:2|0:2,0:2:0:0:
49,336,244776,2,0,P|20:295|38:232,1,112.5,2|2,1:2|1:2,0:2:0:0:
217,95,245507,2,0,B|291:103|249:130|330:136,1,112.5,10|2,0:2|0:2,0:2:0:0:
418,96,246056,1,2,0:2:0:0:
306,269,246239,6,0,B|181:242|229:356|95:325,1,225,2|10,3:2|0:2,0:2:0:0:
28,139,247336,2,0,P|64:120|89:124,1,56.25,2|0,0:2|0:2,0:2:0:0:
189,158,247702,2,0,L|205:41,2,112.5,2|2|10,1:2|1:2|0:2,0:2:0:0:
355,244,248800,2,0,L|343:178,1,56.25,2|2,1:2|0:2,0:2:0:0:
238,266,249166,6,0,L|229:331,1,56.25,2|0,3:2|0:2,0:2:0:0:
142,376,249532,1,2,1:2:0:0:
142,376,249715,2,0,P|98:328|51:328,1,112.5,2|0,0:2|0:2,0:2:0:0:
137,230,250263,2,0,P|161:201|190:197,1,56.25,2|2,0:2|0:2,0:2:0:0:
303,281,250629,2,0,B|377:273|335:246|416:240,1,112.5,2|2,1:2|1:2,0:2:0:0:
313,29,251361,1,10,0:2:0:0:
313,29,251727,2,0,L|255:37,1,56.25,2|2,0:2|0:2,0:2:0:0:
189,172,252093,6,0,B|79:196|121:95|3:123,1,202.500007724762,6|0,3:2|0:2,0:2:0:0:
253,233,252824,2,0,P|275:161|246:107,1,135.000005149842,10|2,0:2|0:2,0:2:0:0:
97,220,253373,1,2,0:2:0:0:
97,220,253465,1,2,0:2:0:0:
97,220,253556,2,0,P|75:292|104:346,2,135.000005149842,2|2|10,1:2|1:2|0:2,0:2:0:0:
314,319,254654,2,0,L|382:306,1,67.5000025749208,2|0,1:2|0:2,0:2:0:0:
435,218,255019,6,0,B|413:201|386:205|386:205|401:111,1,135.000005149842,2|2,3:2|1:2,0:2:0:0:
219,0,255751,2,0,L|244:136,1,135.000005149842,10|2,0:2|0:2,0:2:0:0:
270,255,256300,1,2,0:2:0:0:
133,161,256483,2,0,B|55:143|85:214|2:195,1,135.000005149842,2|2,1:2|1:2,0:2:0:0:
183,322,257215,2,0,P|255:307|266:243,1,135.000005149842,10|2,0:2|1:2,0:2:0:0:
227,154,257763,1,2,0:2:0:0:
327,18,257946,6,0,B|383:61|383:61|354:198,1,202.500007724762,2|0,3:2|0:2,0:2:0:0:
203,332,258678,2,0,B|125:349|155:278|72:297,1,135.000005149842,10|2,0:2|0:2,0:2:0:0:
234,226,259227,1,2,0:2:0:0:
234,226,259318,1,2,0:2:0:0:
234,226,259410,2,0,B|311:243|281:172|364:191,2,135.000005149842,2|2|10,1:2|1:2|0:2,0:2:0:0:
176,76,260507,2,0,L|186:5,1,67.5000025749208,2|0,1:2|0:2,0:2:0:0:
316,4,260873,5,2,3:2:0:0:
300,102,261056,1,2,0:2:0:0:
367,191,261239,2,0,L|439:177,1,67.5000025749208,2|0,1:2|0:2,0:2:0:0:
210,245,261605,2,0,L|138:231,1,67.5000025749208,10|0,0:2|0:2,0:2:0:0:
28,201,261971,1,2,0:2:0:0:
166,110,262154,1,2,0:2:0:0:
235,339,262336,6,0,B|274:331|274:331|289:306|289:306|335:298,1,101.250003862381,2|0,1:2|0:2,0:2:0:0:
320,300,262702,1,2,1:2:0:0:
447,364,262885,1,2,0:2:0:0:
512,196,263068,2,0,P|462:134|402:135,1,135.000005149842,10|2,0:2|0:2,0:2:0:0:
309,197,263617,1,2,0:2:0:0:
162,279,263800,6,0,B|111:238|111:238|146:100,1,202.500007724762,6|0,3:2|0:2,0:2:0:0:
309,197,264532,2,0,B|386:179|356:250|439:231,1,135.000005149842,10|2,0:2|0:2,0:2:0:0:
287,340,265080,1,2,0:2:0:0:
287,340,265172,1,2,0:2:0:0:
287,340,265263,2,0,B|209:322|239:393|156:374,2,135.000005149842,2|2|10,1:2|1:2|0:2,0:2:0:0:
451,174,266361,2,0,L|441:105,1,67.5000025749208,2|0,1:2|0:2,0:2:0:0:
305,0,266727,6,0,L|287:134,1,135.000005149842,2|0,3:2|1:2,0:2:0:0:
174,308,267458,2,0,B|96:325|126:254|43:273,1,135.000005149842,10|2,0:2|0:2,0:2:0:0:
0,186,268007,1,2,0:2:0:0:
55,92,268190,2,0,L|126:83,1,67.5000025749208,2|0,1:2|0:2,0:2:0:0:
203,212,268556,2,0,L|132:203,1,67.5000025749208,2|0,1:2|0:2,0:2:0:0:
290,134,268922,2,0,B|322:166|322:166|310:261,1,135.000005149842,10|2,0:2|1:2,0:2:0:0:
444,343,269471,1,2,0:2:0:0:
444,343,269562,1,2,0:2:0:0:
444,343,269654,5,2,3:2:0:0:
505,259,269836,1,2,0:2:0:0:
445,169,270019,2,0,L|377:178,1,67.5000025749208,2|0,1:2|0:2,0:2:0:0:
240,317,270385,2,0,L|308:326,1,67.5000025749208,10|0,0:2|0:2,0:2:0:0:
262,196,270751,5,2,0:2:0:0:
155,243,270934,1,2,0:2:0:0:
95,156,271117,2,0,L|110:80,1,67.5000025749208,2|0,1:2|0:2,0:2:0:0:
262,196,271483,2,0,L|247:120,1,67.5000025749208,2|0,0:2|0:2,0:2:0:0:
428,8,271849,2,0,L|416:84,1,67.5000025749208,10|0,0:2|0:2,0:2:0:0:
397,220,272215,1,2,1:2:0:0:
397,220,272580,5,2,1:2:0:0:
299,160,272763,1,2,0:2:0:0:
216,222,272946,2,0,L|229:288,1,67.5000025749208,2|0,1:2|0:2,0:2:0:0:
397,220,273312,2,0,L|410:153,1,67.5000025749208,10|0,0:2|0:2,0:2:0:0:
312,51,273678,2,0,B|335:37|335:37|394:51,1,67.5000025749208,2|2,1:2|0:2,0:2:0:0:
299,160,274044,5,2,1:2:0:0:
160,29,274227,1,8,0:2:0:0:
160,149,274410,5,2,1:2:0:0:
236,101,274593,1,2,0:2:0:0:
22,229,274776,5,10,0:2:0:0:
182,335,274958,1,10,0:2:0:0:
97,279,275141,5,2,1:2:0:0:
183,245,275324,1,2,0:2:0:0:
183,245,275416,1,2,0:2:0:0:
183,245,275507,6,0,B|260:227|230:298|313:279,1,135.000005149842,6|2,3:2|0:2,0:2:0:0:
411,176,276605,1,2,0:2:0:0:
411,176,276971,2,0,L|399:106,2,67.5000025749208,6|2|2,0:2|0:2|0:2,0:2:0:0:
304,281,278068,2,0,P|190:225|248:117,1,278.437510621548,6|2,1:2|0:2,0:2:0:0:
109,275,280308,6,0,L|86:271,1,16.8750006437302,2|0,0:2|0:2,0:2:0:0:
237,356,281040,6,0,L|260:352,1,16.8750006437302,2|0,0:2|0:2,0:2:0:0:
330,290,281334,6,0,L|317:219,2,67.5000025749208,6|2|2,0:2|0:2|0:2,0:2:0:0:
425,222,282487,1,2,0:2:0:0:
425,222,282872,2,0,L|438:151,2,67.5000025749208,0|2|2,3:0|0:2|0:2,0:2:0:0:
330,290,284026,6,0,B|276:257|196:277|183:348|84:368|38:295|40:290|40:290|39:285|39:285|40:279|40:279|37:273|37:273|38:266|38:266|36:262|36:262|37:257|37:257|34:254|34:254|28:218|94:137|224:186,1,585,6|0,0:2|0:2,0:2:0:0:
