osu file format v14

[General]
AudioFilename: audio.mp3
AudioLeadIn: 0
PreviewTime: 44843
Countdown: 0
SampleSet: Soft
StackLeniency: 0.4
Mode: 0
LetterboxInBreaks: 0
WidescreenStoryboard: 1

[Editor]
Bookmarks: 2330,25274,42940,45867,56106,80989
DistanceSpacing: 1.3
BeatDivisor: 8
GridSize: 32
TimelineZoom: 1.4

[Metadata]
Title:Torches (TV Size)
TitleUnicode:Torches (TV Size)
Artist:Aimer
ArtistUnicode:Aimer
Creator:AirinCat
Version:spoes' Hard
Source:ヴィンランド・サガ
Tags:エメ vinland saga ending ed japanese anime english spoes
BeatmapID:2107632
BeatmapSetID:1007032

[Difficulty]
HPDrainRate:4
CircleSize:3.7
OverallDifficulty:6
ApproachRate:7.4
SliderMultiplier:1.8
SliderTickRate:1

[Events]
//Background and Video events
0,0,"blobheart.jpg",0,0
Video,0,"torches.mp4"
//Break Periods
//Storyboard Layer 0 (Background)
//Storyboard Layer 1 (Fail)
//Storyboard Layer 2 (Pass)
//Storyboard Layer 3 (Foreground)
//Storyboard Layer 4 (Overlay)
//Storyboard Sound Samples

[TimingPoints]
1860,731.707317073171,4,2,1,35,1,0
1860,-100,4,2,1,35,0,0
22362,731.707317073171,4,2,1,35,1,0
22362,-142.857142857143,4,2,1,35,0,0
24557,-100,4,2,1,35,0,0
25274,745.341614906832,4,2,1,45,1,0
25274,-100,4,2,1,45,0,0
26764,731.707317073171,4,2,1,45,1,0
26764,-100,4,2,1,45,0,0
27495,714.285714285714,4,2,1,45,1,0
27495,-100,4,2,1,45,0,0
28209,726.392251815981,4,2,1,45,1,0
28209,-100,4,2,1,45,0,0
31114,731.707317073171,4,2,1,45,1,0
31114,-100,4,2,1,45,0,0
35499,737.100737100737,4,2,1,45,1,0
35499,-100,4,2,1,45,0,0
36236,731.707317073171,4,2,1,45,1,0
36236,-100,4,2,1,45,0,0
36978,731.707317073171,4,2,1,45,1,0
36978,-100,4,2,1,45,0,0
41358,737.100737100737,4,2,1,45,1,0
41358,-100,4,2,1,45,0,0
42099,731.707317073171,4,2,1,45,1,0
42099,-100,4,2,1,45,0,0
42831,731.707317073171,4,2,1,55,1,0
42831,-100,4,2,1,55,0,0
43196,-100,4,2,1,40,0,0
45757,-76.9230769230769,4,2,1,75,0,1
67709,-83.3333333333333,4,2,1,60,0,0
80879,-90.9090909090909,4,2,1,60,0,0
80971,-90.9090909090909,4,2,1,40,0,0
85635,-90.9090909090909,4,2,1,35,0,0
86001,-90.9090909090909,4,2,1,25,0,0
86367,-90.9090909090909,4,2,1,15,0,0
86733,-90.9090909090909,4,2,1,5,0,0

[Colours]
Combo1 : 224,154,137
Combo2 : 223,186,168
Combo3 : 191,175,205
Combo4 : 230,197,111

[HitObjects]
29,90,1860,6,0,P|66:66|110:57,1,90,2|0,3:2|0:0,0:0:0:0:
237,122,2591,2,0,P|282:125|325:112,1,90,2|0,0:0|0:0,0:0:0:0:
416,69,3140,1,0,0:0:0:0:
416,69,3323,2,0,L|422:175,1,90,2|0,0:0|0:0,0:0:0:0:
355,284,4055,2,0,P|316:260|272:254,1,90,2|2,0:0|0:0,0:0:0:0:
184,308,4603,1,0,0:0:0:0:
184,308,4786,6,0,P|172:265|175:221,1,90,2|0,3:2|0:0,0:0:0:0:
64,241,5518,2,0,P|74:198|99:161,1,90,2|0,0:0|0:0,0:0:0:0:
0,119,6250,2,0,P|14:101|32:87,1,45,2|0,0:0|0:0,0:0:0:0:
99,50,6616,1,0,0:0:0:0:
217,98,6981,2,0,P|252:107|308:95,1,90,2|0,0:0|0:0,0:0:0:0:
372,42,7530,1,2,0:0:0:0:
372,42,7713,6,0,P|414:36|470:68,1,90,2|0,3:2|0:0,0:0:0:0:
436,178,8445,2,0,P|426:221|436:269,1,90,2|0,0:0|0:0,0:0:0:0:
496,340,8994,1,0,0:0:0:0:
496,340,9177,2,0,P|454:357|408:357,1,90,2|0,0:0|0:0,0:0:0:0:
314,262,9908,2,0,P|269:244|217:248,1,90,2|2,0:0|0:0,0:0:0:0:
98,291,10640,6,0,P|110:247|107:203,1,90,2|0,3:2|0:0,0:0:0:0:
213,212,11372,2,0,P|202:169|177:132,1,90,2|0,0:0|0:0,0:0:0:0:
279,93,12104,2,0,P|267:73|252:57,1,45,2|0,0:0|0:0,0:0:0:0:
170,40,12469,2,0,P|147:40|125:36,1,45,0|2,0:0|0:0,0:0:0:0:
40,8,12835,2,0,P|1:64|1:101,1,90,2|0,0:0|0:0,0:0:0:0:
52,175,13384,1,2,0:0:0:0:
52,175,13567,6,0,P|80:158|138:153,1,90,2|0,3:2|0:0,0:0:0:0:
277,201,14299,2,0,P|326:208|376:191,1,90,2|0,0:0|0:0,0:0:0:0:
467,164,14847,1,0,0:0:0:0:
467,164,15030,2,0,L|483:268,1,90,2|0,0:0|0:0,0:0:0:0:
364,197,15762,2,0,L|379:90,1,90,2|2,0:0|0:0,0:0:0:0:
281,26,16494,6,0,P|238:38|194:35,1,90,2|0,3:2|0:0,0:0:0:0:
202,136,17226,2,0,P|159:125|122:100,1,90,2|0,0:0|0:0,0:0:0:0:
51,178,17958,2,0,P|67:193|86:204,1,45,2|0,0:0|0:0,0:0:0:0:
170,271,18323,2,0,P|193:277|217:276,1,45,0|2,0:0|0:0,0:0:0:0:
311,229,18689,1,2,0:0:0:0:
311,229,18872,2,0,L|321:109,1,90,2|0,0:0|0:0,0:0:0:0:
397,96,19420,38,0,B|303:71|321:137|216:108,1,180,2|2,3:2|0:0,0:0:0:0:
100,87,20518,1,0,0:0:0:0:
19,167,20884,2,0,L|11:267,1,90,2|0,0:0|0:0,0:0:0:0:
86,341,21616,2,0,P|120:310|173:303,1,90,2|2,0:0|0:0,0:0:0:0:
270,322,22362,6,0,P|261:287|307:204,1,125.999996154785,2|0,3:2|0:0,0:0:0:0:
128,214,23825,1,2,0:0:0:0:
270,322,24374,1,2,0:0:0:0:
270,322,24557,2,0,P|311:306|385:318,1,90,2|0,0:0|0:0,0:0:0:0:
437,326,25105,1,2,0:0:0:0:
437,326,25274,38,0,P|426:255|434:142,1,180,6|2,3:2|0:0,0:0:0:0:
358,35,26392,1,0,0:0:0:0:
259,127,26764,2,0,P|214:129|171:107,2,90,2|0|2,3:2|0:0|0:0,0:0:0:0:
324,225,27852,1,0,0:0:0:0:
230,341,28209,6,0,L|116:348,1,90,2|0,3:2|0:0,0:0:0:0:
145,240,28935,2,0,L|51:225,1,90,2|0,0:0|0:0,0:0:0:0:
99,131,29661,2,0,L|6:92,1,90,2|0,0:0|0:0,0:0:0:0:
84,8,30206,1,2,0:0:0:0:
84,8,30388,2,0,P|125:24|175:24,1,90,2|0,0:0|0:0,0:0:0:0:
253,20,30932,1,2,0:0:0:0:
253,20,31114,38,0,P|242:86|248:210,1,180,6|2,3:2|0:0,0:0:0:0:
365,151,32211,1,0,0:0:0:0:
427,249,32577,2,0,P|472:265|530:249,2,90,2|0|2,3:2|0:0|0:0,0:0:0:0:
331,321,33674,1,0,0:0:0:0:
234,262,34040,6,0,P|220:324|230:369,1,90,2|0,3:2|0:0,0:0:0:0:
142,205,34772,2,0,P|112:261|110:307,1,90,2|0,0:0|0:0,0:0:0:0:
80,116,35499,2,0,P|44:142|21:180,1,90,2|0,0:0|0:0,0:0:0:0:
22,34,36236,2,0,P|49:21|76:19,1,45,2|2,0:0|0:0,0:0:0:0:
153,48,36601,2,0,P|179:46|201:39,1,45,2|2,0:0|0:0,0:0:0:0:
283,6,36978,38,0,L|300:111,1,90,6|0,3:2|0:0,0:0:0:0:
249,228,37709,2,0,P|204:233|161:216,1,90,2|0,0:0|0:0,0:0:0:0:
96,170,38258,1,0,0:0:0:0:
96,170,38441,2,0,L|104:81,2,90,2|0|2,0:2|0:0|0:0,0:0:0:0:
16,267,39538,1,0,0:0:0:0:
105,354,39904,6,0,B|212:322|181:394|303:355,1,180,2|2,3:2|0:0,0:0:0:0:
342,259,41002,1,0,0:0:0:0:
266,185,41358,2,0,P|242:222|238:267,1,90,2|0,0:2|0:0,0:0:0:0:
370,362,42099,2,0,P|397:364|420:358,1,45,2|2,0:0|0:0,0:0:0:0:
483,322,42464,1,2,0:0:0:0:
354,187,42831,38,0,L|353:80,1,90,4|2,0:3|0:0,0:0:0:0:
259,7,43563,2,0,P|215:0|172:11,1,90,2|2,0:0|0:0,0:0:0:0:
113,69,44112,1,2,0:0:0:0:
113,69,44295,1,2,0:2:0:0:
355,18,45026,5,2,0:0:0:0:
355,18,45209,2,0,L|361:109,1,90,2|2,0:0|3:2,0:0:0:0:
478,193,45757,6,0,B|414:186|414:186|371:204|371:204|281:193,1,175.499991966248,6|0,1:2|0:0,0:0:0:0:
214,259,46489,2,0,P|204:286|203:315,1,58.4999973220826,10|0,0:0|0:0,0:0:0:0:
110,383,46855,2,0,P|108:354|98:327,1,58.4999973220826,2|0,0:0|0:0,0:0:0:0:
8,242,47221,6,0,P|63:230|91:164,1,116.999994644165,2|0,1:2|1:0,0:0:0:0:
71,81,47770,1,2,0:0:0:0:
71,81,47952,2,0,L|11:73,1,58.4999973220826,10|0,0:0|0:0,0:0:0:0:
147,17,48318,2,0,L|209:8,1,58.4999973220826,2|2,1:2|0:0,0:0:0:0:
317,63,48684,38,0,P|282:108|284:166,1,116.999994644165,2|2,1:2|1:2,0:0:0:0:
221,262,49233,1,2,0:0:0:0:
221,262,49324,1,2,0:0:0:0:
221,262,49416,2,0,P|200:208|150:180,1,116.999994644165,10|2,0:0|0:0,0:0:0:0:
11,284,50148,6,0,L|139:269,1,116.999994644165,2|2,1:2|1:2,0:0:0:0:
217,336,50696,1,2,0:0:0:0:
307,276,50879,2,0,L|372:285,1,58.4999973220826,10|2,0:0|3:2,0:0:0:0:
472,292,51245,1,2,3:2:0:0:
512,201,51428,1,2,3:2:0:0:
422,107,51611,38,0,P|389:154|334:167,1,116.999994644165,6|0,1:2|1:0,0:0:0:0:
246,130,52160,1,2,0:0:0:0:
246,130,52343,2,0,B|201:126|201:126|176:139|176:139|107:134,1,116.999994644165,10|0,0:0|0:0,0:0:0:0:
57,207,52891,1,2,0:0:0:0:
67,311,53074,6,0,P|105:300|155:237,1,116.999994644165,2|0,1:2|1:0,0:0:0:0:
257,279,53623,1,2,0:0:0:0:
257,279,53806,2,0,L|272:354,1,58.4999973220826,10|0,0:0|0:0,0:0:0:0:
350,237,54172,1,2,1:2:0:0:
311,148,54355,1,2,0:0:0:0:
187,140,54538,38,0,P|151:185|153:242,1,116.999994644165,2|2,1:2|1:2,0:0:0:0:
68,324,55087,1,2,0:0:0:0:
68,324,55178,1,2,0:0:0:0:
68,324,55270,2,0,P|57:266|16:228,1,116.999994644165,10|2,0:0|0:0,0:0:0:0:
67,45,56001,6,0,P|105:46|141:64,1,58.4999973220826,2|0,1:2|0:0,0:0:0:0:
225,97,56367,2,0,P|265:96|299:78,1,58.4999973220826,2|0,1:2|0:0,0:0:0:0:
395,38,56734,2,0,L|386:108,1,58.4999973220826,10|2,3:2|3:2,0:0:0:0:
481,150,57099,1,2,3:2:0:0:
483,259,57282,1,2,3:2:0:0:
367,328,57465,38,0,B|258:301|298:372|162:342,1,175.499991966248,6|0,1:2|0:0,0:0:0:0:
73,277,58196,2,0,P|125:238|74:138,1,175.499991966248,10|0,0:0|0:0,0:0:0:0:
5,45,58928,2,0,L|121:35,1,116.999994644165,2|0,1:2|0:0,0:0:0:0:
377,117,59660,2,0,P|389:88|384:52,1,58.4999973220826,10|2,0:0|0:0,0:0:0:0:
263,113,60026,2,0,P|261:141|273:168,1,58.4999973220826,2|2,1:2|0:0,0:0:0:0:
398,224,60391,6,0,P|460:209|528:233,1,116.999994644165,2|2,1:2|1:2,0:0:0:0:
512,326,60940,1,2,0:0:0:0:
512,326,61123,2,0,P|456:341|399:328,1,116.999994644165,10|2,0:0|0:0,0:0:0:0:
300,253,61672,1,2,0:0:0:0:
230,339,61855,1,0,1:0:0:0:
230,339,62221,37,2,1:2:0:0:
137,284,62404,1,0,3:0:0:0:
137,284,62495,1,0,3:0:0:0:
137,284,62587,2,0,P|122:250|122:208,1,58.4999973220826,10|2,0:2|0:2,0:0:0:0:
189,158,62952,2,0,P|196:132|191:81,1,58.4999973220826,2|2,1:2|0:2,0:0:0:0:
123,24,63318,6,0,L|259:10,1,116.999994644165,2|2,1:2|1:2,0:0:0:0:
328,72,63867,1,2,0:0:0:0:
328,72,64050,2,0,L|431:81,1,58.4999973220826,10|0,0:0|0:0,0:0:0:0:
475,163,64416,2,0,L|397:174,1,58.4999973220826,2|0,0:0|0:0,0:0:0:0:
311,238,64782,38,0,L|175:224,1,116.999994644165,2|2,1:2|1:2,0:0:0:0:
116,294,65331,1,0,0:0:0:0:
116,294,65513,2,0,L|26:285,1,58.4999973220826,10|0,0:0|0:0,0:0:0:0:
0,191,65879,2,0,L|82:180,1,58.4999973220826,2|2,1:2|0:0,0:0:0:0:
146,103,66245,6,0,P|153:68|143:32,1,58.4999973220826,2|0,1:2|3:2,0:0:0:0:
127,28,66520,1,0,3:2:0:0:
127,28,66611,2,0,L|58:21,1,58.4999973220826,2|2,3:2|0:2,0:0:0:0:
230,119,66977,1,8,0:2:0:0:
392,31,67343,2,0,P|404:57|409:88,1,58.4999973220826,2|2,3:2|3:2,0:0:0:0:
362,171,67709,37,4,1:3:0:0:
178,329,69172,6,0,L|166:203,1,107.999996704102,6|0,1:2|0:0,0:0:0:0:
90,154,69721,1,0,0:0:0:0:
90,154,69904,2,0,P|33:137|8:139,1,53.9999983520508,10|0,0:0|0:0,0:0:0:0:
174,109,70270,2,0,P|231:92|256:94,1,53.9999983520508,2|0,0:0|0:0,0:0:0:0:
323,146,70635,38,0,L|335:212,1,53.9999983520508,2|0,1:2|0:0,0:0:0:0:
411,100,71001,2,0,L|424:41,1,53.9999983520508,2|0,1:2|0:0,0:0:0:0:
512,149,71367,1,10,0:0:0:0:
367,265,71733,2,0,P|320:238|267:233,2,107.999996704102,2|0|2,1:2|1:0|1:2,0:0:0:0:
512,149,72831,1,10,0:0:0:0:
404,74,73196,2,0,P|390:96|385:124,1,53.9999983520508,2|2,0:0|0:0,0:0:0:0:
327,18,73562,6,0,L|202:7,1,107.999996704102,2|0,1:2|1:0,0:0:0:0:
150,77,74111,1,2,0:0:0:0:
150,77,74294,2,0,L|35:95,1,107.999996704102,10|2,0:0|0:0,0:0:0:0:
274,97,75026,38,0,P|259:149|272:200,1,107.999996704102,6|0,1:2|1:0,0:0:0:0:
361,264,75574,1,0,0:0:0:0:
361,264,75757,2,0,P|386:276|412:281,1,53.9999983520508,10|0,0:0|0:0,0:0:0:0:
276,309,76123,2,0,P|251:321|225:326,1,53.9999983520508,2|0,0:0|0:0,0:0:0:0:
147,236,76490,6,0,L|135:170,1,53.9999983520508,2|0,1:2|0:0,0:0:0:0:
69,307,76855,2,0,L|56:366,1,53.9999983520508,2|0,1:2|0:0,0:0:0:0:
11,221,77221,1,10,0:2:0:0:
185,123,77587,2,0,P|129:136|68:113,2,107.999996704102,2|0|2,1:2|1:0|1:2,0:0:0:0:
274,15,78684,1,10,0:0:0:0:
370,122,79050,1,2,0:0:0:0:
454,85,79233,1,2,3:2:0:0:
508,172,79416,38,0,L|514:243,1,53.9999983520508,2|0,1:2|0:0,0:0:0:0:
462,318,79782,2,0,L|404:320,1,53.9999983520508,2|0,1:2|3:0,0:0:0:0:
383,312,80056,1,0,3:0:0:0:
383,312,80148,2,0,P|379:285|370:259,1,53.9999983520508,10|2,0:0|0:0,0:0:0:0:
300,174,80513,1,2,1:2:0:0:
228,261,80696,1,0,3:2:0:0:
228,261,80788,1,0,3:2:0:0:
228,261,80879,5,0,1:2:0:0:
256,192,81062,12,0,86733,0:0:0:0:
