osu file format v14

[General]
AudioFilename: audio.mp3
AudioLeadIn: 0
PreviewTime: 44843
Countdown: 0
SampleSet: Soft
StackLeniency: 0.4
Mode: 0
LetterboxInBreaks: 0
WidescreenStoryboard: 0

[Editor]
Bookmarks: 2330,25379,42940,45867,80989
DistanceSpacing: 1.3
BeatDivisor: 8
GridSize: 32
TimelineZoom: 3.499999

[Metadata]
Title:Torches (TV Size)
TitleUnicode:Torches (TV Size)
Artist:Aimer
ArtistUnicode:Aimer
Creator:AirinCat
Version:Insane
Source:ヴィンランド・サガ
Tags:エメ vinland saga ending ed japanese anime english spoes
BeatmapID:2107630
BeatmapSetID:1007032

[Difficulty]
HPDrainRate:5
CircleSize:4
OverallDifficulty:7.6
ApproachRate:8.8
SliderMultiplier:2
SliderTickRate:1

[Events]
//Background and Video events
0,0,"blobheart.jpg",0,0
Video,0,"torches.mp4"
//Break Periods
//Storyboard Layer 0 (Background)
//Storyboard Layer 1 (Fail)
//Storyboard Layer 2 (Pass)
//Storyboard Layer 3 (Foreground)
//Storyboard Layer 4 (Overlay)
//Storyboard Sound Samples

[TimingPoints]
1860,731.707317073171,4,2,1,35,1,0
1860,-105.263157894737,4,2,1,35,0,0
22362,731.707317073171,4,2,1,35,1,0
22362,-105.263157894737,4,2,1,35,0,0
25274,745.341614906832,4,2,1,45,1,0
25274,-105.263157894737,4,2,1,45,0,0
26764,731.707317073171,4,2,1,45,1,0
26764,-105.263157894737,4,2,1,45,0,0
27495,714.285714285714,4,2,1,45,1,0
27495,-106.382978723404,4,2,1,45,0,0
28209,726.392251815981,4,2,1,45,1,0
28209,-105.263157894737,4,2,1,45,0,0
31114,731.707317073171,4,2,1,45,1,0
31114,-105.263157894737,4,2,1,45,0,0
35499,737.100737100737,4,2,1,45,1,0
35499,-105.263157894737,4,2,1,45,0,0
36236,731.707317073171,4,2,1,45,1,0
36236,-105.263157894737,4,2,1,45,0,0
36978,731.707317073171,4,2,1,45,1,0
36978,-105.263157894737,4,2,1,45,0,0
39904,-105.263157894737,4,2,1,45,0,0
41358,737.100737100737,4,2,1,45,1,0
41358,-105.263157894737,4,2,1,45,0,0
42099,731.707317073171,4,2,1,45,1,0
42099,-105.263157894737,4,2,1,45,0,0
42831,731.707317073171,4,2,1,55,1,0
42831,-105.263157894737,4,2,1,55,0,0
43197,-105.263157894737,4,2,1,40,0,0
45757,-68.9655172413793,4,2,1,75,0,1
67709,-74.0740740740741,4,2,1,60,0,0
80879,-86.9565217391304,4,2,1,60,0,0
80971,-86.9565217391304,4,2,1,40,0,0
85270,-86.9565217391304,4,2,1,40,0,0
85635,-86.9565217391304,4,2,1,35,0,0
86001,-86.9565217391304,4,2,1,25,0,0
86367,-86.9565217391304,4,2,1,15,0,0
86733,-86.9565217391304,4,2,1,5,0,0

[Colours]
Combo1 : 224,154,137
Combo2 : 223,186,168
Combo3 : 191,175,205
Combo4 : 230,197,111

[HitObjects]
71,316,762,6,0,P|47:324|22:323,1,50,2|0,0:0|0:0,0:0:0:0:
141,274,1128,2,0,P|188:259|236:271,1,100,2|0,0:0|0:0,0:0:0:0:
190,354,1677,1,2,0:0:0:0:
68,236,1860,6,0,P|55:191|64:145,1,94.9999974632264,2|0,3:2|0:0,0:0:0:0:
213,141,2591,2,0,P|228:184|221:234,1,94.9999974632264,2|0,0:0|0:0,0:0:0:0:
237,326,3140,1,0,0:0:0:0:
237,326,3323,2,0,P|285:323|337:323,1,94.9999974632264,2|0,0:0|0:0,0:0:0:0:
456,327,4055,1,2,0:0:0:0:
456,327,4420,2,0,P|454:303|460:280,1,47.4999987316132,2|0,0:0|0:0,0:0:0:0:
471,197,4786,38,0,B|393:188|421:245|321:230,1,142.49999619484,2|0,3:2|0:0,0:0:0:0:
240,189,5518,2,0,L|228:88,1,94.9999974632264,2|0,0:0|0:0,0:0:0:0:
229,95,6250,1,2,0:0:0:0:
312,57,6433,1,0,0:0:0:0:
371,128,6616,1,0,0:0:0:0:
371,128,6982,2,0,P|413:101|463:101,1,94.9999974632264,2|0,0:0|0:0,0:0:0:0:
439,192,7531,1,2,0:0:0:0:
316,217,7713,6,0,P|275:192|226:191,1,94.9999974632264,2|0,3:2|0:0,0:0:0:0:
50,195,8445,2,0,P|98:196|139:175,1,94.9999974632264,2|0,0:0|0:0,0:0:0:0:
195,112,8994,1,0,0:0:0:0:
195,112,9177,2,0,P|177:58|184:16,1,94.9999974632264,2|0,0:0|0:0,0:0:0:0:
292,52,9908,1,2,0:0:0:0:
292,52,10274,2,0,P|282:73|281:104,1,47.4999987316132,2|0,0:0|0:0,0:0:0:0:
366,85,10640,38,0,P|438:66|486:122,1,142.49999619484,2|0,3:2|0:0,0:0:0:0:
502,201,11372,2,0,P|498:245|496:303,1,94.9999974632264,2|0,0:0|0:0,0:0:0:0:
496,295,12103,1,2,0:0:0:0:
429,358,12286,1,0,0:0:0:0:
338,346,12469,1,0,0:0:0:0:
287,268,12652,1,2,0:0:0:0:
248,354,12835,2,0,P|294:362|339:346,1,94.9999974632264,2|0,0:0|0:0,0:0:0:0:
394,274,13384,1,2,0:0:0:0:
318,166,13567,6,0,P|303:119|315:70,1,94.9999974632264,2|0,3:2|0:0,0:0:0:0:
455,69,14299,2,0,P|468:104|460:164,1,94.9999974632264,2|0,0:0|0:0,0:0:0:0:
394,214,14847,1,0,0:0:0:0:
394,214,15030,2,0,P|398:261|398:318,1,94.9999974632264,2|0,0:0|0:0,0:0:0:0:
278,355,15762,1,2,0:0:0:0:
278,355,16128,1,2,0:0:0:0:
210,282,16311,1,2,0:0:0:0:
252,172,16494,38,0,P|254:118|253:66,2,94.9999974632264,2|0|2,3:2|0:0|0:0,0:0:0:0:
252,172,17591,1,0,0:0:0:0:
252,172,17957,1,2,0:0:0:0:
164,121,18140,1,0,0:0:0:0:
91,184,18323,1,0,0:0:0:0:
122,280,18506,1,2,0:0:0:0:
221,275,18689,1,2,0:0:0:0:
174,204,18872,2,0,L|74:195,1,94.9999974632264,2|0,0:0|0:0,0:0:0:0:
235,358,19420,6,0,P|278:335|326:334,1,94.9999974632264,2|0,3:2|0:0,0:0:0:0:
504,340,20152,2,0,P|456:338|412:314,1,94.9999974632264,2|0,0:0|0:0,0:0:0:0:
362,243,20701,1,0,0:0:0:0:
362,243,20884,2,0,P|364:197|361:145,1,94.9999974632264,2|0,0:0|0:0,0:0:0:0:
308,19,21616,1,2,0:0:0:0:
308,19,21981,1,2,0:0:0:0:
225,63,22164,1,2,0:0:0:0:
153,149,22362,38,0,B|110:113|115:46|115:46|98:83|52:84,1,189.999994926453,2|0,3:2|0:0,0:0:0:0:
170,160,23825,1,2,0:0:0:0:
170,160,24374,1,2,0:0:0:0:
275,228,24557,2,0,P|219:238|188:271,1,94.9999974632264,2|0,0:0|0:0,0:0:0:0:
264,319,25105,1,2,0:0:0:0:
368,247,25274,6,0,P|381:184|450:158,1,142.49999619484,6|0,3:2|0:0,0:0:0:0:
508,70,26019,2,0,L|445:74,1,47.4999987316132,2|0,0:0|0:0,0:0:0:0:
373,12,26392,2,0,L|428:-3,1,47.4999987316132
362,101,26764,38,0,B|275:84|318:141|211:116,1,142.49999619484,2|0,3:2|0:0,0:0:0:0:
132,72,27495,2,0,P|159:65|183:47,1,46.9999992828369,2|0,0:0|0:0,0:0:0:0:
173,177,27852,2,0,P|151:168|128:165,1,46.9999992828369
289,118,28209,6,0,P|265:202|271:264,1,142.49999619484,2|0,3:2|0:0,0:0:0:0:
191,317,28935,2,0,P|143:299|99:308,1,94.9999974632264,2|0,0:0|0:0,0:0:0:0:
8,205,29661,1,2,0:0:0:0:
8,205,30206,1,2,0:0:0:0:
119,128,30388,2,0,L|17:110,1,94.9999974632264,2|0,0:0|0:0,0:0:0:0:
110,34,30932,1,2,0:0:0:0:
252,108,31114,38,0,B|314:101|314:101|334:109|334:109|405:99,1,142.49999619484,6|0,3:2|0:0,0:0:0:0:
486,184,31845,2,0,P|457:181|433:178,1,47.4999987316132,2|0,0:0|0:0,0:0:0:0:
394,273,32211,2,0,P|417:270|441:267,1,47.4999987316132
302,225,32577,6,0,B|204:216|256:266|155:257,1,142.49999619484,2|0,3:2|0:0,0:0:0:0:
95,199,33309,2,0,P|114:184|130:164,1,47.4999987316132,2|0,0:0|0:0,0:0:0:0:
60,77,33674,2,0,P|56:101|48:122,1,47.4999987316132
189,101,34040,38,0,P|252:81|337:97,1,142.49999619484,2|0,3:2|0:0,0:0:0:0:
420,127,34772,2,0,P|473:133|514:117,1,94.9999974632264,2|0,0:0|0:0,0:0:0:0:
322,266,35499,2,0,P|277:252|221:264,1,94.9999974632264,2|0,0:0|0:0,0:0:0:0:
231,260,36236,1,2,0:0:0:0:
156,215,36418,1,2,0:0:0:0:
91,276,36601,1,2,0:0:0:0:
128,355,36784,1,2,0:0:0:0:
219,364,36978,6,0,P|175:348|125:357,1,94.9999974632264,6|0,3:2|0:0,0:0:0:0:
288,289,37709,2,0,P|335:295|380:281,1,94.9999974632264,2|0,0:0|0:0,0:0:0:0:
453,232,38258,1,0,0:0:0:0:
434,145,38441,2,0,P|440:94|477:54,1,94.9999974632264,2|0,0:2|0:0,0:0:0:0:
467,61,39173,2,0,P|418:63|368:37,1,94.9999974632264,2|0,0:0|0:0,0:0:0:0:
300,0,39721,1,0,0:0:0:0:
248,143,39904,38,0,P|237:96|221:48,2,94.9999974632264,2|0|2,3:2|0:0|0:0,0:0:0:0:
356,102,41002,1,0,0:0:0:0:
441,244,41358,2,0,P|385:237|333:234,1,94.9999974632264,2|0,0:2|0:0,0:0:0:0:
347,235,42099,1,2,0:0:0:0:
273,171,42281,1,2,0:0:0:0:
176,199,42464,1,2,0:0:0:0:
154,291,42647,1,2,0:0:0:0:
104,58,42831,5,4,0:3:0:0:
102,91,43196,1,2,0:0:0:0:
100,121,43562,1,2,0:0:0:0:
100,121,43928,1,2,0:0:0:0:
187,156,44111,1,2,0:0:0:0:
243,88,44294,1,2,0:2:0:0:
243,88,45026,37,2,0:0:0:0:
358,126,45209,1,2,0:0:0:0:
358,126,45574,21,2,3:2:0:0:
366,173,45666,1,0,3:2:0:0:
333,197,45757,2,0,B|249:189|293:244|196:234,1,145.000004425049,6|0,1:2|1:0,0:0:0:0:
59,227,46306,1,0,0:0:0:0:
115,60,46489,2,0,P|120:97|126:133,1,72.5000022125245,10|0,0:0|0:0,0:0:0:0:
49,314,46855,2,0,P|53:274|57:241,1,72.5000022125245,2|0,0:0|0:0,0:0:0:0:
250,140,47221,6,0,P|314:115|391:116,1,145.000004425049,2|0,1:2|1:0,0:0:0:0:
281,9,47770,1,2,0:0:0:0:
125,131,47952,2,0,P|92:117|55:109,1,72.5000022125245,10|0,0:0|0:0,0:0:0:0:
170,0,48318,1,2,1:2:0:0:
250,140,48501,1,2,0:0:0:0:
395,39,48684,38,0,B|427:9|472:12|503:25|503:25|480:38|469:58,1,145.000004425049,2|2,1:2|1:2,0:0:0:0:
398,231,49233,1,2,0:0:0:0:
382,221,49324,1,2,0:0:0:0:
367,211,49416,2,0,L|363:128,1,72.5000022125245,10|0,0:0|0:0,0:0:0:0:
512,194,49782,1,2,0:0:0:0:
443,323,49965,1,2,0:0:0:0:
293,256,50148,6,0,B|206:256|251:311|154:303,1,145.000004425049,2|2,1:2|1:2,0:0:0:0:
35,280,50696,1,2,0:0:0:0:
166,203,50879,1,10,0:0:0:0:
14,156,51062,1,2,3:2:0:0:
177,56,51245,1,2,3:2:0:0:
0,36,51428,1,2,3:2:0:0:
6,53,51520,1,0,3:2:0:0:
10,68,51611,38,0,B|61:58|61:58|88:78|88:78|165:60,1,145.000004425049,6|0,1:2|1:0,0:0:0:0:
268,7,52160,1,2,0:0:0:0:
332,133,52343,2,0,P|275:111|267:18,1,145.000004425049,10|0,0:0|0:0,0:0:0:0:
410,27,52891,1,2,0:0:0:0:
409,186,53074,6,0,B|407:241|407:241|419:260|419:260|420:337,1,145.000004425049,2|0,1:2|1:0,0:0:0:0:
495,164,53623,1,2,0:0:0:0:
322,183,53806,2,0,P|286:176|251:158,1,72.5000022125245,10|0,0:0|0:0,0:0:0:0:
84,172,54172,1,2,1:2:0:0:
235,251,54355,1,2,0:0:0:0:
226,79,54538,38,0,P|174:124|185:216,1,145.000004425049,2|2,1:2|1:2,0:0:0:0:
99,357,55087,1,2,0:0:0:0:
38,274,55270,2,0,P|69:257|105:254,1,72.5000022125245,10|0,0:0|0:0,0:0:0:0:
277,354,55635,2,0,P|240:352|207:335,1,72.5000022125245,2|0,0:0|0:0,0:0:0:0:
371,266,56001,6,0,P|442:267|495:214,1,145.000004425049,2|2,1:2|1:2,0:0:0:0:
406,171,56550,1,0,0:0:0:0:
277,354,56733,1,10,3:2:0:0:
126,257,56916,1,2,3:2:0:0:
319,196,57099,1,2,3:2:0:0:
120,104,57282,1,2,3:2:0:0:
351,38,57465,38,0,B|397:10|454:33|454:33|431:42|417:68,1,145.000004425049,6|0,1:2|0:0,0:0:0:0:
406,171,58013,1,0,0:0:0:0:
188,117,58196,2,0,B|105:108|135:167|53:155,1,145.000004425049,10|0,0:0|0:2,0:0:0:0:
68,62,58745,1,0,0:0:0:0:
186,230,58928,2,0,B|228:237|255:219|255:219|289:241|325:229,1,145.000004425049,2|0,1:2|0:0,0:0:0:0:
303,137,59477,1,0,0:2:0:0:
214,336,59660,5,10,0:0:0:0:
103,241,59843,1,2,0:0:0:0:
201,132,60026,1,2,1:2:0:0:
325,229,60209,1,2,0:0:0:0:
395,72,60391,38,0,L|394:0,1,72.5000022125245,2|0,1:2|0:0,0:0:0:0:
512,102,60757,1,2,1:2:0:0:
396,194,60940,1,2,0:0:0:0:
267,56,61123,2,0,P|186:52|137:103,1,145.000004425049,10|2,0:0|0:0,0:0:0:0:
216,228,61672,1,2,0:0:0:0:
284,160,61855,2,0,P|256:139|221:131,1,72.5000022125245,0|0,1:0|0:0,0:0:0:0:
49,241,62221,2,0,P|74:225|116:217,1,72.5000022125245,2|0,1:2|0:0,0:0:0:0:
231,323,62587,5,10,0:2:0:0:
135,379,62770,1,2,0:2:0:0:
216,228,62952,1,2,1:2:0:0:
339,339,63135,1,2,0:2:0:0:
345,135,63318,38,0,B|322:81|354:36|354:36|363:62|385:72,1,145.000004425049,2|2,1:2|1:2,0:0:0:0:
503,210,63867,1,2,0:0:0:0:
491,222,63959,1,2,0:0:0:0:
479,234,64050,2,0,L|405:230,1,72.5000022125245,10|0,0:0|0:0,0:0:0:0:
270,360,64416,2,0,P|309:342|352:339,1,72.5000022125245,2|0,0:0|0:0,0:0:0:0:
272,190,64782,6,0,P|200:167|128:180,1,145.000004425049,2|2,1:2|1:2,0:0:0:0:
1,227,65332,1,0,0:0:0:0:
29,66,65513,2,0,P|40:103|47:136,1,72.5000022125245,10|0,0:0|0:0,0:0:0:0:
97,285,65879,1,2,1:2:0:0:
205,143,66062,1,2,0:0:0:0:
300,309,66245,38,0,P|261:299|230:292,1,72.5000022125245,2|0,1:2|3:2,0:0:0:0:
217,282,66520,1,0,3:2:0:0:
207,272,66611,1,2,3:2:0:0:
351,147,66794,1,2,0:2:0:0:
443,304,66977,2,0,P|478:296|513:285,1,72.5000022125245,8|0,0:2|0:0,0:0:0:0:
412,79,67343,1,2,3:2:0:0:
304,221,67526,1,2,3:2:0:0:
211,8,67709,5,4,1:3:0:0:
211,8,69172,38,0,P|155:45|154:127,1,135.000000514984,6|0,1:2|0:0,0:0:0:0:
186,204,69721,1,0,0:0:0:0:
317,116,69904,2,0,P|278:110|248:98,1,67.5000002574921,10|0,0:0|0:0,0:0:0:0:
106,227,70270,2,0,P|144:221|175:209,1,67.5000002574921,2|0,0:0|0:0,0:0:0:0:
392,180,70635,6,0,P|406:147|406:108,1,67.5000002574921,2|0,1:2|0:0,0:0:0:0:
289,264,71001,2,0,P|275:231|275:192,1,67.5000002574921,2|0,1:2|0:0,0:0:0:0:
432,276,71367,2,0,P|460:254|480:220,1,67.5000002574921,10|0,0:0|0:0,0:0:0:0:
286,356,71733,38,0,P|235:332|197:249,2,135.000000514984,2|0|2,1:2|1:0|1:2,0:0:0:0:
289,264,72648,1,2,0:0:0:0:
134,334,72831,2,0,P|119:295|118:257,1,67.5000002574921,10|0,0:0|0:0,0:0:0:0:
122,103,73196,1,2,0:0:0:0:
57,193,73379,1,2,0:0:0:0:
216,106,73562,6,0,P|293:108|339:158,1,135.000000514984,2|0,1:2|1:0,0:0:0:0:
268,278,74111,1,2,0:0:0:0:
197,212,74294,2,0,P|225:191|262:184,1,67.5000002574921,10|0,0:0|0:0,0:0:0:0:
413,208,74660,1,2,0:0:0:0:
421,305,74843,1,2,0:0:0:0:
483,152,75026,38,0,P|420:118|357:137,1,135.000000514984,6|0,1:2|1:0,0:0:0:0:
256,184,75574,1,0,0:0:0:0:
181,55,75757,2,0,P|214:51|247:40,1,67.5000002574921,10|0,0:0|0:0,0:0:0:0:
148,176,76123,2,0,P|116:164|82:161,1,67.5000002574921,2|0,0:0|0:0,0:0:0:0:
320,273,76489,6,0,P|331:304|332:338,1,67.5000002574921,2|0,1:2|0:0,0:0:0:0:
186,265,76855,2,0,P|174:296|173:330,1,67.5000002574921,2|0,1:2|0:0,0:0:0:0:
361,196,77221,2,0,P|386:217|404:246,1,67.5000002574921,10|0,0:2|0:0,0:0:0:0:
181,175,77587,38,0,P|136:187|88:266,2,135.000000514984,2|0|2,1:2|1:0|1:2,0:0:0:0:
186,265,78501,1,2,0:0:0:0:
211,98,78684,2,0,P|178:91|133:98,1,67.5000002574921,10|0,0:0|0:0,0:0:0:0:
267,219,79050,1,2,0:0:0:0:
335,101,79233,1,2,3:2:0:0:
345,91,79324,1,2,3:2:0:0:
355,79,79416,6,0,P|350:36|333:2,1,67.5000002574921,2|0,1:2|0:0,0:0:0:0:
495,192,79782,2,0,P|499:149|517:115,1,67.5000002574921,2|0,1:2|0:0,0:0:0:0:
400,373,80148,1,10,0:0:0:0:
261,180,80331,1,2,0:0:0:0:
405,246,80513,1,2,1:2:0:0:
260,330,80696,1,0,3:2:0:0:
254,356,80788,1,0,3:2:0:0:
247,384,80879,37,0,1:2:0:0:
256,192,80971,12,0,82434,0:0:0:0:
256,192,82526,12,0,83623,0:0:0:0:
256,192,83715,12,0,86733,0:0:0:0:
