osu file format v14

[General]
AudioFilename: audio.mp3
AudioLeadIn: 0
PreviewTime: 44843
Countdown: 0
SampleSet: Soft
StackLeniency: 0.4
Mode: 0
LetterboxInBreaks: 0
WidescreenStoryboard: 1

[Editor]
Bookmarks: 2330,25379,42940,45867,80989
DistanceSpacing: 1
BeatDivisor: 8
GridSize: 32
TimelineZoom: 2.799999

[Metadata]
Title:Torches (TV Size)
TitleUnicode:Torches (TV Size)
Artist:Aimer
ArtistUnicode:Aimer
Creator:AirinCat
Version:Easy
Source:ヴィンランド・サガ
Tags:エメ vinland saga ending ed japanese anime english spoes
BeatmapID:2107629
BeatmapSetID:1007032

[Difficulty]
HPDrainRate:2
CircleSize:3.4
OverallDifficulty:2
ApproachRate:3
SliderMultiplier:2
SliderTickRate:1

[Events]
//Background and Video events
0,0,"blobheart.jpg",0,0
Video,0,"torches.mp4"
//Break Periods
//Storyboard Layer 0 (Background)
//Storyboard Layer 1 (Fail)
//Storyboard Layer 2 (Pass)
//Storyboard Layer 3 (Foreground)
//Storyboard Layer 4 (Overlay)
//Storyboard Sound Samples

[TimingPoints]
1860,731.707317073171,4,2,1,35,1,0
1860,-125,4,2,1,35,0,0
22362,731.707317073171,4,2,1,35,1,0
22362,-125,4,2,1,35,0,0
25274,745.341614906832,4,2,1,45,1,0
25274,-125,4,2,1,45,0,0
26764,731.707317073171,4,2,1,45,1,0
26764,-125,4,2,1,45,0,0
27495,714.285714285714,4,2,1,45,1,0
27495,-125,4,2,1,45,0,0
28209,726.392251815981,4,2,1,45,1,0
28209,-125,4,2,1,45,0,0
31114,731.707317073171,4,2,1,45,1,0
31114,-125,4,2,1,45,0,0
35499,737.100737100737,4,2,1,45,1,0
35499,-125,4,2,1,45,0,0
36236,731.707317073171,4,2,1,45,1,0
36236,-125,4,2,1,45,0,0
36978,731.707317073171,4,2,1,45,1,0
36978,-125,4,2,1,45,0,0
41358,737.100737100737,4,2,1,45,1,0
41358,-125,4,2,1,45,0,0
42099,731.707317073171,4,2,1,45,1,0
42099,-125,4,2,1,45,0,0
42831,731.707317073171,4,2,1,55,1,0
42831,-125,4,2,1,55,0,0
43196,-125,4,2,1,40,0,0
45757,-125,4,2,1,75,0,1
67709,-125,4,2,1,60,0,0
80879,-125,4,2,1,60,0,0
80971,-125,4,2,1,40,0,0
85270,-125,4,2,1,40,0,0
85635,-125,4,2,1,35,0,0
86001,-125,4,2,1,25,0,0
86367,-125,4,2,1,15,0,0
86733,-125,4,2,1,5,0,0

[Colours]
Combo1 : 224,154,137
Combo2 : 223,186,168
Combo3 : 191,175,205
Combo4 : 230,197,111

[HitObjects]
15,274,1860,6,0,P|68:233|164:253,1,160,2|2,3:2|0:0,0:0:0:0:
296,324,3323,2,0,P|335:335|379:326,1,80,2|0,0:0|0:0,0:0:0:0:
435,278,4055,2,0,P|427:234|438:200,1,80,2|2,0:0|0:0,0:0:0:0:
480,133,4786,5,2,3:2:0:0:
362,24,5518,2,0,L|276:24,1,80,2|0,0:0|0:0,0:0:0:0:
209,57,6250,2,0,L|124:57,1,80,2|0,0:0|0:0,0:0:0:0:
59,96,6981,1,2,0:0:0:0:
205,161,7713,38,0,B|272:160|272:160|286:167|286:167|373:167,1,160,2|2,3:2|0:0,0:0:0:0:
302,315,9177,2,0,P|259:310|215:330,1,80,2|0,0:0|0:0,0:0:0:0:
149,349,9908,2,0,P|106:354|62:334,1,80,2|2,0:0|0:0,0:0:0:0:
11,289,10640,5,2,3:2:0:0:
99,155,11372,2,0,L|98:74,1,80,2|0,0:0|0:0,0:0:0:0:
159,23,12103,2,0,P|200:13|249:25,1,80,2|0,0:0|0:0,0:0:0:0:
310,51,12835,1,2,0:0:0:0:
213,178,13567,38,0,P|171:219|186:319,1,160,2|2,3:2|0:0,0:0:0:0:
334,358,15030,2,0,L|417:354,1,80,2|0,0:0|0:0,0:0:0:0:
478,306,15762,2,0,P|483:262|468:219,1,80,2|2,0:0|0:0,0:0:0:0:
429,160,16494,5,2,3:2:0:0:
349,162,16860,2,0,L|260:160,1,80,0|2,0:0|0:0,0:0:0:0:
144,261,17957,2,0,L|54:260,1,80,2|0,0:0|0:0,0:0:0:0:
11,199,18689,1,2,0:0:0:0:
78,54,19420,38,0,P|156:22|218:72,1,160,2|2,3:2|0:0,0:0:0:0:
333,166,20884,2,0,L|421:164,1,80,2|0,0:0|0:0,0:0:0:0:
493,162,21616,1,2,0:0:0:0:
431,309,22362,6,0,P|376:348|286:307,1,160,2|0,3:2|0:0,0:0:0:0:
139,361,23825,1,2,0:0:0:0:
19,254,24557,2,0,L|20:164,1,80,2|0,0:0|0:0,0:0:0:0:
81,122,25274,38,0,B|176:107|137:162|246:141,1,160,6|2,3:2|0:0,0:0:0:0:
313,123,26392,1,0,0:0:0:0:
383,161,26764,2,0,P|440:158|474:69,1,160,2|2,3:2|0:0,0:0:0:0:
324,16,28209,5,2,3:2:0:0:
208,126,28935,2,0,L|215:214,1,80,2|0,0:0|0:0,0:0:0:0:
228,284,29661,1,2,0:0:0:0:
381,327,30388,2,0,L|468:317,1,80,2|0,0:0|0:0,0:0:0:0:
502,249,31114,38,0,P|473:200|498:100,1,160,6|2,3:2|0:0,0:0:0:0:
449,38,32211,1,0,0:0:0:0:
370,52,32577,2,0,B|304:47|304:47|289:58|289:58|204:52,1,160,2|2,3:2|0:0,0:0:0:0:
59,95,34040,5,2,3:2:0:0:
173,206,34772,2,0,L|175:291,1,80,2|0,0:0|0:0,0:0:0:0:
179,366,35499,1,2,0:0:0:0:
23,327,36236,2,0,L|23:234,1,80,2|2,0:0|0:0,0:0:0:0:
64,178,36978,38,0,L|65:87,2,80,6|0|2,3:2|0:0|0:0,0:0:0:0:
177,291,38441,2,0,P|220:300|257:291,1,80,2|0,0:2|0:0,0:0:0:0:
321,247,39173,2,0,P|364:238|401:247,1,80,2|0,0:0|0:0,0:0:0:0:
474,272,39904,5,2,3:2:0:0:
408,126,40636,2,0,L|410:33,1,80,2|0,0:0|0:0,0:0:0:0:
339,7,41358,1,2,0:2:0:0:
243,135,42099,2,0,L|248:217,1,80,2|2,0:0|0:0,0:0:0:0:
181,260,42831,38,0,B|100:267|117:213|45:226|45:226|12:258|45:313,1,240,4|2,0:3|0:0,0:0:0:0:
94,376,44294,1,2,0:2:0:0:
200,90,45757,22,0,P|244:98|280:88,1,80,6|0,1:2|1:0,0:0:0:0:
347,49,46489,1,10,0:0:0:0:
472,148,47221,2,0,L|468:233,1,80,2|0,1:2|1:0,0:0:0:0:
424,294,47952,1,10,0:0:0:0:
349,263,48318,1,2,1:2:0:0:
298,325,48684,6,0,P|235:351|175:284,1,160,2|10,1:2|0:0,0:0:0:0:
193,215,49782,1,2,0:0:0:0:
133,161,50148,2,0,L|33:162,1,80,2|2,1:2|1:2,0:0:0:0:
0,102,50879,1,10,0:0:0:0:
41,33,51245,1,2,3:2:0:0:
120,45,51611,38,0,B|153:41|153:41|164:45|164:45|218:44,1,80,6|0,1:2|1:0,0:0:0:0:
275,19,52343,1,10,0:0:0:0:
198,160,53074,2,0,L|200:255,1,80,2|0,1:2|1:0,0:0:0:0:
237,310,53806,1,10,0:0:0:0:
315,292,54172,1,2,1:2:0:0:
391,314,54538,6,0,P|441:316|466:209,1,160,2|10,1:2|0:0,0:0:0:0:
429,162,55635,1,2,0:0:0:0:
353,188,56001,2,0,P|310:192|275:181,1,80,2|2,1:2|1:2,0:0:0:0:
200,151,56733,1,10,3:2:0:0:
137,101,57099,1,2,3:2:0:0:
78,155,57465,38,0,B|52:184|62:233|62:233|98:256|101:296,2,160,6|10|2,1:2|0:0|1:2,0:0:0:0:
179,30,59660,1,10,0:0:0:0:
252,60,60026,1,2,1:2:0:0:
323,23,60391,6,0,L|405:21,1,80,2|2,1:2|1:2,0:0:0:0:
470,63,61123,2,0,L|472:145,1,80,10|2,0:0|0:0,0:0:0:0:
418,203,61855,1,0,1:0:0:0:
345,170,62221,1,2,1:2:0:0:
295,232,62587,2,0,L|300:317,1,80,10|2,0:2|1:2,0:0:0:0:
225,342,63318,38,0,B|127:323|165:383|62:362,1,160,2|10,1:2|0:0,0:0:0:0:
2,219,64782,2,0,P|73:188|92:114,1,160,2|10,1:2|0:0,0:0:0:0:
92,32,65879,1,2,1:2:0:0:
170,18,66245,6,0,L|257:22,1,80,2|2,1:2|3:2,0:0:0:0:
326,43,66977,1,8,0:2:0:0:
401,16,67343,1,2,3:2:0:0:
477,41,67709,37,4,1:3:0:0:
313,317,69172,6,0,P|271:321|233:306,1,80,6|0,1:2|0:0,0:0:0:0:
178,252,69904,1,10,0:0:0:0:
193,173,70270,1,2,0:0:0:0:
140,112,70635,2,0,L|58:116,1,80,2|2,1:2|1:2,0:0:0:0:
7,175,71367,1,10,0:0:0:0:
50,242,71733,38,0,L|50:340,1,80,2|0,1:2|1:0,0:0:0:0:
116,367,72465,1,2,1:2:0:0:
195,362,72831,1,10,0:0:0:0:
261,216,73562,2,0,L|258:128,1,80,2|0,1:2|1:0,0:0:0:0:
254,55,74294,1,10,0:0:0:0:
412,78,75026,6,0,L|413:159,1,80,6|0,1:2|1:0,0:0:0:0:
472,211,75757,1,10,0:0:0:0:
476,290,76123,1,2,0:0:0:0:
418,345,76489,2,0,P|376:347|335:330,1,80,2|2,1:2|1:2,0:0:0:0:
282,279,77221,1,10,0:2:0:0:
207,307,77587,38,0,P|167:311|122:294,1,80,2|0,1:2|1:0,0:0:0:0:
58,262,78318,1,2,1:2:0:0:
16,193,78684,2,0,L|22:109,1,80,10|2,0:0|0:0,0:0:0:0:
26,33,79416,1,2,1:2:0:0:
104,19,79782,1,2,1:2:0:0:
155,80,80148,2,0,L|242:73,1,80,10|2,0:0|1:2,0:0:0:0:
314,63,80879,5,0,1:2:0:0:
256,192,81245,12,0,86733,0:0:0:0:
