osu file format v14

[General]
AudioFilename: audio.mp3
AudioLeadIn: 0
PreviewTime: 47630
Countdown: 0
SampleSet: Soft
StackLeniency: 0.7
Mode: 0
LetterboxInBreaks: 0
WidescreenStoryboard: 0

[Editor]
DistanceSpacing: 1
BeatDivisor: 4
GridSize: 4
TimelineZoom: 1

[Metadata]
Title:Stars in the rain
TitleUnicode:Stars in the rain
Artist:Aimer
ArtistUnicode:Aimer
Creator:William K
Version:Easy
Source:
Tags:ONE OK ROCK Kenji Tamai Jamil Kazmi aimerrhythm Shogo Ohnishi Takahiro Moriuchi Morita Hoshi Ame エメ daydream 玉井健二 大西省吾 森内貴寛 星 雨
BeatmapID:1119473
BeatmapSetID:524875

[Difficulty]
HPDrainRate:2.2
CircleSize:3
OverallDifficulty:2.5
ApproachRate:2
SliderMultiplier:1.62
SliderTickRate:1

[Events]
//Background and Video events
0,0,"Stars.jpg",0,0
//Break Periods
2,98915,109463
2,197376,220232
//Storyboard Layer 0 (Background)
//Storyboard Layer 1 (Fail)
//Storyboard Layer 2 (Pass)
//Storyboard Layer 3 (Foreground)
//Storyboard Sound Samples

[TimingPoints]
254,769.230769230769,4,2,1,47,1,0
48715,-100,4,2,1,10,0,0
49484,-100,4,2,1,65,0,1
73715,-100,4,2,1,65,0,0
74100,-100,4,2,1,65,0,1
98715,-100,4,2,1,65,0,0
147176,-100,4,2,1,10,0,0
147946,-100,4,2,1,65,0,1
172177,-100,4,2,1,65,0,0
172561,-100,4,2,1,65,0,1
197177,-100,4,2,1,65,0,0
221792,-100,4,2,1,20,0,0
232561,-100,4,2,1,65,0,0
233327,-100,4,2,1,10,0,0
234100,-100,4,2,1,65,0,1
258330,-100,4,2,1,65,0,0
258715,-100,4,2,1,65,0,1
283330,-100,4,2,1,65,0,0

[Colours]
Combo1 : 0,128,255
Combo2 : 128,128,255
Combo3 : 53,53,255
Combo4 : 149,43,255

[HitObjects]
81,112,12561,6,0,L|188:115,1,81,4|0,0:3|0:0,0:0:0:0:
159,195,13330,2,0,B|95:194|95:194|6:217,2,121.5,2|4|4,0:3|0:3|0:3,0:0:0:0:
228,238,14869,2,0,P|276:230|339:141,1,162,0|4,0:0|0:3,0:0:0:0:
239,15,16407,2,0,B|232:86|240:156,2,121.5,2|4|4,0:3|0:3|0:0,0:0:0:0:
319,0,17946,1,8,0:0:0:0:
475,46,18715,6,0,P|465:92|482:152,1,81,4|0,0:3|0:0,0:0:0:0:
507,198,19484,2,0,B|514:259|508:346,2,121.5,2|4|4,0:3|0:3|0:3,0:0:0:0:
469,125,21023,1,0,0:0:0:0:
340,224,21792,2,0,L|345:337,1,81,4|0,0:3|0:0,0:0:0:0:
267,332,22561,2,0,L|260:188,2,121.5,2|4|4,0:3|0:3|0:0,0:0:0:0:
200,377,24100,2,0,L|106:372,1,81,8|4,0:0|0:0,0:0:0:0:
108,292,24869,6,0,L|188:296,1,81,4|0,0:3|0:0,0:0:0:0:
179,216,25638,2,0,B|123:213|123:213|47:188,2,121.5,2|4|4,0:3|0:3|0:3,0:0:0:0:
254,247,27177,2,0,P|250:177|173:135,1,162,8|4,0:0|0:3,0:0:0:0:
14,131,28715,2,0,B|2:196|11:264,2,121.5,2|4|4,0:3|0:3|0:0,0:0:0:0:
53,60,30253,1,8,0:0:0:0:
214,40,31023,6,0,P|250:48|302:35,1,81,4|0,0:3|0:0,0:0:0:0:
368,9,31792,2,0,P|431:0|505:17,2,121.5,2|4|4,0:3|0:3|0:3,0:0:0:0:
358,90,33330,1,8,0:0:0:0:
475,203,34100,2,0,B|472:246|472:246|477:299,1,81,4|0,0:3|0:0,0:0:0:0:
397,304,34869,2,0,B|391:244|391:244|396:170,2,121.5,0|4|4,0:0|0:3|0:0,0:0:0:0:
455,362,36407,1,8,0:0:0:0:
296,360,37177,6,0,P|221:375|134:364,1,162,4|8,0:0|0:0,0:0:0:0:
34,303,38523,2,0,B|45:239|45:239|42:164,1,121.5,8|4,0:0|0:3,0:0:0:0:
45,101,39484,1,8,0:3:0:0:
203,136,40253,2,0,P|278:153|356:98,1,162,4|8,0:3|0:0,0:0:0:0:
442,34,41600,2,4,P|432:97|449:171,1,121.5,4|4,0:3|0:3,0:0:0:0:
508,202,42561,1,8,0:0:0:0:
358,264,43330,6,0,P|280:244|182:275,1,162,4|8,0:3|0:0,0:0:0:0:
222,384,44677,2,0,B|281:369|281:369|348:382,1,121.5,8|4,0:0|0:3,0:0:0:0:
404,329,45638,1,8,0:3:0:0:
361,171,46407,2,0,P|281:156|190:175,1,162,4|8,0:3|0:0,0:0:0:0:
65,256,47946,2,0,L|70:345,2,81,8|8|0,0:0|0:3|0:0,0:0:0:0:
55,94,49484,6,0,P|137:111|220:88,1,162,4|8,0:0|0:0,0:0:0:0:
284,56,50638,1,0,0:0:0:0:
361,83,51023,2,0,L|355:176,2,81,0|4|8,0:0|0:3|0:0,0:0:0:0:
421,28,52177,1,0,0:0:0:0:
496,68,52561,2,0,B|501:147|501:147|492:250,1,162,4|8,0:3|0:0,0:0:0:0:
457,305,53715,1,0,0:0:0:0:
417,375,54100,2,0,P|359:378|330:369,2,81,0|4|8,0:0|0:3|0:0,0:0:0:0:
457,305,55253,1,0,0:0:0:0:
494,229,55638,6,0,B|501:147|501:147|496:68,1,162,4|8,0:3|0:0,0:0:0:0:
437,8,56792,1,0,0:0:0:0:
355,12,57177,2,0,L|267:6,2,81,0|4|8,0:0|0:3|0:0,0:0:0:0:
400,80,58330,1,0,0:0:0:0:
319,92,58715,2,0,B|247:86|247:86|152:109,1,162,4|8,0:3|0:0,0:0:0:0:
107,170,59869,1,8,0:0:0:0:
151,239,60253,2,0,B|143:281|152:336,2,81,0|4|8,0:0|0:3|0:0,0:0:0:0:
228,208,61407,1,4,0:3:0:0:
309,200,61792,6,0,P|315:283|306:372,1,162,4|8,0:0|0:0,0:0:0:0:
229,379,62946,1,0,0:0:0:0:
148,371,63330,2,0,L|49:374,2,81,0|4|8,0:0|0:3|0:0,0:0:0:0:
229,379,64484,1,0,0:0:0:0:
308,361,64869,2,0,B|361:355|361:355|413:363|413:363|504:351,1,162,4|8,0:3|0:0,0:0:0:0:
501,281,66023,1,0,0:0:0:0:
453,215,66407,2,0,L|454:132,2,81,0|4|8,0:0|0:3|0:0,0:0:0:0:
501,281,67561,1,0,0:0:0:0:
468,355,67946,6,0,B|412:362|412:362|360:354|360:354|307:360,1,162,4|8,0:3|0:0,0:0:0:0:
228,380,69100,1,0,0:0:0:0:
254,302,69484,2,0,L|260:216,2,81,0|4|8,0:0|0:3|0:0,0:0:0:0:
228,380,70638,1,0,0:0:0:0:
144,383,71023,2,0,P|84:375|43:280,1,162,4|8,0:3|0:0,0:0:0:0:
53,210,72177,2,0,B|71:118|71:118|63:48,1,162,8|8,0:0|0:0,0:0:0:0:
146,44,73330,2,0,L|160:141,1,81,8|4,0:0|0:3,0:0:0:0:
174,205,74100,6,0,B|252:193|252:193|335:203,1,162,4|8,0:0|0:0,0:0:0:0:
414,226,75253,1,0,0:0:0:0:
474,170,75638,2,0,P|475:78|402:31,1,162,0|8,0:0|0:0,0:0:0:0:
352,70,76792,1,0,0:0:0:0:
276,39,77177,2,0,B|198:50|198:50|110:37,1,162,4|8,0:3|0:0,0:0:0:0:
40,6,78330,1,0,0:0:0:0:
46,88,78715,2,0,B|68:143|68:143|68:261,1,162,0|8,0:0|0:0,0:0:0:0:
64,327,79869,1,0,0:0:0:0:
144,313,80253,6,0,B|227:295|227:343|310:312,1,162,4|8,0:3|0:0,0:0:0:0:
374,273,81407,1,0,0:0:0:0:
449,304,81792,2,0,P|454:348|442:403,2,81,0|4|8,0:0|0:3|0:0,0:0:0:0:
374,273,82946,1,0,0:0:0:0:
374,191,83330,2,0,B|367:111|367:111|379:21,1,162,4|8,0:3|0:0,0:0:0:0:
456,5,84484,1,12,0:0:0:0:
506,69,84869,2,0,B|512:110|512:110|503:165,2,81,0|4|8,0:0|0:3|0:0,0:0:0:0:
456,5,86023,1,4,0:3:0:0:
377,30,86407,6,0,B|367:111|367:111|374:191,1,162,4|8,0:0|0:0,0:0:0:0:
374,273,87561,1,0,0:0:0:0:
314,329,87946,2,0,B|264:330|264:330|208:324|208:324|148:329,1,162,0|8,0:0|0:0,0:0:0:0:
72,340,89100,1,0,0:0:0:0:
16,281,89484,2,0,P|8:198|20:110,1,162,4|8,0:3|0:0,0:0:0:0:
51,46,90638,1,0,0:0:0:0:
126,80,91023,2,0,B|210:89|210:89|310:76,1,162,0|8,0:0|0:0,0:0:0:0:
360,115,92177,1,4,0:3:0:0:
295,164,92561,6,0,L|288:334,1,162,4|8,0:3|0:0,0:0:0:0:
362,361,93715,1,0,0:0:0:0:
423,305,94100,2,0,P|474:298|516:311,2,81,0|4|8,0:0|0:3|0:0,0:0:0:0:
362,361,95253,1,0,0:0:0:0:
288,325,95638,2,0,P|206:317|110:325,1,162,4|12,0:3|0:0,0:0:0:0:
56,363,96792,1,8,0:0:0:0:
21,289,97177,2,0,L|24:206,1,81,0|4,0:0|0:3,0:0:0:0:
98,172,97946,2,0,L|94:75,1,81,8|4,0:0|0:3,0:0:0:0:
53,21,98715,5,4,0:0:0:0:
53,21,111023,6,0,B|137:30,1,81,4|0,0:0|0:0,0:0:0:0:
207,64,111792,2,0,L|340:56,2,121.5,8|4|4,0:0|0:3|0:3,0:0:0:0:
139,109,113330,2,0,B|128:187|128:187|138:278,1,162,8|4,0:0|0:3,0:0:0:0:
280,348,114869,2,0,L|412:332,2,121.5,8|4|4,0:0|0:3|0:3,0:0:0:0:
200,355,116407,1,8,0:0:0:0:
96,232,117176,6,0,P|136:232|172:216,1,81,4|0,0:3|0:0,0:0:0:0:
195,136,117946,2,0,B|174:73|196:2,2,121.5,8|4|4,0:0|0:3|0:3,0:0:0:0:
260,186,119484,1,8,0:0:0:0:
415,141,120253,2,0,L|528:145,1,81,4|0,0:3|0:0,0:0:0:0:
496,62,121023,2,0,B|424:60|424:60|356:38,2,121.5,8|4|4,0:0|0:3|0:3,0:0:0:0:
495,143,122561,2,0,L|494:228,1,81,8|4,0:0|0:0,0:0:0:0:
498,307,123330,6,0,B|460:291|391:306,1,81,4|0,0:3|0:0,0:0:0:0:
361,359,124099,2,0,P|308:368|220:347,2,121.5,8|4|4,0:0|0:3|0:3,0:0:0:0:
418,301,125638,1,8,0:0:0:0:
497,158,126407,2,0,L|496:63,1,81,4|0,0:3|0:0,0:0:0:0:
445,13,127176,2,0,P|388:2|323:14,2,121.5,8|4|4,0:0|0:3|0:3,0:0:0:0:
496,77,128715,1,8,0:0:0:0:
337,96,129484,6,0,P|298:93|249:55,1,81,4|0,0:3|0:0,0:0:0:0:
199,21,130253,2,0,P|152:32|109:111,2,121.5,8|4|4,0:0|0:3|0:3,0:0:0:0:
191,102,131792,1,8,0:0:0:0:
175,263,132561,2,0,P|234:264|268:251,1,81,4|0,0:3|0:0,0:0:0:0:
276,336,133330,2,0,P|226:348|140:336,2,121.5,8|4|0,0:0|0:3|0:0,0:0:0:0:
331,275,134869,1,8,0:0:0:0:
288,120,135638,6,0,B|208:96|208:144|116:108,1,162,4|0,0:0|0:0,0:0:0:0:
36,33,136984,2,0,B|44:99|44:99|38:177,1,121.5,8|4,0:0|0:3,0:0:0:0:
3,227,137946,1,8,0:3:0:0:
150,296,138715,2,0,B|232:308|232:308|312:286,1,162,4|0,0:3|0:0,0:0:0:0:
382,188,140061,2,0,L|392:321,1,121.5,8|4,0:0|0:3,0:0:0:0:
342,376,141023,1,8,0:3:0:0:
505,370,141792,6,0,B|528:289|504:207,1,162,4|0,0:3|0:0,0:0:0:0:
474,90,143138,2,0,P|414:102|339:85,1,121.5,8|4,0:0|0:3,0:0:0:0:
292,41,144099,2,0,P|248:34|190:50,1,81,8|0,0:0|0:0,0:0:0:0:
160,101,144869,2,0,B|108:97|108:97|57:108|57:108|0:97,1,162,4|8,0:3|0:0,0:0:0:0:
4,260,146407,2,0,B|42:267|42:267|106:256,2,81,8|8|0,0:0|0:3|0:0,0:0:0:0:
161,304,147946,6,0,B|242:293|242:293|337:307,1,162,4|8,0:0|0:0,0:0:0:0:
400,327,149099,1,0,0:0:0:0:
465,277,149484,2,0,P|468:232|460:194,1,81,0|4,0:0|0:3,0:0:0:0:
387,162,150253,2,0,P|384:117|392:79,1,81,8|0,0:0|0:0,0:0:0:0:
463,42,151023,2,0,P|430:10|321:38,1,162,4|8,0:3|0:0,0:0:0:0:
280,99,152176,1,0,0:0:0:0:
347,148,152561,2,0,B|389:143|389:143|457:152,1,81,0|4,0:0|0:3,0:0:0:0:
429,230,153330,2,0,B|390:235|390:235|348:230,1,81,8|0,0:0|0:0,0:0:0:0:
277,191,154099,6,0,B|222:189|222:189|168:200|168:200|100:196,1,162,4|8,0:3|0:0,0:0:0:0:
35,189,155253,1,0,0:0:0:0:
55,110,155638,2,0,L|75:23,1,81,0|4,0:0|0:3,0:0:0:0:
155,38,156407,2,0,L|136:116,1,81,8|0,0:0|0:0,0:0:0:0:
116,196,157176,2,0,B|168:200|168:200|222:189|222:189|277:191,1,162,4|8,0:3|0:0,0:0:0:0:
348,230,158330,1,8,0:0:0:0:
420,268,158715,2,0,P|464:276|504:268,1,81,0|4,0:0|0:3,0:0:0:0:
512,188,159484,2,0,P|472:180|432:186,1,81,8|4,0:0|0:3,0:0:0:0:
359,151,160253,6,0,P|326:113|212:128,1,162,4|8,0:0|0:0,0:0:0:0:
180,189,161407,1,0,0:0:0:0:
110,148,161792,2,0,P|66:142|14:152,1,81,0|4,0:0|0:3,0:0:0:0:
28,229,162561,2,0,P|68:233|108:227,1,81,8|4,0:0|0:3,0:0:0:0:
180,189,163330,2,0,P|188:244|113:309,1,162,4|8,0:3|0:0,0:0:0:0:
75,381,164484,1,0,0:0:0:0:
157,381,164869,2,0,P|213:383|258:373,1,81,4|4,0:3|0:3,0:0:0:0:
295,321,165638,2,0,P|351:319|396:329,1,81,8|0,0:0|0:0,0:0:0:0:
445,365,166407,6,0,P|456:309|377:241,1,162,4|8,0:3|0:0,0:0:0:0:
308,218,167561,1,0,0:0:0:0:
350,147,167946,2,0,B|360:102|344:46,1,81,0|4,0:0|0:3,0:0:0:0:
268,67,168715,2,0,B|257:102|267:147,1,81,8|0,0:0|0:0,0:0:0:0:
308,218,169484,2,0,B|236:246|236:198|148:219,1,162,4|8,0:3|0:0,0:0:0:0:
65,218,170638,2,0,P|93:284|193:291,1,162,8|8,0:0|0:0,0:0:0:0:
252,322,171792,2,0,P|288:316|361:333,1,81,8|4,0:0|0:3,0:0:0:0:
396,369,172561,6,0,P|411:324|329:241,1,162,4|8,0:0|0:0,0:0:0:0:
264,232,173715,1,0,0:0:0:0:
185,214,174099,2,0,P|213:169|315:168,1,162,0|8,0:0|0:0,0:0:0:0:
395,162,175253,1,0,0:0:0:0:
441,94,175638,2,0,B|391:69|351:95|351:95|321:72|259:68,1,162,4|8,0:3|0:0,0:0:0:0:
211,45,176792,1,0,0:0:0:0:
137,80,177176,2,0,P|88:78|27:85,1,81,0|4,0:0|0:3,0:0:0:0:
56,162,177946,2,0,P|96:159|136:161,1,81,8|0,0:0|0:0,0:0:0:0:
139,243,178715,6,0,B|93:238|44:245|44:245|31:273|49:314,1,162,4|8,0:3|0:0,0:0:0:0:
117,352,179869,1,0,0:0:0:0:
195,326,180253,2,0,P|235:321|284:330,1,81,0|4,0:0|0:3,0:0:0:0:
341,376,181023,2,0,P|381:381|430:372,1,81,8|4,0:0|0:3,0:0:0:0:
491,331,181792,2,0,B|481:265|481:265|487:157,1,162,4|8,0:3|0:0,0:0:0:0:
491,88,182946,1,12,0:0:0:0:
411,73,183330,2,0,P|350:69|293:80,1,81,0|4,0:0|0:3,0:0:0:0:
273,129,184099,2,0,P|226:130|155:122,1,81,8|4,0:0|0:3,0:0:0:0:
159,201,184869,6,0,P|239:210|324:200,1,162,4|8,0:0|0:0,0:0:0:0:
381,151,186023,1,0,0:0:0:0:
455,188,186407,2,0,B|446:233|446:233|449:303|449:303|431:359,1,162,0|8,0:0|0:0,0:0:0:0:
360,380,187561,1,0,0:0:0:0:
335,301,187946,2,0,P|266:267|174:288,1,162,4|8,0:3|0:0,0:0:0:0:
117,326,189099,1,0,0:0:0:0:
42,359,189484,2,0,P|35:324|64:262,1,81,0|4,0:0|0:3,0:0:0:0:
118,239,190253,2,0,P|130:200|123:161,1,81,8|4,0:0|0:3,0:0:0:0:
48,128,191023,6,0,P|97:83|194:118,1,162,4|8,0:3|0:0,0:0:0:0:
209,181,192176,1,0,0:0:0:0:
271,127,192561,2,0,B|357:121,1,81,0|4,0:0|0:3,0:0:0:0:
366,202,193330,2,0,B|280:208,1,81,8|4,0:0|0:3,0:0:0:0:
281,289,194099,2,0,B|373:283|373:283|449:263,1,162,4|12,0:3|0:0,0:0:0:0:
512,230,195253,1,8,0:0:0:0:
482,154,195638,2,0,P|488:118|486:69,1,81,0|4,0:0|0:3,0:0:0:0:
404,70,196407,2,0,P|397:105|400:155,1,81,4|4,0:3|0:3,0:0:0:0:
436,223,197176,5,4,0:0:0:0:
475,166,221792,6,0,P|471:242|471:262,1,81
456,326,222561,2,0,B|394:330|394:330|317:325,2,121.5,2|0|0,0:3|0:0|0:0,0:0:0:0:
497,255,224099,2,0,B|504:178|504:178|494:86,1,162,0|0,0:0|0:0,0:0:0:0:
335,119,225638,2,0,B|328:185|328:185|336:246,2,121.5,2|0|0,0:3|0:0|0:0,0:0:0:0:
351,39,227176,2,0,P|291:32|249:43,1,81,0|0,0:0|0:0,0:0:0:0:
225,104,227946,6,0,B|152:116|152:116|60:100,1,162,0|2,0:0|0:3,0:0:0:0:
0,149,229099,2,0,P|62:252|35:369,1,243
197,341,231022,2,0,P|252:364|354:325,1,162,0|2,0:0|0:3,0:0:0:0:
390,265,232176,1,0,0:0:0:0:
331,208,232561,2,0,P|327:151|336:105,2,81,8|8|0,0:0|0:0|0:0,0:0:0:0:
490,238,234100,6,0,B|498:161|498:161|491:64,1,162,4|8,0:0|0:0,0:0:0:0:
430,22,235253,1,0,0:0:0:0:
366,74,235638,2,0,P|322:79|264:71,1,81,0|4,0:0|0:3,0:0:0:0:
228,18,236407,2,0,B|188:6|111:15,1,81,8|0,0:0|0:0,0:0:0:0:
84,63,237176,2,0,B|90:132|90:132|83:237,1,162,4|8,0:3|0:0,0:0:0:0:
88,306,238330,1,0,0:0:0:0:
164,338,238715,2,0,P|217:345|253:332,1,81,0|4,0:0|0:3,0:0:0:0:
301,280,239484,2,0,P|354:273|390:286,1,81,0|4,0:0|0:3,0:0:0:0:
420,353,240253,6,0,P|463:283|417:209,1,162,4|8,0:3|0:0,0:0:0:0:
359,179,241407,1,0,0:0:0:0:
277,188,241792,2,0,B|235:194|235:194|178:184,1,81,0|4,0:0|0:3,0:0:0:0:
198,104,242561,2,0,B|240:98|240:98|297:108,1,81,8|0,0:0|0:0,0:0:0:0:
319,32,243330,2,0,B|240:19|240:19|144:31,1,162,4|8,0:3|0:0,0:0:0:0:
103,89,244484,1,12,0:0:0:0:
168,140,244869,2,0,L|165:259,1,81,0|4,0:0|0:3,0:0:0:0:
248,224,245638,2,0,L|251:105,1,81,12|4,0:0|0:3,0:0:0:0:
317,92,246407,6,0,B|382:98|437:74|437:74|425:100|422:124,1,162,4|8,0:0|0:0,0:0:0:0:
447,192,247561,1,0,0:0:0:0:
404,264,247946,2,0,B|364:274|364:274|293:259,1,81,0|4,0:0|0:3,0:0:0:0:
257,218,248715,2,0,B|215:211|215:211|148:217,1,81,8|0,0:0|0:0,0:0:0:0:
124,277,249484,2,0,P|96:213|151:137,1,162,4|8,0:3|0:0,0:0:0:0:
217,107,250638,1,0,0:0:0:0:
293,137,251023,2,0,P|336:144|376:137,1,81,0|4,0:0|0:3,0:0:0:0:
441,91,251792,2,0,P|486:86|534:97,1,81,8|4,0:0|0:3,0:0:0:0:
506,174,252561,6,0,B|497:228|497:228|503:342,1,162,4|8,0:3|0:0,0:0:0:0:
435,378,253715,1,0,0:0:0:0:
363,342,254100,2,0,P|361:296|368:251,1,81,0|4,0:0|0:3,0:0:0:0:
283,260,254869,2,0,P|278:300|280:340,1,81,8|0,0:0|0:0,0:0:0:0:
197,340,255638,2,0,B|189:265|208:221|208:221|182:233|156:230,1,162,4|8,0:3|0:0,0:0:0:0:
98,276,256792,2,0,B|84:273|58:285|58:285|77:241|69:166,1,162,12|8,0:0|0:0,0:0:0:0:
124,106,257946,2,0,L|123:17,1,81,4|4,0:3|0:3,0:0:0:0:
204,42,258715,6,0,L|206:203,1,162,4|8,0:0|0:0,0:0:0:0:
209,285,259869,1,0,0:0:0:0:
285,251,260253,2,0,B|363:224|363:266|449:246,1,162,0|8,0:0|0:0,0:0:0:0:
500,185,261407,1,0,0:0:0:0:
437,133,261792,2,0,B|359:106|359:148|273:128,1,162,4|8,0:0|0:0,0:0:0:0:
208,86,262946,1,0,0:0:0:0:
140,40,263330,2,0,P|82:37|40:46,1,81,0|4,0:0|0:3,0:0:0:0:
55,123,264100,2,0,P|113:126|155:117,1,81,8|0,0:0|0:0,0:0:0:0:
208,86,264869,6,0,P|215:143|128:202,1,162,4|8,0:0|0:0,0:0:0:0:
58,212,266023,1,0,0:0:0:0:
99,283,266407,2,0,P|146:292|188:280,1,81,0|4,0:0|0:3,0:0:0:0:
243,235,267176,2,0,P|282:227|321:236,1,81,8|0,0:0|0:0,0:0:0:0:
377,298,267946,2,0,P|452:319|531:269,1,162,4|8,0:3|0:0,0:0:0:0:
485,207,269100,1,12,0:0:0:0:
447,135,269484,2,0,L|470:57,1,81,0|8,0:0|0:0,0:0:0:0:
389,52,270253,2,0,L|362:140,1,81,8|4,0:0|0:3,0:0:0:0:
356,211,271023,6,0,P|318:197|298:83,1,162,4|12,0:0|0:0,0:0:0:0:
312,10,272176,1,4,0:3:0:0:
231,6,272561,2,0,B|183:20|183:20|124:13|124:13|42:27,1,162,0|12,0:0|0:0,0:0:0:0:
28,92,273715,1,0,0:0:0:0:
99,133,274100,2,0,B|158:111|158:111|288:112,1,162,4|8,0:0|0:0,0:0:0:0:
328,151,275253,1,0,0:0:0:0:
294,229,275638,2,0,P|297:272|294:325,1,81,0|4,0:0|0:3,0:0:0:0:
220,342,276407,2,0,P|217:299|220:246,1,81,12|0,0:0|0:0,0:0:0:0:
228,181,277176,6,0,P|284:148|369:199,1,162,4|8,0:0|0:0,0:0:0:0:
422,246,278330,1,0,0:0:0:0:
473,182,278715,2,0,L|470:88,1,81,0|4,0:0|0:3,0:0:0:0:
394,78,279484,2,0,L|401:-12,1,81,12|4,0:0|0:3,0:0:0:0:
318,0,280253,2,0,B|311:96|311:96|286:76|286:76|228:71,1,162,4|12,0:0|0:0,0:0:0:0:
170,72,281407,1,4,0:3:0:0:
108,18,281792,2,0,P|89:61|105:123,1,81,4|8,0:0|0:0,0:0:0:0:
153,149,282561,2,0,P|172:192|156:254,1,81,4|8,0:3|0:0,0:0:0:0:
114,285,283330,5,4,0:0:0:0:
