osu file format v14

[General]
AudioFilename: audio.mp3
AudioLeadIn: 0
PreviewTime: 47630
Countdown: 0
SampleSet: Soft
StackLeniency: 0.7
Mode: 0
LetterboxInBreaks: 0
WidescreenStoryboard: 0

[Editor]
Bookmarks: 77246
DistanceSpacing: 1
BeatDivisor: 4
GridSize: 4
TimelineZoom: 1

[Metadata]
Title:Stars in the rain
TitleUnicode:Stars in the rain
Artist:Aimer
ArtistUnicode:Aimer
Creator:William K
Version:Normal
Source:
Tags:ONE OK ROCK Kenji Tamai Jamil Kazmi aimerrhythm Shogo Ohnishi Takahiro Moriuchi Morita Hoshi Ame エメ daydream 玉井健二 大西省吾 森内貴寛 星 雨
BeatmapID:1124030
BeatmapSetID:524875

[Difficulty]
HPDrainRate:3.7
CircleSize:3.2
OverallDifficulty:4
ApproachRate:4
SliderMultiplier:1.9
SliderTickRate:1

[Events]
//Background and Video events
0,0,"Stars.jpg",0,0
//Break Periods
2,98915,109703
2,197376,220472
//Storyboard Layer 0 (Background)
//Storyboard Layer 1 (Fail)
//Storyboard Layer 2 (Pass)
//Storyboard Layer 3 (Foreground)
//Storyboard Sound Samples

[TimingPoints]
254,769.230769230769,4,2,1,47,1,0
48715,-100,4,2,1,10,0,0
49484,-100,4,2,1,65,0,1
73715,-100,4,2,1,65,0,0
74100,-100,4,2,1,65,0,1
98715,-100,4,2,1,65,0,0
147176,-100,4,2,1,10,0,0
147946,-100,4,2,1,65,0,1
172177,-100,4,2,1,65,0,0
172561,-100,4,2,1,65,0,1
197177,-100,4,2,1,65,0,0
221792,-100,4,2,1,20,0,0
232561,-100,4,2,1,65,0,0
233327,-100,4,2,1,10,0,0
234100,-100,4,2,1,65,0,1
258330,-100,4,2,1,65,0,0
258715,-100,4,2,1,65,0,1
283330,-100,4,2,1,65,0,0

[Colours]
Combo1 : 0,128,255
Combo2 : 128,128,255
Combo3 : 53,53,255
Combo4 : 149,43,255

[HitObjects]
86,112,12561,6,0,P|134:119|216:92,1,95,4|0,0:3|0:0,0:0:0:0:
221,87,13138,1,2,0:3:0:0:
261,61,13330,2,0,B|317:52|317:52|424:64,2,142.5,2|4|4,0:3|0:3|0:3,0:0:0:0:
179,110,14869,2,0,B|170:175|170:175|176:240,1,95,0|0,0:0|0:0,0:0:0:0:
176,300,15638,1,4,0:3:0:0:
265,332,16023,2,0,L|329:328,1,47.5,0|2,0:0|0:3,0:0:0:0:
349,298,16407,2,0,L|495:304,2,142.5,2|4|4,0:3|0:3|0:0,0:0:0:0:
291,222,17946,2,0,L|196:218,1,95,8|0,0:0|0:0,0:0:0:0:
180,124,18715,6,0,L|322:129,2,142.5,4|2|0,0:3|0:3|0:0,0:0:0:0:
142,95,20061,1,0,0:0:0:0:
142,95,20253,2,0,L|26:102,2,95,0|4|0,0:0|0:3|0:0,0:0:0:0:
325,40,21792,2,0,P|373:32|446:50,1,95,4|0,0:3|0:0,0:0:0:0:
488,111,22561,1,2,0:3:0:0:
488,111,22753,2,0,B|479:160|479:160|486:232,1,95,0|4,0:0|0:3,0:0:0:0:
481,346,23715,1,4,0:0:0:0:
386,351,24100,2,0,P|351:344|331:345,1,47.5,8|8,0:0|0:0,0:0:0:0:
292,354,24484,1,4,0:0:0:0:
209,311,24869,6,0,P|258:268|314:268,1,95,4|0,0:3|0:0,0:0:0:0:
338,262,25446,1,2,0:3:0:0:
338,262,25638,2,0,B|346:191|346:191|339:112,2,142.5,2|4|4,0:3|0:3|0:3,0:0:0:0:
294,349,27177,2,0,B|188:336,1,95,8|0,0:0|0:0,0:0:0:0:
105,356,27946,1,4,0:3:0:0:
11,355,28330,2,0,P|22:311|16:285,1,47.5,0|2,0:0|0:3,0:0:0:0:
8,264,28715,2,0,P|4:213|16:104,2,142.5,2|4|4,0:3|0:3|0:0,0:0:0:0:
100,244,30253,2,0,P|104:196|100:144,1,95,8|0,0:0|0:0,0:0:0:0:
87,53,31023,6,0,B|136:48|136:48|211:55,1,95,4|0,0:3|0:0,0:0:0:0:
272,86,31792,2,0,B|332:91|332:91|420:74,2,142.5,2|4|4,0:3|0:3|0:3,0:0:0:0:
182,53,33330,2,0,P|179:111|202:154,1,95,8|0,0:0|0:0,0:0:0:0:
274,197,34100,2,0,B|328:203|328:203|471:175,1,190,4|0,0:3|0:0,0:0:0:0:
508,264,35253,1,0,0:0:0:0:
508,264,35446,2,0,L|414:285,1,95,4|8,0:3|0:0,0:0:0:0:
379,315,36023,2,0,L|272:310,1,95,4|8,0:0|0:0,0:0:0:0:
237,302,36600,1,8,0:0:0:0:
190,298,36792,1,4,0:3:0:0:
105,337,37177,6,0,B|100:286|100:286|125:207,1,95,4|0,0:0|0:0,0:0:0:0:
157,160,37946,1,8,0:0:0:0:
117,77,38330,1,0,0:0:0:0:
117,77,38523,2,0,P|172:67|222:92,1,95,8|0,0:0|0:0,0:0:0:0:
252,99,39100,2,0,B|299:103|299:103|361:91,1,95,4|8,0:3|0:3,0:0:0:0:
432,54,39869,1,0,0:0:0:0:
504,117,40253,6,0,P|445:147|384:139,1,95,4|0,0:3|0:0,0:0:0:0:
336,197,41023,2,0,P|279:186|220:200,1,95,8|0,0:0|0:0,0:0:0:0:
214,229,41600,2,0,B|142:240|142:240|34:229,1,142.5,4|4,0:3|0:3,0:0:0:0:
28,317,42561,2,0,L|133:332,1,95,8|0,0:0|0:0,0:0:0:0:
214,350,43330,6,0,B|261:343|261:343|348:358,1,95,4|0,0:3|0:0,0:0:0:0:
401,338,44100,1,8,0:0:0:0:
498,361,44484,1,0,0:0:0:0:
498,361,44677,2,0,P|497:302|474:265,1,95,8|0,0:0|0:0,0:0:0:0:
445,240,45253,2,0,B|441:194|441:194|448:121,1,95,4|8,0:3|0:3,0:0:0:0:
475,55,46023,1,4,0:3:0:0:
381,73,46407,6,0,P|337:86|265:63,1,95,4|0,0:3|0:0,0:0:0:0:
199,49,47177,2,0,B|153:40|153:40|87:52,1,95,8|0,0:0|0:0,0:0:0:0:
32,99,47946,2,0,L|22:5,2,95,8|8|0,0:0|0:3|0:0,0:0:0:0:
62,289,49484,6,0,P|115:309|223:269,1,142.5,4|0,0:0|0:0,0:0:0:0:
233,261,50253,2,0,P|234:309|264:354,1,95,8|0,0:0|0:0,0:0:0:0:
304,360,50830,1,8,0:0:0:0:
420,279,51407,2,0,P|367:273|314:288,1,95,4|8,0:3|0:0,0:0:0:0:
233,261,52177,1,0,0:0:0:0:
306,201,52561,6,0,P|365:188|465:207,1,142.5,4|0,0:3|0:0,0:0:0:0:
492,206,53330,2,0,B|486:157|486:157|494:89,1,95,8|0,0:0|0:0,0:0:0:0:
494,63,53907,1,8,0:0:0:0:
486,16,54100,2,0,B|443:11|443:11|373:17,1,95,0|4,0:0|0:3,0:0:0:0:
334,91,54869,2,0,P|273:97|219:85,1,95,8|0,0:0|0:0,0:0:0:0:
194,10,55638,6,0,B|134:7|134:7|48:12,1,142.5,4|0,0:3|0:0,0:0:0:0:
13,39,56407,2,0,P|45:79|49:131,1,95,8|0,0:0|0:0,0:0:0:0:
39,167,56984,1,8,0:0:0:0:
176,208,57561,2,0,B|226:214|226:214|293:200,1,95,4|8,0:3|0:0,0:0:0:0:
363,194,58330,1,0,0:0:0:0:
316,277,58715,6,0,B|228:297|228:297|143:285,1,142.5,4|4,0:3|0:3,0:0:0:0:
130,278,59484,2,0,B|83:267|83:267|17:278,1,95,8|8,0:0|0:0,0:0:0:0:
37,369,60253,2,0,P|88:377|106:377,1,47.5,0|8,0:0|0:0,0:0:0:0:
131,372,60638,1,0,0:0:0:0:
216,326,61023,2,0,P|267:318|285:318,1,47.5,8|8,0:0|0:0,0:0:0:0:
310,323,61408,1,4,0:3:0:0:
388,375,61792,6,0,P|402:324|347:238,1,142.5,4|0,0:0|0:0,0:0:0:0:
318,231,62561,2,0,B|312:184|312:184|323:114,1,95,8|0,0:0|0:0,0:0:0:0:
336,92,63138,1,8,0:0:0:0:
472,51,63715,2,0,P|475:94|466:160,1,95,4|8,0:3|0:0,0:0:0:0:
414,224,64484,1,0,0:0:0:0:
317,227,64869,6,0,B|251:263|251:206|179:231,1,142.5,4|0,0:3|0:0,0:0:0:0:
131,236,65638,2,0,P|93:245|26:228,1,95,8|0,0:0|0:0,0:0:0:0:
35,187,66215,1,8,0:0:0:0:
38,139,66407,2,0,P|84:132|137:140,1,95,0|4,0:0|0:3,0:0:0:0:
228,144,67177,2,0,P|272:150|331:138,1,95,8|0,0:0|0:0,0:0:0:0:
387,73,67946,6,0,B|360:136|360:136|369:237,1,142.5,4|0,0:3|0:0,0:0:0:0:
367,257,68715,2,0,P|320:248|273:254,1,95,8|0,0:0|0:0,0:0:0:0:
228,269,69292,1,8,0:0:0:0:
98,323,69869,2,0,B|86:266|105:206,1,95,4|8,0:3|0:0,0:0:0:0:
129,139,70638,1,0,0:0:0:0:
69,65,71023,6,0,B|127:44|127:44|235:75,1,142.5,4|4,0:3|0:3,0:0:0:0:
242,96,71792,2,0,P|290:105|348:88,1,95,8|8,0:0|0:0,0:0:0:0:
372,66,72369,2,0,B|352:110|352:110|366:193,1,95,4|8,0:3|0:0,0:0:0:0:
369,204,72946,1,8,0:0:0:0:
286,251,73330,2,0,L|288:317,1,47.5,8|4,0:0|0:3,0:0:0:0:
328,320,73715,2,4,L|326:386,1,47.5,4|4,0:3|0:3,0:3:0:0:
373,370,74100,6,0,P|451:365|483:330,1,95,4|0,0:0|0:0,0:0:0:0:
494,268,74869,2,0,B|489:222|489:222|504:143,1,95,8|0,0:0|0:0,0:0:0:0:
504,130,75446,1,4,0:3:0:0:
504,130,75638,2,0,P|444:147|396:131,1,95,0|4,0:0|0:3,0:0:0:0:
325,103,76407,1,8,0:0:0:0:
236,136,76792,2,0,L|187:132,1,47.5
145,150,77177,6,0,L|36:151,1,95,4|0,0:3|0:0,0:0:0:0:
50,56,77946,2,0,L|159:55,1,95,8|0,0:0|0:0,0:0:0:0:
191,34,78523,1,8,0:0:0:0:
191,34,78715,2,0,B|237:31|237:31|297:43,1,95,0|4,0:0|0:3,0:0:0:0:
349,112,79484,1,8,0:0:0:0:
299,195,79869,2,0,L|300:249,1,47.5,0|0,0:0|0:0,0:0:0:0:
297,291,80253,6,0,P|239:279|176:304,1,95,4|0,0:3|0:0,0:0:0:0:
132,348,81023,2,0,P|74:360|11:335,1,95,8|0,0:0|0:0,0:0:0:0:
12,321,81600,1,8,0:0:0:0:
12,321,81792,2,0,B|20:277|20:277|17:212,1,95,0|4,0:0|0:3,0:0:0:0:
9,132,82561,1,8,0:0:0:0:
103,141,82945,1,0,0:0:0:0:
183,88,83330,6,0,L|297:77,1,95,4|0,0:3|0:0,0:0:0:0:
325,65,83907,1,4,0:3:0:0:
325,65,84100,2,0,B|319:118|319:118|330:195,1,95,8|12,0:0|0:0,0:0:0:0:
326,206,84677,2,0,B|260:195|260:195|168:203,1,142.5,4|4,0:3|0:3,0:0:0:0:
193,298,85638,2,0,L|242:312,1,47.5,8|4,0:0|0:3,0:0:0:0:
284,324,86023,2,0,L|331:317,1,47.5,4|4,0:3|0:3,0:0:0:0:
379,319,86407,6,0,P|451:325|488:358,1,95,4|0,0:0|0:0,0:0:0:0:
498,246,87177,2,0,B|505:199|505:199|505:139,1,95,8|0,0:0|0:0,0:0:0:0:
488,114,87753,1,8,0:0:0:0:
488,114,87946,2,0,B|440:125|440:125|352:110,1,95,0|4,0:0|0:3,0:0:0:0:
305,86,88715,1,8,0:0:0:0:
245,158,89100,2,0,L|253:214,1,47.5,0|0,0:0|0:0,0:0:0:0:
259,252,89484,6,0,P|302:235|377:240,1,95,4|0,0:3|0:0,0:0:0:0:
366,326,90253,2,0,P|323:343|248:338,1,95,8|0,0:0|0:0,0:0:0:0:
232,337,90830,1,8,0:0:0:0:
232,337,91023,2,0,P|189:320|114:325,1,95,0|4,0:0|0:3,0:0:0:0:
49,352,91792,1,8,0:0:0:0:
8,266,92177,2,0,L|17:207,1,47.5,4|0,0:3|0:0,0:0:0:0:
51,188,92561,6,0,L|45:85,1,95,4|0,0:3|0:0,0:0:0:0:
122,35,93330,2,0,P|166:51|227:40,1,95,8|0,0:0|0:0,0:0:0:0:
262,31,93907,1,8,0:0:0:0:
262,31,94100,2,0,B|308:22|308:22|375:36,1,95,0|4,0:0|0:3,0:0:0:0:
448,51,94869,1,8,0:0:0:0:
478,141,95253,1,0,0:0:0:0:
395,189,95638,6,0,B|343:196|343:196|288:184,1,95,4|0,0:3|0:0,0:0:0:0:
272,157,96215,1,4,0:3:0:0:
272,157,96407,2,0,P|234:148|163:158,1,95,12|8,0:0|0:0,0:0:0:0:
143,184,96984,2,0,B|152:132|152:132|140:61,1,95,4|8,0:3|0:0,0:0:0:0:
138,42,97561,1,4,0:3:0:0:
43,48,97946,2,0,L|56:120,1,47.5,8|8,0:0|0:0,0:0:0:0:
59,141,98330,2,0,L|51:199,1,47.5,4|0,0:3|0:0,0:0:0:0:
46,236,98715,5,4,0:0:0:0:
59,170,111023,6,0,B|105:165|105:165|192:180,1,95,4|0,0:0|0:0,0:0:0:0:
197,191,111599,1,2,0:3:0:0:
243,206,111792,2,0,B|317:216|317:216|396:204,2,142.5,8|4|4,0:0|0:3|0:3,0:0:0:0:
267,114,113330,2,0,B|316:105|316:105|397:118,1,95,8|0,0:0|0:0,0:0:0:0:
457,124,114099,1,4,0:3:0:0:
505,39,114484,2,0,P|483:20|464:11,1,47.5,0|2,0:0|0:3,0:0:0:0:
420,5,114869,6,0,B|374:12|374:12|314:4,1,95,8|0,0:0|0:0,0:0:0:0:
279,7,115446,2,0,B|207:27|207:27|116:9,1,142.5,4|4,0:3|0:3,0:0:0:0:
45,23,116407,1,8,0:0:0:0:
45,119,116792,1,0,0:0:0:0:
139,138,117176,6,0,B|188:144|188:144|248:136,1,95,4|0,0:3|0:0,0:0:0:0:
284,148,117753,1,2,0:3:0:0:
284,148,117946,2,0,P|340:172|368:224,1,95,8|0,0:0|0:0,0:0:0:0:
359,246,118523,2,0,B|291:229|291:229|207:246,1,142.5,4|4,0:3|0:3,0:0:0:0:
190,331,119484,1,8,0:0:0:0:
18,259,120253,6,0,B|8:204|8:204|24:136,1,95,4|0,0:3|0:0,0:0:0:0:
24,120,120830,1,2,0:3:0:0:
31,70,121023,2,0,B|74:83|74:83|132:72,1,95,8|0,0:0|0:0,0:0:0:0:
168,60,121600,2,0,P|234:35|310:47,1,142.5,4|4,0:3|0:3,0:0:0:0:
376,112,122561,2,0,L|437:104,1,47.5,8|8,0:0|0:0,0:0:0:0:
471,109,122946,1,4,0:0:0:0:
507,198,123330,6,0,B|403:213,1,95,4|0,0:3|0:0,0:0:0:0:
373,234,123907,1,2,0:3:0:0:
373,234,124099,2,0,B|300:220|300:220|207:238,2,142.5,8|4|4,0:0|0:3|0:3,0:0:0:0:
393,326,125638,2,0,B|264:348,1,95,8|0,0:0|0:0,0:0:0:0:
202,340,126407,1,4,0:3:0:0:
123,287,126792,2,0,L|117:237,1,47.5,0|2,0:0|0:3,0:0:0:0:
79,212,127176,6,0,L|86:106,1,95,8|0,0:0|0:0,0:0:0:0:
90,70,127753,2,0,P|145:83|240:66,1,142.5,4|4,0:3|0:3,0:0:0:0:
317,36,128715,1,8,0:0:0:0:
397,87,129099,1,0,0:0:0:0:
474,31,129484,6,0,P|492:85|464:160,1,95,4|0,0:3|0:0,0:0:0:0:
464,165,130061,1,2,0:3:0:0:
464,165,130253,2,0,P|460:214|472:259,1,95,8|0,0:0|0:0,0:0:0:0:
474,306,130830,2,0,P|411:287|308:302,1,142.5,4|4,0:3|0:3,0:0:0:0:
242,310,131792,1,8,0:0:0:0:
198,132,132561,6,0,B|271:140|271:140|354:125,1,142.5,4|2,0:3|0:3,0:0:0:0:
383,108,133330,1,8,0:0:0:0:
437,32,133715,1,0,0:0:0:0:
437,32,133907,2,0,P|386:14|319:42,1,95,4|8,0:3|0:0,0:0:0:0:
304,42,134484,2,0,B|266:49|266:49|191:42,1,95,0|8,0:0|0:0,0:0:0:0:
165,31,135061,1,8,0:0:0:0:
117,24,135253,1,4,0:3:0:0:
64,104,135638,6,0,B|58:155|58:155|67:230,1,95,4|0,0:0|0:0,0:0:0:0:
84,291,136407,1,0,0:0:0:0:
176,332,136792,1,0,0:0:0:0:
176,332,136984,2,0,B|226:351|309:326,1,95,8|4,0:0|0:3,0:0:0:0:
312,313,137561,2,0,P|354:304|422:323,1,95,4|8,0:3|0:3,0:0:0:0:
480,368,138330,1,0,0:0:0:0:
475,275,138715,6,0,P|467:222|487:169,1,95,4|0,0:3|0:0,0:0:0:0:
503,91,139484,2,0,P|457:91|394:138,1,95,0|0,0:0|0:0,0:0:0:0:
382,147,140061,2,0,P|314:158|238:122,1,142.5,8|4,0:0|0:3,0:0:0:0:
253,36,141023,2,0,L|154:32,1,95,8|0,0:3|0:0,0:0:0:0:
152,126,141792,6,0,L|251:130,1,95,4|4,0:3|0:3,0:0:0:0:
241,225,142561,1,0,0:0:0:0:
167,283,142946,1,0,0:0:0:0:
167,283,143138,2,0,P|224:319|285:309,1,95,8|4,0:0|0:3,0:0:0:0:
294,305,143715,2,0,B|337:299|337:299|424:308,1,95,4|8,0:3|0:0,0:0:0:0:
481,322,144484,1,0,0:0:0:0:
509,230,144869,6,0,P|519:182|500:127,1,95,4|0,0:3|0:0,0:0:0:0:
425,186,145638,2,0,B|380:202|380:202|298:189,1,95,8|0,0:0|0:0,0:0:0:0:
242,171,146407,2,0,P|192:165|132:174,2,95,8|8|0,0:0|0:3|0:0,0:0:0:0:
127,20,147946,6,0,P|199:10|292:28,1,142.5,4|0,0:0|0:0,0:0:0:0:
311,40,148715,2,0,P|349:48|411:36,1,95,8|0,0:0|0:0,0:0:0:0:
446,17,149292,1,8,0:0:0:0:
509,142,149869,2,0,L|504:275,1,95,4|8,0:3|0:0,0:0:0:0:
469,326,150638,1,0,0:0:0:0:
374,311,151023,6,0,B|315:307|315:307|208:312,1,142.5,4|0,0:3|0:0,0:0:0:0:
184,316,151792,2,0,P|201:269|183:200,1,95,8|0,0:0|0:0,0:0:0:0:
149,216,152369,1,8,0:0:0:0:
101,213,152561,2,0,P|84:260|102:329,1,95,0|4,0:0|0:3,0:0:0:0:
184,316,153330,2,0,L|296:308,1,95,8|0,0:0|0:0,0:0:0:0:
340,234,154100,6,0,B|352:182|352:182|339:66,1,142.5,4|0,0:3|0:0,0:0:0:0:
333,47,154869,2,0,P|292:69|217:57,1,95,8|0,0:0|0:0,0:0:0:0:
200,53,155446,1,8,0:0:0:0:
107,163,156023,2,0,P|111:221|104:277,1,95,4|8,0:3|0:0,0:0:0:0:
44,329,156792,1,0,0:0:0:0:
4,243,157176,6,0,P|1:183|16:84,1,142.5,4|4,0:3|0:3,0:0:0:0:
20,55,157946,2,0,B|68:62|68:62|132:52,1,95,8|8,0:0|0:0,0:0:0:0:
199,10,158715,2,0,P|242:2|272:4,1,47.5,0|8,0:0|0:0,0:0:0:0:
293,7,159099,1,4,0:3:0:0:
293,105,159484,2,0,P|250:97|220:99,1,47.5,8|8,0:0|0:0,0:0:0:0:
199,102,159868,1,4,0:3:0:0:
113,54,160253,6,0,P|105:136|161:192,1,142.5,4|0,0:0|0:0,0:0:0:0:
173,214,161023,2,0,P|231:203|290:222,1,95,8|0,0:0|0:0,0:0:0:0:
310,228,161599,1,8,0:0:0:0:
450,268,162176,2,0,B|443:220|443:220|449:161,1,95,4|8,0:3|0:0,0:0:0:0:
477,81,162946,1,4,0:3:0:0:
403,21,163330,6,0,P|339:10|247:31,1,142.5,4|0,0:3|0:0,0:0:0:0:
224,48,164099,2,0,P|180:57|121:48,1,95,8|0,0:0|0:0,0:0:0:0:
86,35,164676,1,8,0:0:0:0:
52,69,164869,2,0,B|48:182,1,95,4|4,0:3|0:3,0:0:0:0:
137,200,165638,2,0,B|141:313,1,95,8|0,0:0|0:0,0:0:0:0:
233,311,166407,6,0,L|227:153,1,142.5,4|0,0:3|0:0,0:0:0:0:
227,121,167176,2,0,P|263:143|334:140,1,95,8|0,0:0|0:0,0:0:0:0:
360,128,167753,1,8,0:0:0:0:
476,44,168330,2,0,L|473:153,1,95,4|8,0:3|0:0,0:0:0:0:
471,233,169099,1,0,0:0:0:0:
469,328,169484,6,0,B|391:303|392:345|284:313,1,142.5,4|4,0:3|0:3,0:0:0:0:
289,296,170253,2,0,P|236:288|181:298,1,95,8|8,0:0|0:0,0:0:0:0:
152,314,170830,2,0,P|162:254|140:189,1,95,4|8,0:3|0:0,0:0:0:0:
139,176,171407,1,8,0:0:0:0:
233,179,171792,2,0,L|231:120,1,47.5,8|4,0:0|0:3,0:0:0:0:
230,83,172176,2,0,P|176:97|146:88,1,47.5,4|4,0:3|0:3,0:0:0:0:
137,95,172561,6,0,P|108:77|38:77,1,95,4|0,0:0|0:0,0:0:0:0:
28,167,173330,2,0,B|40:215|40:215|37:271,1,95,8|0,0:0|0:0,0:0:0:0:
24,310,173907,1,8,0:0:0:0:
24,310,174099,2,0,P|75:302|131:321,1,95,0|4,0:0|0:3,0:0:0:0:
204,351,174869,1,8,0:0:0:0:
287,306,175253,2,0,P|261:275|243:266,1,47.5,0|0,0:0|0:0,0:0:0:0:
224,235,175638,6,0,P|257:236|313:204,1,95,4|0,0:3|0:0,0:0:0:0:
282,116,176407,2,0,P|249:115|193:147,1,95,8|0,0:0|0:0,0:0:0:0:
160,175,176984,1,8,0:0:0:0:
160,175,177176,2,0,P|164:128|134:72,1,95,0|4,0:0|0:3,0:0:0:0:
69,145,177946,1,8,0:0:0:0:
85,239,178330,2,0,L|91:304,1,47.5,0|0,0:0|0:0,0:0:0:0:
96,334,178715,6,0,P|142:318|200:325,1,95,4|0,0:3|0:0,0:0:0:0:
279,354,179484,2,0,P|325:370|383:363,1,95,8|0,0:0|0:0,0:0:0:0:
418,351,180061,1,8,0:0:0:0:
418,351,180253,2,0,B|408:305|408:305|416:241,1,95,0|4,0:0|0:3,0:0:0:0:
442,165,181023,1,8,0:0:0:0:
408,74,181407,1,4,0:3:0:0:
319,110,181792,6,0,L|202:104,1,95,4|0,0:3|0:0,0:0:0:0:
185,130,182369,1,4,0:3:0:0:
185,130,182561,2,0,L|68:136,1,95,8|12,0:0|0:0,0:0:0:0:
42,140,183138,2,0,B|30:210|78:210|37:300,1,142.5,4|4,0:3|0:3,0:0:0:0:
83,367,184099,2,0,L|133:358,1,47.5,8|4,0:0|0:3,0:0:0:0:
173,378,184484,2,0,L|219:369,1,47.5,4|4,0:3|0:3,0:0:0:0:
266,361,184869,6,0,L|395:358,1,95,4|0,0:0|0:0,0:0:0:0:
361,263,185638,2,0,L|232:266,1,95,8|0,0:0|0:0,0:0:0:0:
223,283,186215,1,8,0:0:0:0:
223,283,186407,2,0,L|94:280,1,95,0|4,0:0|0:3,0:0:0:0:
71,204,187176,1,8,0:0:0:0:
140,137,187561,2,0,L|223:140,1,47.5,0|0,0:0|0:0,0:0:0:0:
229,116,187946,6,0,L|338:112,1,95,4|0,0:3|0:0,0:0:0:0:
419,106,188715,2,0,P|409:156|425:204,1,95,8|0,0:0|0:0,0:0:0:0:
454,238,189292,1,8,0:0:0:0:
453,237,189484,2,0,P|464:283|451:329,1,95,0|4,0:0|0:3,0:0:0:0:
363,365,190253,1,8,0:0:0:0:
270,329,190638,2,0,P|261:303|261:272,1,47.5,4|0,0:3|0:0,0:0:0:0:
288,245,191023,6,0,P|294:195|281:141,1,95,4|0,0:3|0:0,0:0:0:0:
239,68,191792,2,0,P|191:84|125:71,1,95,8|0,0:0|0:0,0:0:0:0:
112,50,192369,1,8,0:0:0:0:
112,50,192561,2,0,L|115:166,1,95,0|4,0:0|0:3,0:0:0:0:
40,204,193330,1,8,0:0:0:0:
37,298,193714,1,4,0:3:0:0:
117,352,194099,6,0,P|172:327|247:344,1,95,4|0,0:3|0:0,0:0:0:0:
252,342,194676,1,4,0:3:0:0:
294,365,194869,2,0,P|300:310|275:261,1,95,12|8,0:0|0:0,0:0:0:0:
268,230,195446,2,0,P|316:229|370:204,1,95,4|8,0:3|0:0,0:0:0:0:
383,171,196023,1,4,0:3:0:0:
315,103,196407,2,0,L|359:84,1,47.5,4|8,0:3|0:0,0:0:0:0:
404,67,196792,2,0,L|448:86,1,47.5,4|0,0:3|0:0,0:0:0:0:
490,106,197176,5,4,0:0:0:0:
89,85,221792,6,0,P|132:78|187:89,1,95
226,114,222369,1,2,0:3:0:0:
226,114,222561,2,0,P|297:121|377:111,2,142.5,2|0|0,0:3|0:0|0:0,0:0:0:0:
207,207,224099,2,0,P|306:217|420:198,1,190,0|0,0:0|0:0,0:0:0:0:
472,35,225638,2,0,P|402:57|369:115,2,142.5,2|0|0,0:3|0:0|0:0,0:0:0:0:
463,130,227176,2,0,L|461:265,1,95,0|0,0:0|0:0,0:0:0:0:
424,313,227946,6,0,B|373:308|373:308|293:317,1,95,0|0,0:0|0:0,0:0:0:0:
290,337,228522,1,2,0:3:0:0:
290,337,228715,2,0,P|217:355|161:339,1,95,2|0,0:3|0:0,0:0:0:0:
157,329,229292,2,0,B|167:269|167:269|153:159,1,142.5,0|0,0:0|0:0,0:0:0:0:
107,108,230253,2,0,B|148:92|148:92|230:108,1,95,0|0,0:0|0:0,0:0:0:0:
285,61,231022,1,0,0:0:0:0:
285,61,231215,2,0,P|345:72|425:25,1,142.5
454,7,231984,2,0,P|451:38|451:87,1,47.5
445,145,232561,6,0,L|444:254,2,95,8|8|0,0:0|0:0|0:0,0:0:0:0:
509,322,234100,6,0,P|451:344|368:308,1,142.5,4|0,0:0|0:0,0:0:0:0:
339,291,234869,2,0,B|295:284|295:284|234:288,1,95,8|0,0:0|0:0,0:0:0:0:
197,290,235446,1,8,0:0:0:0:
64,242,236023,2,0,L|61:143,1,95,4|8,0:3|0:0,0:0:0:0:
95,57,236792,1,0,0:0:0:0:
174,112,237176,6,0,L|165:264,1,142.5,4|0,0:3|0:0,0:0:0:0:
197,290,237946,2,0,L|304:287,1,95,8|0,0:0|0:0,0:0:0:0:
339,291,238523,1,8,0:0:0:0:
384,277,238715,2,0,P|373:228|397:161,1,95,0|4,0:0|0:3,0:0:0:0:
464,134,239484,2,0,P|475:85|451:18,1,95,8|0,0:0|0:0,0:0:0:0:
382,88,240253,6,0,P|308:98|234:84,1,142.5,4|0,0:3|0:0,0:0:0:0:
207,54,241023,2,0,B|158:49|158:49|110:54,1,95,8|0,0:0|0:0,0:0:0:0:
66,64,241600,1,8,0:0:0:0:
15,198,242176,2,0,P|63:209|117:196,1,95,4|8,0:3|0:0,0:0:0:0:
186,147,242946,1,0,0:0:0:0:
274,184,243330,6,0,L|261:339,1,142.5,4|4,0:3|0:3,0:0:0:0:
257,373,244100,2,0,P|298:361|371:370,1,95,8|12,0:0|0:0,0:0:0:0:
438,329,244869,2,0,P|409:290|382:274,1,47.5,0|8,0:0|0:0,0:0:0:0:
368,271,245253,1,4,0:3:0:0:
382,173,245638,2,0,P|398:155|409:135,1,47.5,12|0,0:0|0:0,0:0:0:0:
418,88,246023,1,4,0:3:0:0:
319,89,246407,6,0,P|267:76|173:87,1,142.5,4|0,0:0|0:0,0:0:0:0:
138,109,247176,2,0,P|152:66|138:13,1,95,8|0,0:0|0:0,0:0:0:0:
96,3,247753,1,8,0:0:0:0:
30,129,248330,2,0,L|38:232,1,95,4|8,0:3|0:0,0:0:0:0:
45,319,249100,1,0,0:0:0:0:
138,301,249484,6,0,B|208:272|208:325|315:291,1,142.5,4|0,0:3|0:0,0:0:0:0:
322,283,250253,2,0,P|366:272|431:285,1,95,8|0,0:0|0:0,0:0:0:0:
456,302,250830,1,8,0:0:0:0:
496,329,251023,2,0,L|490:204,1,95,0|4,0:0|0:3,0:0:0:0:
440,153,251792,2,0,L|446:43,1,95,8|4,0:0|0:3,0:0:0:0:
355,30,252561,6,0,L|346:199,1,142.5,4|0,0:3|0:0,0:0:0:0:
343,220,253330,2,0,P|300:207|249:207,1,95,8|0,0:0|0:0,0:0:0:0:
204,220,253907,1,8,0:0:0:0:
105,118,254484,2,0,P|158:84|219:81,1,95,4|8,0:3|0:0,0:0:0:0:
279,103,255253,1,0,0:0:0:0:
347,172,255638,6,0,L|338:341,1,142.5,4|4,0:3|0:3,0:0:0:0:
335,362,256407,2,0,P|292:349|241:349,1,95,8|12,0:0|0:0,0:0:0:0:
197,362,256984,2,0,P|147:371|90:353,1,95,4|8,0:3|0:0,0:0:0:0:
66,332,257561,1,8,0:0:0:0:
19,253,257946,2,0,L|23:198,1,47.5,4|4,0:3|0:3,0:3:0:0:
58,173,258330,2,0,L|54:118,1,47.5,4|4,0:3|0:3,0:3:0:0:
78,85,258715,6,0,P|128:82|192:134,1,95,4|0,0:0|0:0,0:0:0:0:
221,180,259484,2,0,P|263:159|310:163,1,95,8|0,0:0|0:0,0:0:0:0:
352,197,260061,1,8,0:0:0:0:
352,197,260253,2,0,B|339:153|339:153|345:92,1,95,0|4,0:0|0:3,0:0:0:0:
427,146,261023,1,8,0:0:0:0:
438,240,261407,2,0,L|437:317,1,47.5,0|0,0:0|0:0,0:0:0:0:
433,335,261792,6,0,B|386:322|386:322|318:332,1,95,4|0,0:0|0:0,0:0:0:0:
250,357,262561,2,0,B|203:370|203:370|135:360,1,95,8|0,0:0|0:0,0:0:0:0:
124,345,263138,1,8,0:0:0:0:
124,345,263330,2,0,P|135:287|124:231,1,95,0|4,0:0|0:3,0:0:0:0:
84,169,264100,1,8,0:0:0:0:
155,105,264484,2,0,L|220:103,1,47.5,0|0,0:0|0:0,0:0:0:0:
250,101,264869,6,0,B|235:151|235:151|245:220,1,95,4|0,0:0|0:0,0:0:0:0:
312,257,265638,2,0,B|297:307|297:307|307:376,1,95,8|0,0:0|0:0,0:0:0:0:
354,362,266215,1,8,0:0:0:0:
354,362,266407,2,0,P|409:349|461:361,1,95,0|4,0:0|0:3,0:0:0:0:
496,274,267176,1,8,0:0:0:0:
470,183,267561,1,0,0:0:0:0:
500,92,267946,6,0,P|446:91|388:130,1,95,4|0,0:3|0:0,0:0:0:0:
375,141,268523,1,4,0:3:0:0:
375,141,268715,2,0,P|329:119|268:125,1,95,8|12,0:0|0:0,0:0:0:0:
241,137,269292,2,0,P|268:68|245:3,1,142.5,4|8,0:3|0:0,0:0:0:0:
174,68,270253,2,0,P|150:101|146:125,1,47.5,8|8,0:0|0:0,0:0:0:0:
149,156,270638,2,0,P|165:193|184:208,1,47.5,4|4,0:3|0:3,0:0:0:0:
208,228,271023,6,0,L|322:227,1,95,4|0,0:0|0:0,0:0:0:0:
390,266,271792,2,0,P|366:300|307:321,1,95,12|4,0:0|0:3,0:0:0:0:
275,328,272369,1,8,0:0:0:0:
275,328,272561,2,0,L|161:329,1,95,0|4,0:0|0:3,0:0:0:0:
86,340,273330,1,12,0:0:0:0:
51,252,273715,2,0,L|54:186,1,47.5,0|0,0:0|0:0,0:0:0:0:
86,170,274100,6,0,L|79:73,1,95,4|0,0:0|0:0,0:0:0:0:
163,31,274869,2,0,L|170:128,1,95,8|0,0:0|0:0,0:0:0:0:
217,149,275446,1,8,0:0:0:0:
217,149,275638,2,0,B|225:197|225:197|219:265,1,95,0|4,0:0|0:3,0:0:0:0:
180,328,276407,1,12,0:0:0:0:
275,328,276792,2,0,L|336:315,1,47.5,0|0,0:0|0:0,0:0:0:0:
355,286,277176,6,0,L|451:299,1,95,4|0,0:0|0:0,0:0:0:0:
512,239,277946,2,0,P|472:207|403:217,1,95,8|0,0:0|0:0,0:0:0:0:
390,191,278523,1,8,0:0:0:0:
390,191,278715,2,0,P|321:192|274:163,1,95
228,116,279484,2,0,P|180:151|133:155,1,95,12|0,0:0|0:0,0:0:0:0:
99,161,280061,1,8,0:0:0:0:
56,161,280253,6,0,L|49:288,1,95,4|0,0:0|0:0,0:0:0:0:
78,302,280830,1,0,0:0:0:0:
78,302,281023,2,0,P|121:292|183:307,1,95,12|4,0:0|0:3,0:0:0:0:
214,320,281600,2,0,B|257:332|257:332|347:324,1,95,4|8,0:3|0:0,0:0:0:0:
354,320,282176,1,8,0:0:0:0:
435,274,282561,2,0,L|409:220,1,47.5,4|4,0:3|0:3,0:0:0:0:
393,188,282946,2,0,L|419:134,1,47.5,8|8,0:0|0:0,0:0:0:0:
442,109,283330,5,4,0:0:0:0:
