osu file format v14

[General]
AudioFilename: audio.mp3
AudioLeadIn: 0
PreviewTime: 47630
Countdown: 0
SampleSet: Soft
StackLeniency: 0.7
Mode: 0
LetterboxInBreaks: 0
WidescreenStoryboard: 0

[Editor]
Bookmarks: 24869,205446,276023
DistanceSpacing: 1.1
BeatDivisor: 4
GridSize: 32
TimelineZoom: 1

[Metadata]
Title:Stars in the rain
TitleUnicode:Stars in the rain
Artist:Aimer
ArtistUnicode:Aimer
Creator:William K
Version:Hard
Source:
Tags:ONE OK ROCK Kenji Tamai Jamil Kazmi aimerrhythm Shogo Ohnishi Takahiro Moriuchi Morita Hoshi Ame エメ daydream 玉井健二 大西省吾 森内貴寛 星 雨
BeatmapID:1126625
BeatmapSetID:524875

[Difficulty]
HPDrainRate:5
CircleSize:3.7
OverallDifficulty:6
ApproachRate:7
SliderMultiplier:2.3
SliderTickRate:1

[Events]
//Background and Video events
0,0,"Stars.jpg",0,0
//Break Periods
2,98915,110124
2,221993,231661
//Storyboard Layer 0 (Background)
//Storyboard Layer 1 (Fail)
//Storyboard Layer 2 (Pass)
//Storyboard Layer 3 (Foreground)
//Storyboard Sound Samples

[TimingPoints]
254,769.230769230769,4,2,1,47,1,0
48715,-100,4,2,1,10,0,0
49484,-100,4,2,1,65,0,1
73715,-100,4,2,1,65,0,0
74100,-100,4,2,1,65,0,1
98715,-100,4,2,1,65,0,0
147176,-100,4,2,1,10,0,0
147946,-100,4,2,1,65,0,1
172177,-100,4,2,1,65,0,0
172561,-100,4,2,1,65,0,1
197177,-100,4,2,1,65,0,0
233327,-100,4,2,1,10,0,0
234100,-100,4,2,1,65,0,1
258330,-100,4,2,1,65,0,0
258715,-100,4,2,1,65,0,1
283330,-100,4,2,1,65,0,0

[Colours]
Combo1 : 0,128,255
Combo2 : 128,128,255
Combo3 : 53,53,255
Combo4 : 149,43,255

[HitObjects]
105,136,12561,6,0,P|160:110|228:129,1,115,4|0,0:3|0:0,0:0:0:0:
238,279,13330,2,0,P|187:244|170:175,1,115,2|0,0:3|0:0,0:0:0:0:
259,193,13907,2,0,B|313:202|313:202|381:190,1,115,4|0,0:3|0:0,0:0:0:0:
447,156,14484,1,4,0:3:0:0:
447,156,14869,2,0,L|447:224,1,57.5,0|4,0:0|0:3,0:0:0:0:
399,281,15253,2,0,L|403:356,1,57.5
300,376,15638,6,0,B|240:367|240:367|158:381,1,115,4|0,0:3|0:0,0:0:0:0:
80,250,16407,2,0,B|133:259|133:259|193:250,1,115,2|0,0:3|0:0,0:0:0:0:
259,193,16984,2,0,P|197:164|144:180,1,115,4|0,0:3|0:0,0:0:0:0:
80,250,17561,1,4,0:0:0:0:
80,250,17946,2,0,L|73:166,1,57.5,8|0,0:0|0:0,0:0:0:0:
98,113,18330,1,0,0:0:0:0:
98,113,18715,6,0,P|149:75|223:87,1,115,4|0,0:3|0:0,0:0:0:0:
367,65,19484,2,0,P|316:27|242:39,1,115,2|0,0:3|0:0,0:0:0:0:
293,111,20061,2,0,P|344:149|418:137,1,115,4|0,0:3|0:0,0:0:0:0:
449,85,20638,1,4,0:3:0:0:
449,85,21023,2,0,P|474:126|477:161,1,57.5,0|4,0:0|0:3,0:0:0:0:
447,212,21407,2,0,P|422:253|419:288,1,57.5,0|4,0:0|0:3,0:0:0:0:
456,363,21792,6,0,B|403:344|403:344|313:359,1,115,4|0,0:3|0:0,0:0:0:0:
166,353,22561,2,0,B|109:344,1,57.5,2|0,0:3|0:0,0:0:0:0:
31,376,22946,1,0,0:0:0:0:
46,293,23138,2,0,P|32:256|32:164,1,115,4|0,0:3|0:0,0:0:0:0:
119,105,23715,2,0,P|122:160|105:234,1,115,4|8,0:0|0:0,0:0:0:0:
28,181,24292,1,8,0:0:0:0:
38,81,24484,1,4,0:0:0:0:
38,81,24869,6,0,P|93:29|153:32,1,115,4|0,0:3|0:0,0:0:0:0:
217,201,25638,2,0,P|157:229|80:190,1,115,2|0,0:3|0:0,0:0:0:0:
154,137,26215,2,0,L|168:266,1,115,4|0,0:3|0:0,0:0:0:0:
177,340,26792,1,4,0:3:0:0:
177,340,27177,2,0,L|288:333,1,57.5,8|0,0:0|0:0,0:0:0:0:
309,299,27561,2,0,L|420:306,1,57.5,0|0,0:0|0:0,0:0:0:0:
433,360,27946,6,0,P|387:349|319:381,1,115,4|0,0:3|0:0,0:0:0:0:
395,218,28715,2,0,P|446:241|501:231,1,115,2|0,0:3|0:0,0:0:0:0:
458,155,29292,2,0,P|406:131|351:141,1,115,4|0,0:3|0:0,0:0:0:0:
288,204,29869,1,4,0:0:0:0:
288,204,30253,2,0,P|339:227|394:217,1,115,8|0,0:0|0:0,0:0:0:0:
461,40,31023,6,0,L|456:197,1,115,4|0,0:3|0:0,0:0:0:0:
288,204,31792,2,0,L|283:47,1,115,2|0,0:3|0:0,0:0:0:0:
250,15,32369,2,0,B|198:29|198:29|123:18,1,115,4|0,0:3|0:0,0:0:0:0:
64,62,32946,1,4,0:3:0:0:
64,62,33330,2,0,L|70:140,1,57.5,8|0,0:0|0:0,0:0:0:0:
127,179,33715,2,0,L|121:257,1,57.5,0|0,0:0|0:0,0:0:0:0:
65,335,34100,6,0,P|117:316|189:346,1,115,4|0,0:3|0:0,0:0:0:0:
338,334,34869,2,0,P|389:354|418:350,1,57.5,2|0,0:3|0:0,0:0:0:0:
474,344,35253,1,0,0:0:0:0:
499,265,35446,2,0,P|444:249|391:268,1,115,4|8,0:3|0:0,0:0:0:0:
327,167,36023,2,0,P|382:183|435:164,1,115,4|8,0:0|0:0,0:0:0:0:
512,127,36600,1,8,0:0:0:0:
502,49,36792,1,4,0:3:0:0:
502,49,37177,6,0,L|380:44,1,115,4|0,0:0|0:0,0:0:0:0:
226,135,37946,2,0,P|285:131|331:87,1,115,8|0,0:0|0:0,0:0:0:0:
309,17,38523,2,0,L|174:23,1,115,8|0,0:0|0:0,0:0:0:0:
149,93,39100,1,4,0:3:0:0:
149,93,39484,2,0,P|138:154|160:191,2,86.25,8|0|0,0:3|0:0|0:0,0:0:0:0:
222,222,40253,6,0,P|233:161|211:124,2,86.25,4|0|2,0:3|0:0|0:3,0:0:0:0:
168,282,41023,2,0,B|223:271|223:271|333:282,1,115,8|0,0:0|0:0,0:0:0:0:
284,359,41600,2,0,B|229:370|229:370|119:359,1,115,4|0,0:3|0:0,0:0:0:0:
95,320,42177,1,4,0:3:0:0:
95,320,42561,2,0,L|-2:334,2,76.6666666666667,8|0|0,0:0|0:0|0:0,0:0:0:0:
167,270,43330,6,0,B|222:259|222:259|332:270,1,115,4|0,0:3|0:0,0:0:0:0:
441,279,44100,2,0,P|401:234|319:240,1,115,8|0,0:0|0:0,0:0:0:0:
280,188,44677,2,0,B|335:179|335:179|383:118,1,115,8|0,0:0|0:0,0:0:0:0:
294,107,45253,1,4,0:3:0:0:
294,107,45638,2,0,L|203:90,1,57.5,8|4,0:3|0:3,0:0:0:0:
169,141,46023,2,0,L|78:158,1,57.5,4|4,0:3|0:3,0:0:0:0:
56,86,46407,6,0,L|168:63,1,115,4|0,0:3|0:0,0:0:0:0:
249,88,46984,1,4,0:3:0:0:
308,186,47177,2,0,L|195:163,1,115,8|0,0:0|0:0,0:0:0:0:
249,88,47753,1,6,0:3:0:0:
340,89,47946,5,8,0:0:0:0:
339,88,48330,2,0,L|451:65,1,115,8|0,0:3|0:0,0:0:0:0:
451,319,49484,6,0,L|339:296,1,115,4|0,0:0|0:0,0:0:0:0:
256,320,50061,1,0,0:0:0:0:
171,315,50253,2,0,P|191:265|262:234,1,115,8|0,0:0|0:0,0:0:0:0:
327,216,50830,2,0,P|302:175|235:152,1,115,8|0,0:0|0:0,0:0:0:0:
158,132,51407,2,0,P|113:156|69:150,1,57.5,4|0,0:3|0:0,0:0:0:0:
19,108,51792,2,0,L|29:254,1,115,8|0,0:0|0:0,0:0:0:0:
171,315,52561,6,0,B|228:306|228:306|317:304,1,115,4|0,0:3|0:0,0:0:0:0:
372,317,53138,1,0,0:0:0:0:
451,283,53330,2,0,L|444:164,1,115,8|0,0:0|0:0,0:0:0:0:
418,86,53907,1,8,0:0:0:0:
392,3,54100,2,0,P|360:20|337:53,1,57.5
298,107,54484,2,0,P|277:86|252:74,1,57.5,4|0,0:3|0:0,0:0:0:0:
154,107,54869,2,0,P|204:113|254:68,1,115,8|0,0:0|0:0,0:0:0:0:
85,45,55638,6,0,B|69:104|69:104|78:189,1,115,4|0,0:3|0:0,0:0:0:0:
86,246,56215,1,0,0:0:0:0:
96,333,56407,2,0,L|227:318,1,115,8|0,0:0|0:0,0:0:0:0:
300,322,56984,2,0,L|414:335,1,115,8|0,0:0|0:0,0:0:0:0:
496,304,57561,2,0,P|466:267|450:256,1,57.5,4|0,0:3|0:0,0:0:0:0:
362,211,57946,2,0,P|422:195|457:140,1,115,8|0,0:0|0:0,0:0:0:0:
364,5,58715,6,0,L|369:128,1,115,4|0,0:3|0:0,0:0:0:0:
362,211,59292,1,4,0:3:0:0:
277,176,59484,2,0,P|314:132|369:119,1,115,8|8,0:0|0:0,0:0:0:0:
452,154,60061,1,4,0:3:0:0:
492,232,60253,2,0,L|485:322,1,57.5,0|8,0:0|0:0,0:0:0:0:
410,330,60638,2,0,L|416:398,1,57.5,4|0,0:3|0:0,0:0:0:0:
314,374,61023,2,0,B|256:363,1,57.5,8|8,0:0|0:0,0:0:0:0:
172,378,61407,1,4,0:3:0:0:
172,378,61792,6,0,L|169:256,1,115,4|0,0:0|0:0,0:0:0:0:
211,188,62369,1,0,0:0:0:0:
251,110,62561,2,0,P|208:100|140:135,1,115,8|0,0:0|0:0,0:0:0:0:
211,188,63138,2,0,P|254:198|322:163,1,115,8|0,0:0|0:0,0:0:0:0:
383,112,63715,2,0,P|406:108|447:113,1,57.5,4|0,0:3|0:0,0:0:0:0:
467,22,64100,2,0,P|405:13|346:24,1,115,8|0,0:0|0:0,0:0:0:0:
180,21,64869,6,0,P|123:12|66:21,1,115,4|0,0:3|0:0,0:0:0:0:
21,97,65446,1,0,0:0:0:0:
53,180,65638,2,0,P|101:132|106:69,1,115,8|0,0:0|0:0,0:0:0:0:
21,97,66215,1,8,0:0:0:0:
53,180,66407,2,0,L|53:267,1,57.5
127,283,66792,2,0,L|127:370,1,57.5,4|0,0:3|0:0,0:0:0:0:
231,348,67177,2,0,P|187:325|115:350,1,115,8|0,0:0|0:0,0:0:0:0:
286,276,67946,6,0,P|330:299|402:274,1,115,4|0,0:3|0:0,0:0:0:0:
445,217,68523,1,0,0:0:0:0:
442,131,68715,2,0,L|436:9,1,115,8|0,0:0|0:0,0:0:0:0:
362,63,69292,2,0,L|368:185,1,115,8|0,0:0|0:0,0:0:0:0:
445,217,69869,2,0,L|435:292,1,57.5,4|0,0:3|0:0,0:0:0:0:
398,367,70253,2,0,B|342:358|342:358|264:367,1,115,8|0,0:0|0:0,0:0:0:0:
172,273,71023,6,0,B|228:282|228:282|306:273,1,115,4|0,0:3|0:0,0:0:0:0:
276,188,71600,1,4,0:3:0:0:
267,102,71792,2,0,P|220:121|189:182,1,115,8|8,0:0|0:0,0:0:0:0:
276,188,72369,2,0,P|323:169|355:108,1,115,4|8,0:3|0:0,0:0:0:0:
330,32,72946,2,0,P|292:11|217:20,1,115,8|8,0:0|0:0,0:0:0:0:
178,90,73523,1,4,0:3:0:0:
188,174,73715,2,0,L|184:266,1,57.5,4|4,0:3|0:3,0:0:0:0:
240,328,74100,6,0,L|386:316,1,115,4|0,0:0|0:0,0:0:0:0:
467,133,74869,2,0,L|343:113,1,115,8|0,0:0|0:0,0:0:0:0:
275,165,75446,1,8,0:0:0:0:
188,174,75638,2,0,P|208:112|266:79,1,115,0|4,0:0|0:3,0:0:0:0:
237,242,76407,2,0,P|184:257|128:233,1,115,8|0,0:0|0:0,0:0:0:0:
188,174,76984,1,0,0:0:0:0:
275,165,77177,6,0,L|267:309,1,115,4|0,0:3|0:0,0:0:0:0:
63,342,77946,2,0,L|55:198,1,115,8|0,0:0|0:0,0:0:0:0:
89,147,78523,1,8,0:0:0:0:
122,66,78715,2,0,P|100:60|63:64,1,57.5,0|0,0:0|0:0,0:0:0:0:
176,138,79100,2,0,P|192:121|207:87,1,57.5,4|0,0:3|0:0,0:0:0:0:
290,22,79484,2,0,B|281:88|281:88|291:161,1,115,8|0,0:0|0:0,0:0:0:0:
293,223,80061,1,0,0:0:0:0:
297,310,80253,6,0,P|354:285|378:224,1,115,4|0,0:3|0:0,0:0:0:0:
376,33,81023,2,0,P|391:98|435:128,1,115,8|0,0:0|0:0,0:0:0:0:
509,95,81600,1,8,0:0:0:0:
497,180,81792,2,0,L|483:295,1,115,0|4,0:0|0:3,0:0:0:0:
297,310,82561,2,0,P|342:272|435:283,1,115,8|0,0:0|0:0,0:0:0:0:
417,354,83138,1,0,0:0:0:0:
337,382,83330,6,0,L|192:339,1,115,4|0,0:3|0:0,0:0:0:0:
147,320,83907,1,4,0:3:0:0:
65,333,84100,2,0,L|60:259,1,57.5,8|0,0:0|0:0,0:0:0:0:
135,182,84484,2,0,L|131:239,1,57.5,12|4,0:0|0:3,0:0:0:0:
48,187,84869,2,0,L|42:68,1,115,0|4,0:0|0:3,0:0:0:0:
124,43,85446,1,0,0:0:0:0:
197,89,85638,2,0,P|252:97|327:47,1,115,8|4,0:0|0:3,0:0:0:0:
367,12,86215,1,4,0:3:0:0:
456,80,86407,6,0,L|450:231,1,115,4|0,0:0|0:0,0:0:0:0:
376,360,87177,2,0,L|370:209,1,115,8|0,0:0|0:0,0:0:0:0:
331,169,87753,1,8,0:0:0:0:
288,94,87946,2,0,P|249:138|251:202,1,115,0|4,0:0|0:3,0:0:0:0:
412,343,88715,2,0,P|409:286|371:245,1,115,8|0,0:0|0:0,0:0:0:0:
286,231,89292,1,0,0:0:0:0:
198,222,89484,6,0,L|49:205,1,115,4|0,0:3|0:0,0:0:0:0:
25,367,90253,2,0,L|174:350,1,115,8|0,0:0|0:0,0:0:0:0:
215,313,90830,1,8,0:0:0:0:
288,269,91023,2,0,L|285:192,1,57.5
358,163,91407,2,0,L|359:73,1,57.5,4|0,0:3|0:0,0:0:0:0:
252,94,91792,2,0,P|304:118|381:84,1,115,8|4,0:0|0:3,0:0:0:0:
313,30,92369,1,0,0:0:0:0:
194,39,92561,6,0,L|199:158,1,115,4|0,0:3|0:0,0:0:0:0:
290,326,93330,2,0,L|285:207,1,115,8|0,0:0|0:0,0:0:0:0:
208,259,93907,1,8,0:0:0:0:
139,304,94100,2,0,P|85:295|33:257,1,115,0|4,0:0|0:3,0:0:0:0:
208,259,94869,2,0,L|213:378,1,115,8|0,0:0|0:0,0:0:0:0:
360,276,95638,6,0,P|428:283|482:263,1,115,4|0,0:3|0:0,0:0:0:0:
511,186,96215,1,4,0:3:0:0:
440,75,96407,2,0,P|417:127|423:184,1,115,12|8,0:0|0:0,0:0:0:0:
336,195,96984,2,0,P|341:138|318:86,1,115,4|8,0:3|0:0,0:0:0:0:
231,111,97561,2,0,P|185:126|114:92,1,115,4|8,0:3|0:0,0:0:0:0:
182,38,98138,1,8,0:0:0:0:
268,26,98330,2,0,L|274:126,1,57.5,4|0,0:3|0:0,0:0:0:0:
280,199,98715,5,4,0:0:0:0:
74,334,111024,6,0,P|127:316|154:250,1,115,4|0,0:0|0:0,0:0:0:0:
123,188,111600,1,2,0:3:0:0:
53,148,111793,2,0,P|42:202|85:259,1,115,8|0,0:0|0:0,0:0:0:0:
153,266,112370,2,0,B|209:258|209:258|299:275,1,115,4|0,0:3|0:0,0:0:0:0:
353,293,112947,1,4,0:3:0:0:
353,293,113331,2,0,L|358:231,1,57.5,8|0,0:0|0:0,0:0:0:0:
416,177,113716,2,0,L|408:105,1,57.5,0|0,0:0|0:0,0:0:0:0:
397,27,114100,6,0,B|364:46|364:46|276:46,1,115,4|0,0:3|0:0,0:0:0:0:
205,45,114677,1,2,0:3:0:0:
123,44,114870,2,0,P|142:98|218:126,1,115,8|0,0:0|0:0,0:0:0:0:
250,181,115447,2,0,P|202:168|138:204,1,115,4|0,0:3|0:0,0:0:0:0:
102,269,116024,1,4,0:3:0:0:
102,269,116408,2,0,P|150:282|214:246,1,115,8|0,0:0|0:0,0:0:0:0:
301,124,117177,6,0,B|291:178|291:178|308:279,1,115,4|0,0:3|0:0,0:0:0:0:
394,354,117947,2,0,P|432:359|507:316,1,115,8|0,0:0|0:0,0:0:0:0:
475,248,118524,2,0,P|452:212|470:130,1,115,4|0,0:3|0:0,0:0:0:0:
499,72,119100,1,4,0:3:0:0:
499,72,119485,2,0,P|472:60|434:66,1,57.5,8|4,0:0|0:3,0:0:0:0:
376,108,119870,2,0,P|349:120|311:114,1,57.5,0|4,0:0|0:3,0:0:0:0:
239,65,120254,6,0,B|247:128|247:128|244:207,1,115,4|0,0:3|0:0,0:0:0:0:
139,330,121024,2,0,L|130:266,1,57.5,8|0,0:0|0:0,0:0:0:0:
142,191,121408,1,0,0:0:0:0:
151,106,121600,2,0,P|98:115|57:174,1,115,4|0,0:3|0:0,0:0:0:0:
142,191,122177,2,0,P|195:182|236:123,1,115,4|8,0:3|0:0,0:0:0:0:
219,54,122754,1,8,0:0:0:0:
151,106,122947,1,4,0:0:0:0:
139,330,123331,6,0,L|293:328,1,115,4|0,0:3|0:0,0:0:0:0:
326,290,123908,1,2,0:3:0:0:
395,247,124100,2,0,B|386:199|386:199|394:107,1,115,8|0,0:0|0:0,0:0:0:0:
403,51,124677,2,0,P|453:74|474:130,1,115,4|0,0:3|0:0,0:0:0:0:
391,133,125254,1,4,0:3:0:0:
391,133,125639,2,0,L|326:125,1,57.5,8|0,0:0|0:0,0:0:0:0:
283,57,126024,2,0,L|225:64,1,57.5,0|0,0:0|0:0,0:0:0:0:
157,146,126408,6,0,P|205:116|225:63,1,115,4|0,0:3|0:0,0:0:0:0:
132,56,126985,1,2,0:3:0:0:
54,85,127177,2,0,L|60:227,1,115,8|0,0:0|0:0,0:0:0:0:
17,273,127754,2,0,P|64:244|143:273,1,115,4|0,0:3|0:0,0:0:0:0:
195,300,128331,1,4,0:3:0:0:
195,300,128716,2,0,P|242:329|321:300,1,115,8|0,0:0|0:0,0:0:0:0:
265,133,129485,6,0,L|257:258,1,115,4|0,0:3|0:0,0:0:0:0:
298,319,130062,1,2,0:3:0:0:
361,267,130254,2,0,P|314:238|235:267,1,115,8|0,0:0|0:0,0:0:0:0:
298,319,130831,2,0,P|345:348|424:319,1,115,4|0,0:3|0:0,0:0:0:0:
464,286,131408,1,4,0:3:0:0:
464,286,131793,2,0,B|453:229|453:229|465:163,1,115,8|0,0:0|0:0,0:0:0:0:
367,36,132562,6,0,L|378:108,1,57.5,4|0,0:3|0:0,0:0:0:0:
334,165,132947,2,0,L|323:237,1,57.5,0|2,0:0|0:3,0:0:0:0:
310,303,133331,2,0,B|256:288|256:288|185:302,1,115,8|0,0:0|0:0,0:0:0:0:
152,232,133908,2,0,L|219:216,1,57.5,4|0,0:3|0:0,0:0:0:0:
254,151,134293,1,8,0:0:0:0:
205,85,134485,2,0,B|151:75|151:75|74:89,1,115,0|8,0:0|0:0,0:0:0:0:
14,135,135062,1,8,0:0:0:0:
2,224,135254,1,4,0:3:0:0:
142,313,135639,6,0,L|260:286,1,115,4|0,0:0|0:0,0:0:0:0:
333,260,136216,1,4,0:3:0:0:
407,228,136408,2,0,L|399:167,1,57.5,0|4,0:0|0:3,0:0:0:0:
437,102,136793,1,0,0:0:0:0:
437,102,136985,2,0,P|382:133|301:115,1,115,8|4,0:0|0:3,0:0:0:0:
259,74,137562,2,0,P|314:43|395:61,1,115,4|8,0:3|0:3,0:0:0:0:
399,170,138331,2,0,L|407:231,1,57.5,0|4,0:0|0:3,0:0:0:0:
333,260,138716,6,0,B|282:247|282:247|213:258,1,115,4|0,0:3|0:0,0:0:0:0:
145,226,139293,1,4,0:3:0:0:
81,177,139485,2,0,P|111:152|134:146,1,57.5,0|4,0:0|0:3,0:0:0:0:
207,172,139870,1,0,0:0:0:0:
145,226,140062,2,0,L|8:245,1,115,8|4,0:0|0:3,0:0:0:0:
14,131,140639,2,0,L|151:150,1,115,4|8,0:3|0:3,0:0:0:0:
156,306,141408,2,0,L|93:315,1,57.5,0|4,0:0|0:3,0:0:0:0:
33,354,141793,6,0,P|96:352|137:386,1,115,4|4,0:3|0:3,0:0:0:0:
219,372,142370,1,4,0:3:0:0:
219,372,142562,2,0,L|275:347,1,57.5,0|4,0:0|0:3,0:0:0:0:
298,275,142947,1,0,0:0:0:0:
298,275,143139,2,0,P|306:332|378:367,1,115,8|4,0:0|0:3,0:0:0:0:
431,318,143716,2,0,P|423:261|351:226,1,115,4|8,0:3|0:0,0:0:0:0:
307,184,144293,2,0,P|339:154|386:149,1,57.5,4|0,0:3|0:0,0:0:0:0:
432,163,144677,1,4,0:3:0:0:
505,123,144870,5,4,0:3:0:0:
505,123,145062,2,0,P|487:100|436:79,1,57.5,8|0,0:0|0:0,0:0:0:0:
383,51,145447,1,4,0:3:0:0:
299,69,145639,2,0,L|308:207,1,115,8|0,0:0|0:0,0:0:0:0:
127,69,146408,5,8,0:0:0:0:
127,69,146793,2,0,L|118:207,1,115,8|0,0:3|0:0,0:0:0:0:
299,69,147947,6,0,L|308:207,1,115,4|0,0:0|0:0,0:0:0:0:
313,271,148524,1,0,0:0:0:0:
379,329,148716,2,0,P|399:285|382:217,1,115,8|0,0:0|0:0,0:0:0:0:
306,183,149293,2,0,B|252:192|252:192|166:181,1,115,8|0,0:0|0:0,0:0:0:0:
129,126,149870,2,0,P|109:171|108:192,1,57.5,4|0,0:3|0:0,0:0:0:0:
215,101,150254,2,0,P|192:64|122:37,1,115,8|0,0:0|0:0,0:0:0:0:
54,75,150831,1,0,0:0:0:0:
23,173,151024,6,0,L|31:311,1,115,4|0,0:3|0:0,0:0:0:0:
87,353,151600,1,0,0:0:0:0:
167,324,151793,2,0,P|228:315|300:330,1,115,8|0,0:0|0:0,0:0:0:0:
362,352,152370,1,8,0:0:0:0:
348,254,152562,2,0,L|266:236,1,57.5,0|0,0:0|0:0,0:0:0:0:
233,171,152947,2,0,L|293:164,1,57.5,4|0,0:3|0:0,0:0:0:0:
179,243,153331,2,0,B|147:202|147:202|151:129,1,115,8|0,0:0|0:0,0:0:0:0:
158,56,153908,1,0,0:0:0:0:
37,129,154100,6,0,B|69:170|69:170|65:232,1,115,4|0,0:3|0:0,0:0:0:0:
11,301,154677,1,0,0:0:0:0:
76,360,154870,2,0,L|225:339,1,115,8|0,0:0|0:0,0:0:0:0:
264,298,155447,2,0,L|413:319,1,115,8|0,0:0|0:0,0:0:0:0:
456,279,156024,2,0,P|431:249|396:235,1,57.5,4|0,0:3|0:0,0:0:0:0:
334,145,156408,2,0,B|318:204|318:204|328:264,1,115,8|0,0:0|0:0,0:0:0:0:
421,92,157177,6,0,P|380:53|324:41,1,115,4|0,0:3|0:0,0:0:0:0:
256,96,157754,1,4,0:3:0:0:
187,41,157947,1,8,0:0:0:0:
187,41,158331,6,0,L|102:32,1,57.5,8|4,0:0|0:3,0:0:0:0:
90,120,158716,1,0,0:0:0:0:
90,120,158908,2,0,L|175:111,1,57.5,8|4,0:0|0:3,0:0:0:0:
193,200,159293,1,0,0:0:0:0:
193,200,159485,2,0,L|108:191,1,57.5,8|8,0:0|0:0,0:0:0:0:
86,272,159870,1,4,0:3:0:0:
255,310,160254,6,0,L|386:301,1,115,4|0,0:0|0:0,0:0:0:0:
456,296,160831,1,0,0:0:0:0:
404,226,161024,2,0,L|413:100,1,115,8|0,0:0|0:0,0:0:0:0:
477,54,161600,2,0,P|443:32|348:56,1,115,8|0,0:0|0:0,0:0:0:0:
356,121,162177,2,0,P|385:121|412:111,1,57.5,4|0,0:3|0:0,0:0:0:0:
295,67,162562,2,0,L|304:193,1,115,8|4,0:0|0:3,0:0:0:0:
296,266,163139,1,0,0:0:0:0:
313,360,163331,6,0,B|256:348|256:348|172:360,1,115,4|0,0:3|0:0,0:0:0:0:
117,325,163908,1,0,0:0:0:0:
39,287,164100,2,0,P|76:249|144:243,1,115,8|0,0:0|0:0,0:0:0:0:
211,281,164677,1,8,0:0:0:0:
296,266,164870,2,0,L|382:261,1,57.5,4|0,0:3|0:0,0:0:0:0:
422,210,165254,2,0,L|508:215,1,57.5,4|0,0:3|0:0,0:0:0:0:
426,95,165639,2,0,L|421:213,1,115,8|0,0:0|0:0,0:0:0:0:
353,262,166216,1,0,0:0:0:0:
336,166,166408,6,0,L|331:48,1,115,4|0,0:3|0:0,0:0:0:0:
249,43,166985,1,0,0:0:0:0:
177,90,167177,2,0,P|110:78|49:98,1,115,8|0,0:0|0:0,0:0:0:0:
19,163,167754,2,0,B|14:222|14:222|28:325,1,115,8|0,0:0|0:0,0:0:0:0:
96,323,168331,2,0,L|174:319,1,57.5,4|0,0:3|0:0,0:0:0:0:
239,251,168716,2,0,L|120:234,1,115,8|0,0:0|0:0,0:0:0:0:
304,312,169485,6,0,P|325:271|312:196,1,115,4|0,0:3|0:0,0:0:0:0:
239,251,170062,1,4,0:3:0:0:
249,340,170254,2,0,L|394:335,1,115,8|8,0:0|0:0,0:0:0:0:
398,258,170831,2,0,L|543:263,1,115,4|8,0:3|0:0,0:0:0:0:
512,175,171408,2,0,L|390:171,1,115,8|8,0:0|0:0,0:0:0:0:
302,155,171985,1,4,0:3:0:0:
256,236,172177,2,0,P|233:218|217:194,1,57.5,4|4,0:3|0:3,0:0:0:0:
114,171,172562,6,0,L|0:175,1,115,4|0,0:0|0:0,0:0:0:0:
0,364,173331,2,0,L|114:367,1,115,8|0,0:0|0:0,0:0:0:0:
194,332,173908,1,8,0:0:0:0:
270,368,174100,2,0,L|384:364,1,115,0|4,0:0|0:3,0:0:0:0:
512,193,174870,2,0,P|442:163|369:188,1,115,8|0,0:0|0:0,0:0:0:0:
328,208,175447,1,0,0:0:0:0:
336,121,175639,6,0,L|325:2,1,115,4|0,0:3|0:0,0:0:0:0:
134,130,176408,2,0,L|285:123,1,115,8|0,0:0|0:0,0:0:0:0:
336,121,176985,1,8,0:0:0:0:
328,208,177177,2,0,L|244:212,1,57.5,0|0,0:0|0:0,0:0:0:0:
202,264,177562,2,0,L|118:260,1,57.5,4|0,0:3|0:0,0:0:0:0:
88,351,177947,2,0,B|123:337|123:337|218:342,1,115,8|0,0:0|0:0,0:0:0:0:
287,347,178524,1,0,0:0:0:0:
363,305,178716,6,0,B|398:319|398:319|475:314,1,115,4|0,0:3|0:0,0:0:0:0:
475,120,179485,2,0,B|397:115|397:115|362:129,1,115,8|0,0:0|0:0,0:0:0:0:
290,81,180062,1,8,0:0:0:0:
206,102,180254,2,0,L|216:235,1,115,0|4,0:0|0:3,0:0:0:0:
88,351,181024,2,0,L|98:218,1,115,8|4,0:0|0:3,0:0:0:0:
144,164,181600,1,0,0:0:0:0:
214,216,181793,6,0,B|270:206|270:206|375:229,1,115,4|0,0:3|0:0,0:0:0:0:
412,241,182370,1,4,0:3:0:0:
485,194,182562,2,0,P|458:166|425:159,1,57.5,8|4,0:0|0:3,0:0:0:0:
327,141,182947,2,0,P|364:131|387:106,1,57.5,12|4,0:0|0:3,0:0:0:0:
419,47,183331,2,0,L|445:184,1,115,0|4,0:0|0:3,0:0:0:0:
509,80,183908,1,0,0:0:0:0:
419,47,184100,2,0,L|268:39,1,115,8|4,0:0|0:3,0:0:0:0:
226,80,184677,1,0,0:0:0:0:
158,135,184870,6,0,P|139:92|167:16,1,115,4|0,0:0|0:0,0:0:0:0:
242,171,185639,2,0,P|204:213|134:222,1,115,8|0,0:0|0:0,0:0:0:0:
81,177,186216,1,8,0:0:0:0:
19,237,186408,2,0,L|32:370,1,115,0|4,0:0|0:3,0:0:0:0:
230,285,187177,2,0,L|243:152,1,115,8|0,0:0|0:0,0:0:0:0:
226,80,187754,1,0,0:0:0:0:
314,56,187947,6,0,B|367:47|367:47|458:64,1,115,4|0,0:3|0:0,0:0:0:0:
431,216,188716,2,0,P|387:191|370:117,1,115,8|0,0:0|0:0,0:0:0:0:
452,131,189293,1,8,0:0:0:0:
510,192,189485,2,0,P|510:243|498:264,1,57.5,0|0,0:0|0:0,0:0:0:0:
438,300,189870,2,0,P|438:351|450:372,1,57.5,4|0,0:3|0:0,0:0:0:0:
507,248,190254,2,0,P|451:214|371:247,1,115,8|4,0:0|0:3,0:0:0:0:
334,272,190831,1,0,0:0:0:0:
261,224,191024,6,0,B|198:217|198:217|121:229,1,115,4|0,0:3|0:0,0:0:0:0:
0,354,191793,2,0,B|63:347|63:347|140:359,1,115,8|0,0:0|0:0,0:0:0:0:
192,320,192370,1,8,0:0:0:0:
268,360,192562,2,0,L|396:369,1,115,0|4,0:0|0:3,0:0:0:0:
438,300,193139,1,0,0:0:0:0:
466,187,193331,2,0,P|399:188|336:233,1,115,8|4,0:0|0:3,0:0:0:0:
167,249,194100,6,0,P|234:248|297:203,1,115,4|0,0:3|0:0,0:0:0:0:
296,144,194677,1,4,0:3:0:0:
209,49,194870,2,0,L|216:168,1,115,12|8,0:0|0:0,0:0:0:0:
296,144,195447,1,4,0:3:0:0:
381,131,195639,2,0,P|358:82|308:71,1,57.5,0|8,0:0|0:0,0:0:0:0:
296,144,196024,1,4,0:3:0:0:
350,212,196216,1,0,0:0:0:0:
350,212,196408,2,0,P|397:217|440:195,1,57.5,4|8,0:3|0:0,0:0:0:0:
489,167,196793,2,0,P|484:214|506:257,1,57.5,4|0,0:3|0:0,0:0:0:0:
459,335,197177,6,0,B|403:321|403:321|314:342,1,115,4|0,0:0|0:0,0:0:0:0:
164,334,197947,2,0,B|109:321|109:321|53:335,1,115,8|0,0:0|0:0,0:0:0:0:
22,255,198524,2,0,L|93:235,1,57.5,8|0,0:0|0:0,0:0:0:0:
163,221,198908,1,0,0:0:0:0:
219,153,199100,2,0,P|191:134|156:130,1,57.5,4|0,0:3|0:0,0:0:0:0:
61,138,199485,2,0,P|117:152|177:119,1,115,8|0,0:0|0:0,0:0:0:0:
109,65,200062,1,0,0:0:0:0:
196,8,200254,6,0,L|324:15,1,115,4|0,0:0|0:0,0:0:0:0:
479,118,201024,2,0,L|351:125,1,115,8|0,0:0|0:0,0:0:0:0:
277,136,201600,2,0,P|292:175|316:193,1,57.5,8|0,0:0|0:0,0:0:0:0:
386,210,201985,1,0,0:0:0:0:
378,296,202177,2,0,L|373:370,1,57.5,4|0,0:3|0:0,0:0:0:0:
264,349,202562,2,0,P|328:336|393:370,1,115,8|0,0:0|0:0,0:0:0:0:
455,321,203139,1,0,0:0:0:0:
386,210,203331,6,0,L|229:219,1,115,4|0,0:0|0:0,0:0:0:0:
99,272,204100,2,0,L|256:281,1,115,8|0,0:0|0:0,0:0:0:0:
271,216,204677,1,8,0:0:0:0:
171,105,204870,2,0,B|149:147|149:147|154:220,1,115,4|0,0:0|0:0,0:0:0:0:
213,278,205446,1,4,0:3:0:0:
344,266,205639,2,0,P|357:206|321:143,1,115,8|0,0:0|0:0,0:0:0:0:
271,216,206216,1,8,0:0:0:0:
264,349,206408,6,0,P|328:336|393:370,1,115,4|0,0:0|0:0,0:0:0:0:
390,175,207177,2,0,P|361:170|335:157,1,57.5,8|0,0:0|0:0,0:0:0:0:
389,91,207562,1,8,0:0:0:0:
464,133,207754,2,0,L|461:256,1,115,4|8,0:3|0:0,0:0:0:0:
387,289,208331,2,0,L|390:166,1,115,4|8,0:3|0:0,0:0:0:0:
390,91,208908,1,4,0:3:0:0:
392,6,209100,2,0,P|361:24|310:32,1,57.5,4|0,0:3|0:0,0:0:0:0:
240,21,209485,6,0,B|185:6|185:6|84:26,1,115,4|0,0:0|0:0,0:0:0:0:
0,166,210254,2,0,B|55:181|55:181|156:161,1,115,8|0,0:0|0:0,0:0:0:0:
189,129,210831,2,0,P|200:167|186:217,1,57.5,8|0,0:0|0:0,0:0:0:0:
142,249,211216,1,0,0:0:0:0:
205,307,211408,2,0,L|303:301,1,57.5,4|0,0:3|0:0,0:0:0:0:
368,303,211793,2,0,P|305:284|244:324,1,115,8|0,0:0|0:0,0:0:0:0:
315,371,212370,1,0,0:0:0:0:
427,365,212562,6,0,B|446:311|446:311|434:245,1,115,4|0,0:0|0:0,0:0:0:0:
379,66,213331,2,0,B|360:120|360:120|370:176,1,115,8|0,0:0|0:0,0:0:0:0:
456,178,213908,2,0,L|467:121,1,57.5,8|0,0:0|0:0,0:0:0:0:
460,34,214293,1,0,0:0:0:0:
379,66,214485,2,0,L|254:61,1,115,4|8,0:3|0:0,0:0:0:0:
152,192,215254,1,8,0:0:0:0:
169,290,215447,1,8,0:0:0:0:
264,322,215639,6,0,L|379:318,1,115,4|8,0:0|0:0,0:0:0:0:
440,257,216216,1,4,0:3:0:0:
387,188,216408,2,0,P|365:209|355:259,1,57.5,0|8,0:0|0:0,0:0:0:0:
379,318,216793,1,4,0:3:0:0:
460,346,216985,2,0,P|500:325|529:254,1,115,0|4,0:0|0:3,0:0:0:0:
495,184,217562,2,0,B|468:129|496:50,1,115,4|8,0:3|0:0,0:0:0:0:
422,20,218139,1,4,0:3:0:0:
359,81,218331,2,0,L|300:78,1,57.5,4|0,0:3|0:0,0:0:0:0:
192,13,218716,6,0,B|201:63|201:63|191:147,1,115,4|4,0:0|0:3,0:0:0:0:
181,213,219293,1,0,0:0:0:0:
114,158,219485,2,0,L|51:148,1,57.5,8|4,0:0|0:3,0:0:0:0:
0,213,219870,1,4,0:3:0:0:
15,298,220062,2,0,L|156:281,1,115,8|8,0:0|0:0,0:0:0:0:
181,213,220639,2,0,L|322:230,1,115,8|8,0:0|0:0,0:0:0:0:
351,292,221216,1,8,0:0:0:0:
407,359,221408,1,4,0:3:0:0:
440,279,221600,1,4,0:3:0:0:
464,196,221793,5,0,0:0:0:0:
187,55,232561,5,8,0:0:0:0:
187,55,232946,2,0,L|73:59,1,115,8|0,0:0|0:0,0:0:0:0:
73,325,234100,6,0,L|187:328,1,115,4|0,0:0|0:0,0:0:0:0:
256,276,234676,1,0,0:0:0:0:
196,131,234869,2,0,B|174:189|174:189|183:247,1,115,8|0,0:0|0:0,0:0:0:0:
312,214,235446,2,0,P|288:199|260:194,1,57.5,8|0,0:0|0:0,0:0:0:0:
256,276,235830,1,0,0:0:0:0:
340,297,236023,2,0,P|376:275|390:248,1,57.5,4|0,0:3|0:0,0:0:0:0:
394,157,236407,2,0,P|370:207|399:279,1,115,8|0,0:0|0:0,0:0:0:0:
457,216,236984,1,0,0:0:0:0:
471,111,237176,6,0,B|425:77|425:77|344:72,1,115,4|0,0:3|0:0,0:0:0:0:
285,106,237753,1,0,0:0:0:0:
210,21,237946,2,0,P|262:1|318:11,1,115,8|0,0:0|0:0,0:0:0:0:
285,106,238523,1,8,0:0:0:0:
196,99,238715,2,0,L|128:86,1,57.5,0|0,0:0|0:0,0:0:0:0:
79,21,239100,2,0,L|147:8,1,57.5,4|0,0:3|0:0,0:0:0:0:
59,106,239484,2,0,P|20:86|-7:12,1,115,8|0,0:0|0:0,0:0:0:0:
79,21,240061,1,0,0:0:0:0:
196,96,240253,6,0,L|178:210,1,115,4|0,0:3|0:0,0:0:0:0:
187,296,240830,1,0,0:0:0:0:
292,222,241023,2,0,B|177:209,1,115,8|0,0:0|0:0,0:0:0:0:
73,294,241600,2,0,P|83:336|103:363,1,57.5,8|0,0:0|0:0,0:0:0:0:
171,379,241984,1,0,0:0:0:0:
254,356,242176,2,0,P|285:350|327:357,1,57.5,4|0,0:3|0:0,0:0:0:0:
415,343,242561,2,0,P|367:327|296:373,1,115,8|0,0:0|0:0,0:0:0:0:
488,384,243330,6,0,P|498:332|455:269,1,115,4|0,0:3|0:0,0:0:0:0:
386,266,243907,1,4,0:3:0:0:
472,164,244100,2,0,L|469:286,1,115,8|12,0:0|0:0,0:0:0:0:
386,266,244676,1,4,0:3:0:0:
334,197,244869,6,0,P|360:183|388:178,1,57.5,0|8,0:0|0:0,0:0:0:0:
421,99,245253,2,0,P|392:93|367:80,1,57.5,4|4,0:3|0:3,0:0:0:0:
260,32,245638,2,0,P|286:18|314:13,1,57.5,12|0,0:0|0:0,0:0:0:0:
260,112,246023,2,0,P|234:125|206:130,1,57.5,4|4,0:3|0:3,0:0:0:0:
114,63,246407,6,0,B|129:102|129:102|121:204,1,115,4|0,0:0|0:0,0:0:0:0:
117,263,246984,1,0,0:0:0:0:
11,201,247176,2,0,L|133:172,1,115,8|0,0:0|0:0,0:0:0:0:
251,237,247753,2,0,L|192:223,1,57.5,8|0,0:0|0:0,0:0:0:0:
117,263,248138,1,0,0:0:0:0:
167,333,248330,2,0,L|222:319,1,57.5,4|0,0:3|0:0,0:0:0:0:
326,296,248715,2,0,P|266:290|213:333,1,115,8|0,0:0|0:0,0:0:0:0:
289,374,249292,1,0,0:0:0:0:
401,339,249484,6,0,P|412:295|380:226,1,115,4|0,0:3|0:0,0:0:0:0:
302,213,250061,1,0,0:0:0:0:
388,117,250253,2,0,L|386:247,1,115,8|0,0:0|0:0,0:0:0:0:
326,296,250830,1,8,0:0:0:0:
245,225,251023,2,0,L|306:211,1,57.5,0|0,0:0|0:0,0:0:0:0:
302,126,251407,2,0,L|245:113,1,57.5,4|0,0:3|0:0,0:0:0:0:
166,182,251792,2,0,P|209:169|246:109,1,115,8|4,0:0|0:3,0:0:0:0:
160,95,252369,1,0,0:0:0:0:
62,151,252561,6,0,L|71:292,1,115,4|0,0:3|0:0,0:0:0:0:
91,351,253138,1,0,0:0:0:0:
183,254,253330,2,0,L|67:265,1,115,8|0,0:0|0:0,0:0:0:0:
178,346,253907,2,0,L|253:358,1,57.5,8|0,0:0|0:0,0:0:0:0:
320,343,254292,1,0,0:0:0:0:
392,293,254484,2,0,P|367:269|321:257,1,57.5,4|0,0:3|0:0,0:0:0:0:
403,381,254869,2,0,P|455:352|479:301,1,115,8|0,0:0|0:0,0:0:0:0:
453,221,255446,1,0,0:0:0:0:
344,145,255638,6,0,L|346:266,1,115,4|0,0:3|0:0,0:0:0:0:
320,343,256215,1,4,0:3:0:0:
260,230,256407,2,0,L|261:115,1,115,8|12,0:0|0:0,0:0:0:0:
331,62,256984,1,4,0:3:0:0:
265,6,257176,6,0,L|180:12,1,57.5,4|8,0:3|0:0,0:0:0:0:
148,73,257561,2,0,L|63:67,1,57.5,8|0,0:0|0:0,0:0:0:0:
11,32,257946,2,0,L|13:130,1,57.5,4|4,0:3|0:3,0:0:0:0:
70,207,258330,2,0,L|68:109,1,57.5,4|4,0:3|0:3,0:0:0:0:
3,261,258715,6,0,P|49:291|121:278,1,115,4|0,0:0|0:0,0:0:0:0:
185,250,259292,1,0,0:0:0:0:
281,315,259484,2,0,P|235:345|163:332,1,115,8|0,0:0|0:0,0:0:0:0:
185,250,260061,1,8,0:0:0:0:
257,203,260253,2,0,L|377:220,1,115,0|4,0:0|0:3,0:0:0:0:
454,198,260830,1,0,0:0:0:0:
374,105,261023,2,0,B|363:155|363:155|374:252,1,115,8|0,0:0|0:0,0:0:0:0:
454,198,261600,1,0,0:0:0:0:
459,79,261792,6,0,P|429:37|355:20,1,115,4|0,0:0|0:0,0:0:0:0:
285,31,262369,1,0,0:0:0:0:
277,151,262561,2,0,P|328:146|380:90,1,115,8|0,0:0|0:0,0:0:0:0:
461,111,263138,1,8,0:0:0:0:
454,198,263330,2,0,L|451:263,1,57.5,0|0,0:0|0:0,0:0:0:0:
379,304,263715,2,0,L|382:369,1,57.5,4|0,0:3|0:0,0:0:0:0:
491,367,264100,2,0,P|427:349|368:370,1,115,8|0,0:0|0:0,0:0:0:0:
294,369,264676,1,0,0:0:0:0:
186,288,264869,6,0,P|250:270|309:291,1,115,4|0,0:0|0:0,0:0:0:0:
379,304,265446,1,4,0:3:0:0:
294,369,265638,2,0,L|236:363,1,57.5,8|0,0:0|0:0,0:0:0:0:
149,364,266023,2,0,L|59:373,1,57.5,0|8,0:0|0:0,0:0:0:0:
56,290,266407,2,0,L|210:276,1,115,0|4,0:0|0:3,0:0:0:0:
247,244,266984,1,0,0:0:0:0:
160,165,267176,2,0,L|174:319,1,115,8|0,0:0|0:0,0:0:0:0:
247,244,267753,1,0,0:0:0:0:
358,157,267946,6,0,B|302:148|302:148|236:162,1,115,4|0,0:3|0:0,0:0:0:0:
160,165,268523,1,4,0:3:0:0:
248,102,268715,2,0,L|243:181,1,57.5,8|0,0:0|0:0,0:0:0:0:
167,80,269100,2,0,P|188:44|213:28,1,57.5,12|4,0:0|0:3,0:0:0:0:
361,105,269484,2,0,B|305:114|305:114|239:100,1,115,0|8,0:0|0:0,0:0:0:0:
283,23,270061,1,0,0:0:0:0:
389,26,270253,2,0,L|469:36,1,57.5,8|8,0:0|0:0,0:0:0:0:
505,104,270638,2,0,L|447:111,1,57.5,4|4,0:3|0:3,0:0:0:0:
378,190,271023,6,0,P|426:164|448:108,1,115,4|0,0:0|0:0,0:0:0:0:
361,105,271600,1,0,0:0:0:0:
299,220,271792,2,0,L|324:343,1,115,12|4,0:0|0:3,0:0:0:0:
399,375,272369,1,8,0:0:0:0:
420,290,272561,2,0,P|364:295|321:332,1,115,0|4,0:0|0:3,0:0:0:0:
244,374,273138,1,0,0:0:0:0:
156,249,273330,2,0,P|212:253|254:291,1,115,12|0,0:0|0:0,0:0:0:0:
177,333,273907,1,0,0:0:0:0:
74,284,274100,6,0,P|68:227|98:179,1,115,4|0,0:0|0:0,0:0:0:0:
180,153,274676,1,0,0:0:0:0:
89,64,274869,2,0,L|100:202,1,115,8|0,0:0|0:0,0:0:0:0:
180,153,275446,1,8,0:0:0:0:
254,110,275638,2,0,P|218:76|198:71,1,57.5,0|0,0:0|0:0,0:0:0:0:
257,197,276023,2,0,P|304:182|318:168,1,57.5,4|0,0:3|0:0,0:0:0:0:
293,11,276407,2,0,P|255:53|253:109,1,115,12|0,0:0|0:0,0:0:0:0:
335,86,276984,1,0,0:0:0:0:
456,100,277176,6,0,L|445:229,1,115,4|0,0:0|0:0,0:0:0:0:
437,302,277753,1,0,0:0:0:0:
312,253,277946,2,0,L|369:246,1,57.5,8|0,0:0|0:0,0:0:0:0:
369,161,278330,2,0,L|312:153,1,57.5,0|8,0:0|0:0,0:0:0:0:
239,200,278715,2,0,L|111:206,1,115,0|4,0:0|0:3,0:0:0:0:
38,211,279292,1,0,0:0:0:0:
105,95,279484,2,0,B|126:134|126:134|123:232,1,115,12|4,0:0|0:3,0:0:0:0:
81,280,280061,1,8,0:0:0:0:
175,351,280253,6,0,L|264:342,1,57.5,4|0,0:0|0:0,0:0:0:0:
310,309,280638,2,0,L|319:398,1,57.5,0|0,0:0|0:0,0:0:0:0:
240,257,281023,2,0,L|231:168,1,57.5,12|0,0:0|0:0,0:0:0:0:
321,221,281407,2,0,L|379:216,1,57.5,8|4,0:0|0:3,0:0:0:0:
512,185,281792,2,0,L|454:179,1,57.5,4|8,0:0|0:0,0:0:0:0:
386,74,282176,2,0,L|395:163,1,57.5,8|0,0:0|0:0,0:0:0:0:
473,44,282561,2,0,P|450:9|425:-8,1,57.5,4|4,0:3|0:3,0:0:0:0:
329,82,282946,2,0,P|370:79|398:66,1,57.5,8|8,0:0|0:0,0:0:0:0:
254,4,283330,5,4,0:0:0:0:
