osu file format v14

[General]
AudioFilename: audio.mp3
AudioLeadIn: 0
PreviewTime: 146311
Countdown: 0
SampleSet: Soft
StackLeniency: 0.7
Mode: 0
LetterboxInBreaks: 0
WidescreenStoryboard: 0

[Editor]
Bookmarks: 12561,37177,49484,74100,98715,99100,99484,99869,100253,100638,101023,101407,101792,102177,102561,102946,103330,103715,104100,135638,147946,172561,197177,221792,222177,222561,222946,223330,223715,224100,224484,224869,225253,225638,226023,226407,226792,227177,227561,227946,228330,228715,229100,229484,229869,230253,230638,234100,258715,283330
DistanceSpacing: 0.14
BeatDivisor: 4
GridSize: 32
TimelineZoom: 2.7

[Metadata]
Title:Stars in the rain
TitleUnicode:Stars in the rain
Artist:Aimer
ArtistUnicode:Aimer
Creator:HowRengar
Version:Eternity
Source:
Tags:Japanese pop Jpop J-pop Jrock J-rock daydream taka ONE OK ROCK エメ 森内 貴寛 Moriuchi Takahiro 玉井 健二 大西 省吾 kenji tamai shogo ohnishi
BeatmapID:4190978
BeatmapSetID:2013931

[Difficulty]
HPDrainRate:6
CircleSize:5
OverallDifficulty:8.2
ApproachRate:8.8
SliderMultiplier:1.7
SliderTickRate:1

[Events]
//Background and Video events
0,0,"Stars in the Rain.jpg",0,0
//Break Periods
2,98915,103330
2,221992,227946
//Storyboard Layer 0 (Background)
//Storyboard Layer 1 (Fail)
//Storyboard Layer 2 (Pass)
//Storyboard Layer 3 (Foreground)
//Storyboard Layer 4 (Overlay)
//Storyboard Sound Samples

[TimingPoints]
254,769.230769230769,4,2,1,50,1,0
2177,-200,4,2,1,50,0,0
3330,-100,4,2,1,50,0,0
5253,-200,4,2,1,50,0,0
6407,-100,4,2,1,50,0,0
8330,-200,4,2,1,50,0,0
9484,-100,4,2,1,50,0,0
11407,-200,4,2,1,50,0,0
12561,-83.3333333333333,4,2,1,60,0,0
17561,-200,4,2,1,60,0,0
17850,-200,4,2,1,5,0,0
17946,-83.3333333333333,4,2,1,60,0,0
23715,-200,4,2,1,60,0,0
24003,-200,4,2,1,5,0,0
24100,-83.3333333333333,4,2,1,60,0,0
24484,-200,4,2,1,60,0,0
24773,-200,4,2,1,5,0,0
24869,-83.3333333333333,4,2,1,60,0,0
29869,-200,4,2,1,60,0,0
30157,-200,4,2,1,5,0,0
30253,-83.3333333333333,4,2,1,60,0,0
35734,-83.3333333333333,4,2,1,5,0,0
35830,-83.3333333333333,4,2,1,60,0,0
36023,-200,4,2,1,60,0,0
36311,-200,4,2,1,5,0,0
36407,-83.3333333333333,4,2,1,60,0,0
36792,-166.666666666667,4,2,1,60,0,0
37080,-166.666666666667,4,2,1,5,0,0
37177,-66.6666666666667,4,2,1,65,0,0
39655,-66.6666666666667,4,2,1,5,0,0
39741,-66.6666666666667,4,2,1,65,0,0
39912,-66.6666666666667,4,2,1,5,0,0
39997,-66.6666666666667,4,2,1,65,0,0
40446,-66.6666666666667,4,2,1,5,0,0
40542,-66.6666666666667,4,2,1,65,0,0
40734,-66.6666666666667,4,2,1,5,0,0
40830,-66.6666666666667,4,2,1,65,0,0
42177,-200,4,2,1,65,0,0
42465,-200,4,2,1,5,0,0
42561,-66.6666666666667,4,2,1,65,0,0
43619,-66.6666666666667,4,2,1,5,0,0
43715,-66.6666666666667,4,2,1,65,0,0
45542,-66.6666666666667,4,2,1,5,0,0
45638,-66.6666666666667,4,2,1,65,0,0
46696,-66.6666666666667,4,2,1,5,0,0
46792,-66.6666666666667,4,2,1,65,0,0
47946,-66.6666666666667,4,2,1,80,0,0
48330,-200,4,2,1,80,0,0
49484,-50,4,2,1,80,0,1
49773,-50,4,2,1,5,0,1
49869,-50,4,2,1,80,0,1
52465,-50,4,2,1,5,0,1
52561,-50,4,2,1,80,0,1
52850,-50,4,2,1,5,0,1
52946,-50,4,2,1,80,0,1
53619,-50,4,2,1,5,0,1
53715,-50,4,2,1,80,0,1
55927,-50,4,2,1,5,0,1
56023,-50,4,2,1,80,0,1
58619,-50,4,2,1,5,0,1
58715,-50,4,2,1,80,0,1
60638,-100,4,2,1,80,0,1
60927,-100,4,2,1,5,0,1
61023,-100,4,2,1,80,0,1
61407,-250,4,2,1,80,0,1
61696,-250,4,2,1,5,0,1
61792,-50,4,2,1,80,0,1
62080,-50,4,2,1,5,0,1
62177,-50,4,2,1,80,0,1
68234,-50,4,2,1,5,0,1
68330,-50,4,2,1,80,0,1
70638,-75.187969924812,4,2,1,80,0,1
70927,-75.187969924812,4,2,1,5,0,1
71023,-50,4,2,1,80,0,1
74003,-50,4,2,1,5,0,1
74100,-50,4,2,2,80,0,1
77465,-50,4,2,2,5,0,1
77561,-50,4,2,2,80,0,1
78234,-50,4,2,2,5,0,1
78330,-50,4,2,2,80,0,1
83619,-50,4,2,2,5,0,1
83715,-50,4,2,2,80,0,1
84965,-50,4,2,2,5,0,1
85061,-50,4,2,2,80,0,1
86311,-50,4,2,2,5,0,1
86407,-50,4,2,2,80,0,1
89773,-50,4,2,2,5,0,1
89869,-50,4,2,2,80,0,1
90542,-50,4,2,2,5,0,1
90638,-50,4,2,2,80,0,1
98330,-200,4,2,2,80,0,1
98619,-200,4,2,2,5,0,1
98715,-100,4,2,1,50,0,0
109869,-303.030303030303,4,2,1,50,0,0
111023,-76.9230769230769,4,2,1,60,0,0
122465,-76.9230769230769,4,2,1,5,0,0
122561,-76.9230769230769,4,2,1,60,0,0
122946,-200,4,2,1,60,0,0
123234,-200,4,2,1,5,0,0
123330,-76.9230769230769,4,2,1,60,0,0
127465,-76.9230769230769,4,2,1,5,0,0
127561,-76.9230769230769,4,2,1,60,0,0
130542,-76.9230769230769,4,2,1,5,0,0
130638,-76.9230769230769,4,2,1,60,0,0
134484,-200,4,2,1,60,0,0
134773,-200,4,2,1,5,0,0
134869,-200,4,2,1,60,0,0
135542,-200,4,2,1,5,0,0
135638,-66.6666666666667,4,2,1,70,0,0
135927,-66.6666666666667,4,2,1,5,0,0
136023,-66.6666666666667,4,2,1,70,0,0
137273,-66.6666666666667,4,2,1,5,0,0
137369,-66.6666666666667,4,2,1,70,0,0
137850,-66.6666666666667,4,2,1,5,0,0
137946,-66.6666666666667,4,2,1,70,0,0
138427,-66.6666666666667,4,2,1,5,0,0
138523,-66.6666666666667,4,2,1,70,0,0
139003,-66.6666666666667,4,2,1,5,0,0
139099,-66.6666666666667,4,2,1,70,0,0
140350,-66.6666666666667,4,2,1,5,0,0
140446,-66.6666666666667,4,2,1,70,0,0
142080,-66.6666666666667,4,2,1,5,0,0
142176,-66.6666666666667,4,2,1,70,0,0
143427,-66.6666666666667,4,2,1,5,0,0
143523,-66.6666666666667,4,2,1,70,0,0
144003,-66.6666666666667,4,2,1,5,0,0
144099,-66.6666666666667,4,2,1,70,0,0
146407,-40,4,2,1,80,0,0
146696,-40,4,2,1,5,0,0
146792,-200,4,2,1,80,0,0
147946,-50,4,2,1,80,0,1
148234,-50,4,2,1,5,0,1
148330,-50,4,2,1,80,0,1
150927,-50,4,2,1,5,0,1
151023,-50,4,2,1,80,0,1
151311,-50,4,2,1,5,0,1
151407,-50,4,2,1,80,0,1
152080,-50,4,2,1,5,0,1
152176,-50,4,2,1,80,0,1
154388,-50,4,2,1,5,0,1
154484,-50,4,2,1,80,0,1
159100,-100,4,2,1,80,0,1
159388,-100,4,2,1,5,0,1
159484,-100,4,2,1,80,0,1
159869,-250,4,2,1,80,0,1
160157,-250,4,2,1,5,0,1
160253,-50,4,2,1,80,0,1
160542,-50,4,2,1,5,0,1
160638,-50,4,2,1,80,0,1
166696,-50,4,2,1,5,0,1
166792,-50,4,2,1,80,0,1
169100,-75.187969924812,4,2,1,80,0,1
169388,-75.187969924812,4,2,1,5,0,1
169484,-50,4,2,1,80,0,1
172465,-50,4,2,1,5,0,1
172561,-50,4,2,2,80,0,1
175927,-50,4,2,2,5,0,1
176023,-50,4,2,2,80,0,1
176696,-50,4,2,2,5,0,1
176792,-50,4,2,2,80,0,1
182080,-50,4,2,2,5,0,1
182176,-50,4,2,2,80,0,1
183427,-50,4,2,2,5,0,1
183523,-50,4,2,2,80,0,1
184773,-50,4,2,2,5,0,1
184869,-50,4,2,2,80,0,1
188234,-50,4,2,2,5,0,1
188330,-50,4,2,2,80,0,1
189003,-50,4,2,2,5,0,1
189099,-50,4,2,2,80,0,1
195157,-50,4,2,2,5,0,1
195253,-50,4,2,2,80,0,1
196792,-55.5555555555556,4,2,1,80,0,0
197177,-45.4545454545455,4,2,1,85,0,1
197850,-45.4545454545455,4,2,1,5,0,1
197946,-45.4545454545455,4,2,1,85,0,1
202850,-45.4545454545455,4,2,1,5,0,1
202946,-45.4545454545455,4,2,1,85,0,1
203042,-45.4545454545455,4,2,1,5,0,1
203138,-45.4545454545455,4,2,1,85,0,1
203234,-45.4545454545455,4,2,1,5,0,1
203330,-45.4545454545455,4,2,1,85,0,1
208042,-45.4545454545455,4,2,1,5,0,1
208138,-45.4545454545455,4,2,1,85,0,1
209196,-45.4545454545455,4,2,1,5,0,1
209292,-45.4545454545455,4,2,1,85,0,1
209388,-45.4545454545455,4,2,1,5,0,1
209484,-45.4545454545455,4,2,1,85,0,1
210542,-45.4545454545455,4,2,1,5,0,1
210638,-45.4545454545455,4,2,1,85,0,1
211119,-45.4545454545455,4,2,1,5,0,1
211215,-45.4545454545455,4,2,1,85,0,1
211503,-45.4545454545455,4,2,1,5,0,1
211599,-45.4545454545455,4,2,1,85,0,1
211696,-45.4545454545455,4,2,1,5,0,1
211792,-45.4545454545455,4,2,1,85,0,1
213042,-45.4545454545455,4,2,1,5,0,1
213138,-45.4545454545455,4,2,1,85,0,1
215157,-45.4545454545455,4,2,1,5,0,1
215253,-45.4545454545455,4,2,1,85,0,1
215927,-45.4545454545455,4,2,1,5,0,1
216023,-45.4545454545455,4,2,1,85,0,1
221792,-100,4,2,1,50,0,0
231023,-100,4,2,1,40,0,0
231215,-100,4,2,1,45,0,0
231407,-100,4,2,1,50,0,0
231600,-100,4,2,1,55,0,0
231792,-100,4,2,1,60,0,0
231984,-100,4,2,1,65,0,0
232177,-100,4,2,1,70,0,0
232369,-100,4,2,1,5,0,0
232561,-33.3333333333333,4,2,1,80,0,0
232657,-33.3333333333333,4,2,1,5,0,0
232946,-200,4,2,1,80,0,0
234100,-45.4545454545455,4,2,1,80,0,1
234388,-45.4545454545455,4,2,1,5,0,1
234484,-45.4545454545455,4,2,1,80,0,1
237080,-45.4545454545455,4,2,1,5,0,1
237177,-45.4545454545455,4,2,1,80,0,1
237465,-45.4545454545455,4,2,1,5,0,1
237562,-45.4545454545455,4,2,1,80,0,1
238234,-45.4545454545455,4,2,1,5,0,1
238331,-45.4545454545455,4,2,1,80,0,1
240542,-45.4545454545455,4,2,1,5,0,1
240639,-45.4545454545455,4,2,1,80,0,1
246696,-45.4545454545455,4,2,1,5,0,1
246793,-45.4545454545455,4,2,1,80,0,1
250542,-45.4545454545455,4,2,1,5,0,1
250639,-45.4545454545455,4,2,1,80,0,1
252850,-45.4545454545455,4,2,1,5,0,1
252947,-45.4545454545455,4,2,1,80,0,1
255253,-68.4931506849315,4,2,1,80,0,1
255542,-68.4931506849315,4,2,1,5,0,1
255638,-45.4545454545455,4,2,1,80,0,1
258715,-43.4782608695652,4,2,2,85,0,1
262080,-43.4782608695652,4,2,2,5,0,1
262177,-43.4782608695652,4,2,2,85,0,1
262850,-43.4782608695652,4,2,2,5,0,1
262946,-43.4782608695652,4,2,2,85,0,1
270927,-43.4782608695652,4,2,2,5,0,1
271023,-43.4782608695652,4,2,2,85,0,1
274388,-43.4782608695652,4,2,2,5,0,1
274484,-43.4782608695652,4,2,2,85,0,1
275157,-43.4782608695652,4,2,2,5,0,1
275253,-43.4782608695652,4,2,2,85,0,1
283330,-100,4,2,1,50,0,0
285253,-200,4,2,1,50,0,0
286407,-100,4,2,1,50,0,0
288907,-100,4,2,1,70,0,0
289292,-100,4,2,1,60,0,0
289484,-100,4,2,1,50,0,0
291407,-200,4,2,1,50,0,0
292561,-100,4,2,1,50,0,0
294484,-303.030303030303,4,2,1,50,0,0
295638,-303.030303030303,4,2,1,5,0,0

[Colours]
Combo1 : 217,167,233
Combo2 : 143,122,226
Combo3 : 109,100,230
Combo4 : 122,158,241
Combo5 : 44,74,180
Combo6 : 225,191,72

[HitObjects]
47,79,254,5,2,0:0:0:0:
111,116,446,2,0,L|155:108,2,42.5,2|0|0,0:0|0:0|0:0,0:0:0:0:
40,72,1023,1,2,0:0:0:0:
159,115,1215,2,0,L|117:122,1,42.5,2|0,0:0|0:0,0:0:0:0:
51,219,1600,2,0,L|135:202,1,85,2|0,0:0|0:0,0:0:0:0:
142,209,2177,6,0,L|58:226,1,85,2|0,0:0|0:0,0:0:0:0:
51,219,3330,5,2,0:0:0:0:
46,299,3523,2,0,L|30:341,2,42.5,2|0|0,0:0|0:0|0:0,0:0:0:0:
44,212,4100,1,2,0:0:0:0:
22,342,4292,2,0,L|37:302,1,42.5,2|0,0:0|0:0,0:0:0:0:
173,297,4677,2,0,L|142:376,1,85,2|0,0:0|0:0,0:0:0:0:
149,383,5253,6,0,L|179:303,1,85,2|0,0:0|0:0,0:0:0:0:
186,310,6407,5,2,0:0:0:0:
143,231,6600,2,0,P|122:232|102:237,2,42.5,2|0|0,0:0|0:0|0:0,0:0:0:0:
193,317,7177,1,2,0:0:0:0:
100,227,7369,2,0,P|120:221|141:221,1,42.5,2|0,0:0|0:0,0:0:0:0:
278,235,7753,2,0,P|245:208|231:169,1,85,2|0,0:0|0:0,0:0:0:0:
240,165,8330,6,0,P|253:204|286:230,1,85,2|0,0:0|0:0,0:0:0:0:
297,227,9484,5,2,0:0:0:0:
340,288,9677,2,0,P|337:309|331:329,2,42.5,2|0|0,0:0|0:0|0:0,0:0:0:0:
304,220,10253,1,2,0:0:0:0:
338,336,10446,2,0,P|344:316|347:295,1,42.5,2|0,0:0|0:0,0:0:0:0:
444,154,10830,2,0,P|408:175|394:214,1,85,2|0,0:0|0:0,0:0:0:0:
401,221,11407,6,0,P|414:181|450:160,1,85,2|0,0:0|0:0,0:0:0:0:
510,62,12369,5,2,0:0:0:0:
506,66,12465,1,2,0:0:0:0:
502,70,12561,2,0,P|451:63|401:55,1,101.999996887207,0|0,3:0|0:0,0:0:0:0:
314,15,13138,1,0,0:0:0:0:
247,80,13330,2,0,P|260:130|271:179,1,101.999996887207,2|0,0:0|0:0,0:0:0:0:
264,185,13907,2,0,P|253:136|240:87,1,101.999996887207,10|0,0:0|0:0,0:0:0:0:
161,36,14484,1,0,3:0:0:0:
64,162,14869,2,0,P|38:164|13:165,2,50.9999984436036,2|0|0,0:0|0:0|0:0,0:0:0:0:
152,141,15446,5,2,0:0:0:0:
152,141,15638,2,0,B|171:190|125:190|148:255,1,101.999996887207,0|0,3:0|0:0,0:0:0:0:
190,322,16215,1,0,0:0:0:0:
258,260,16407,2,0,P|307:244|357:233,1,101.999996887207,2|0,0:0|0:0,0:0:0:0:
360,224,16984,2,0,P|310:235|262:251,1,101.999996887207,2|0,3:2|0:0,0:0:0:0:
357,144,17561,6,0,P|373:149|389:151,1,31.875,2|0,0:1|0:0,0:0:0:0:
399,146,17946,6,0,P|374:142|349:136,1,50.9999984436036,2|0,1:2|0:0,0:0:0:0:
284,74,18330,1,0,0:0:0:0:
278,66,18715,5,2,3:2:0:0:
354,22,18907,2,0,P|378:16|403:9,1,50.9999984436036,2|0,0:0|0:0,0:0:0:0:
509,56,19292,2,0,P|462:68|452:116,1,101.999996887207,2|0,0:0|0:0,0:0:0:0:
504,193,19869,1,2,0:0:0:0:
504,193,20061,2,0,P|502:246|496:295,1,101.999996887207,2|0,0:0|0:0,0:0:0:0:
416,363,20638,2,0,P|373:336|323:343,2,101.999996887207,0|0|0,3:0|0:0|0:0,0:0:0:0:
230,345,21792,6,0,B|229:293|257:298|259:249,1,101.999996887207,0|0,3:0|0:0,0:0:0:0:
268,51,22561,2,0,P|244:63|219:70,1,50.9999984436036,0|0,0:0|0:0,0:0:0:0:
148,119,22946,1,0,0:0:0:0:
148,119,23138,2,0,P|99:102|49:92,1,101.999996887207,0|0,3:0|0:0,0:0:0:0:
171,203,23715,6,0,P|185:195|200:191,1,31.875,2|0,3:1|0:0,0:0:0:0:
212,190,24100,1,0,1:0:0:0:
139,323,24292,1,0,1:0:0:0:
54,229,24484,2,0,P|68:236|83:240,1,31.875,2|0,0:1|0:0,0:0:0:0:
95,241,24869,6,0,P|49:260|36:308,1,101.999996887207,0|0,3:0|0:0,0:0:0:0:
81,384,25446,1,0,0:0:0:0:
139,323,25638,2,0,P|188:333|238:345,1,101.999996887207,2|0,0:0|0:0,0:0:0:0:
245,338,26215,2,0,P|195:325|145:315,1,101.999996887207,2|0,0:0|0:0,0:0:0:0:
252,254,26792,1,0,3:0:0:0:
447,361,27177,2,0,P|471:353|495:344,2,50.9999984436036,2|0|0,1:2|0:0|0:0,0:0:0:0:
356,377,27753,5,2,0:0:0:0:
364,384,27946,2,0,P|371:333|377:282,1,101.999996887207,0|0,3:0|0:0,0:0:0:0:
383,172,28523,1,0,0:0:0:0:
278,186,28715,2,0,P|230:168|183:148,1,101.999996887207,2|0,0:0|0:0,0:0:0:0:
183,157,29292,2,0,P|230:177|278:195,1,101.999996887207,2|0,3:2|0:0,0:0:0:0:
338,94,29869,6,0,P|323:99|307:104,1,31.875,2|0,0:1|0:0,0:0:0:0:
347,100,30253,6,0,P|381:65|362:21,1,101.999996887207,2|0,1:2|0:0,0:0:0:0:
279,11,30830,1,2,0:0:0:0:
178,109,31023,6,0,P|173:85|170:59,1,50.9999984436036,0|2,3:0|0:0,0:0:0:0:
62,166,31407,1,2,0:0:0:0:
103,104,31600,1,2,0:0:0:0:
200,181,31792,2,0,P|206:205|208:231,1,50.9999984436036,2|0,0:0|0:0,0:0:0:0:
144,336,32177,1,2,0:0:0:0:
144,336,32369,2,0,P|181:303|229:313,1,101.999996887207,2|0,0:0|0:0,0:0:0:0:
313,362,32946,2,0,P|307:337|303:311,1,50.9999984436036,0|0,3:0|0:0,0:0:0:0:
126,197,33330,2,0,P|131:221|135:247,2,50.9999984436036,2|0|0,1:2|0:0|0:0,0:0:0:0:
75,138,33907,1,0,0:0:0:0:
165,68,34100,6,0,P|216:76|266:83,1,101.999996887207,2|0,3:2|0:0,0:0:0:0:
511,45,34869,1,2,0:0:0:0:
494,104,35061,2,0,P|499:78|502:53,1,50.9999984436036,2|0,0:0|0:0,0:0:0:0:
396,79,35446,2,0,P|404:117|407:154,1,76.4999976654053,2|0,3:2|0:0,0:0:0:0:
403,162,35830,1,0,1:0:0:0:
267,167,36023,6,0,P|282:161|298:157,1,31.875,2|0,3:1|0:0,0:0:0:0:
309,156,36407,1,2,1:2:0:0:
440,307,36600,1,2,1:2:0:0:
465,240,36792,2,0,L|422:232,1,38.2499988327027,8|0,0:3|0:0,0:0:0:0:
362,220,37177,6,0,B|347:240|347:240|368:316|368:316|354:336,1,127.500004863739,4|0,3:1|0:0,0:0:0:0:
283,384,37753,1,0,0:0:0:0:
212,288,37946,2,0,L|275:302,1,63.7500024318696,0|0,1:0|0:0,0:0:0:0:
207,278,38330,1,0,0:0:0:0:
154,384,38523,2,0,L|91:370,1,63.7500024318696,0|0,1:0|0:0,0:0:0:0:
7,349,38907,1,0,0:0:0:0:
70,287,39100,2,0,P|78:256|84:224,1,63.7500024318696,0|0,3:0|0:0,0:0:0:0:
57,110,39484,6,0,P|69:139|96:156,1,56.6666688283285,2|0,1:2|0:0,0:0:0:0:
121,161,39741,2,0,P|148:140|178:136,1,56.6666688283285,2|0,0:0|0:0,0:0:0:0:
199,147,39997,1,2,0:0:0:0:
339,47,40253,6,0,P|319:71|287:84,1,63.7500024318696,2|0,3:2|0:0,0:0:0:0:
222,75,40542,2,0,P|200:48|171:31,1,63.7500024318696,2|0,0:0|0:0,0:0:0:0:
105,29,40830,1,2,0:0:0:0:
6,136,41023,6,0,B|30:158|30:158|120:129,1,127.500004863739,2|0,1:2|0:0,0:0:0:0:
141,265,41600,2,0,L|80:245,1,63.7500024318696,0|0,3:0|0:0,0:0:0:0:
151,260,41984,1,0,0:0:0:0:
74,352,42177,6,0,L|104:361,1,31.875,2|0,3:1|0:0,0:0:0:0:
114,368,42561,6,0,L|206:348,2,85.0000032424928,2|2|2,1:2|0:0|0:0,0:0:0:0:
235,278,43330,6,0,B|281:286|281:286|285:282|285:282|327:289,1,95.6250036478044,2|0,3:2|0:0,0:0:0:0:
339,292,43715,2,0,L|350:227,1,63.7500024318696,2|0,0:0|0:0,0:0:0:0:
446,109,44100,2,0,L|421:240,1,127.500004863739,0|0,1:0|0:0,0:0:0:0:
291,142,44677,2,0,L|353:153,1,63.7500024318696,0|0,1:0|0:0,0:0:0:0:
287,133,45061,1,0,0:0:0:0:
248,232,45253,2,0,P|202:245|156:259,1,95.6250036478044,0|0,3:0|0:0,0:0:0:0:
99,311,45638,2,0,P|134:251|103:196,1,127.500004863739,0|0,1:0|0:0,0:0:0:0:
13,53,46407,6,0,B|52:81|52:81|110:63,1,95.6250036478044,0|0,3:0|0:0,0:0:0:0:
163,34,46792,2,0,B|177:63|177:63|165:92,1,63.7500024318696,2|0,0:1|0:0,0:0:0:0:
291,188,47177,2,0,B|277:159|277:159|289:130,1,63.7500024318696,2|0,1:1|0:0,0:0:0:0:
334,39,47561,1,2,1:1:0:0:
373,154,47753,1,0,3:0:0:0:
208,221,47946,5,2,1:1:0:0:
335,325,48138,1,0,3:0:0:0:
198,225,48330,6,0,L|150:241,1,42.5,2|0,1:1|0:0,0:0:0:0:
158,239,49484,6,0,B|161:181|105:169|105:169|73:193,1,127.5,4|0,3:2|0:0,0:0:0:0:
26,243,49869,2,0,P|30:286|31:328,1,85,2|0,0:3|0:0,0:0:0:0:
235,260,50253,2,0,P|228:175|224:91,1,170,0|2,1:0|0:3,0:0:0:0:
16,33,50830,2,0,P|20:76|21:118,1,85,0|0,1:0|0:0,0:0:0:0:
8,26,51215,1,0,0:0:0:0:
95,128,51407,6,0,B|135:138|135:138|154:128|163:105,1,85,2|0,3:0|0:0,0:0:0:0:
281,48,51792,2,0,B|252:77|252:77|251:99|265:118,1,85,2|0,1:2|0:0,0:0:0:0:
257,249,52177,2,0,B|245:209|245:209|227:197|203:201|203:201|221:213|227:233,1,127.5,2|0,0:3|0:0,0:0:0:0:
238,319,52561,6,0,P|264:265|324:269,1,127.5,0|0,3:0|0:0,0:0:0:0:
399,291,52946,2,0,P|387:332|378:374,1,85,2|0,0:3|0:0,0:0:0:0:
507,153,53330,2,0,B|519:189|493:224|455:221|455:221|433:200|396:204,1,127.5,0|0,1:0|0:0,0:0:0:0:
423,208,53715,1,2,0:3:0:0:
305,69,53907,1,0,1:0:0:0:
352,142,54100,6,0,P|392:128|431:111,1,85,2|0,0:0|0:0,0:0:0:0:
333,237,54484,2,0,P|293:220|253:206,1,85,2|0,3:0|0:0,0:0:0:0:
85,297,54869,2,0,B|122:332|178:302|182:254|182:254|171:239|168:218,1,170,2|2,1:2|0:3,0:0:0:0:
36,19,55638,6,0,B|20:7|20:7|-10:35|10:87|54:83,1,127.5,0|0,3:0|0:0,0:0:0:0:
119,104,56023,2,0,P|157:87|199:81,1,85,2|0,0:3|0:0,0:0:0:0:
323,242,56407,2,0,B|275:253|244:215|264:205|234:158|185:168,1,170,0|2,1:0|0:3,0:0:0:0:
137,312,56984,2,0,B|167:305|181:272|181:272|178:237,1,85,0|0,1:0|0:0,0:0:0:0:
126,318,57369,1,8,0:0:0:0:
321,362,57561,6,0,B|301:341|305:315|305:315|312:328|329:338,1,85,2|0,3:0|0:0,0:0:0:0:
448,380,57946,2,0,B|472:365|476:340|476:340|466:350|442:357,1,85,2|0,1:2|0:0,0:0:0:0:
382,226,58330,2,0,B|378:254|397:272|397:272|402:226|437:192,1,127.5,2|0,0:3|0:0,0:0:0:0:
436,197,58715,5,0,3:0:0:0:
381,132,58907,2,0,P|338:127|296:120,1,85,8|2,0:0|0:3,0:0:0:0:
388,123,59292,1,0,3:0:0:0:
177,26,59484,2,0,P|184:67|189:110,1,85,4|0,1:2|0:0,0:0:0:0:
323,290,59869,2,0,P|315:248|310:205,1,85,2|0,1:2|3:0,0:0:0:0:
296,120,60253,1,2,0:0:0:0:
165,260,60446,1,0,1:0:0:0:
71,202,60638,6,0,L|140:187,1,63.75,8|0,0:3|0:0,0:0:0:0:
139,180,61023,1,2,1:2:0:0:
13,330,61215,1,0,1:0:0:0:
103,384,61407,6,0,L|97:355,1,25.5,4|0,0:3|0:0,0:0:0:0:
94,285,61792,6,0,B|84:336|132:354|132:354|161:341|183:313,1,127.5,4|0,3:1|0:0,0:0:0:0:
218,284,62177,2,0,P|215:241|213:199,1,85,2|0,0:3|0:0,0:0:0:0:
389,121,62561,2,0,B|392:175|327:198|291:168|291:168|282:144|259:128,1,170,0|2,1:0|0:3,0:0:0:0:
95,99,63138,2,0,P|135:112|176:120,1,85,0|0,1:0|0:0,0:0:0:0:
85,106,63523,1,8,0:0:0:0:
20,225,63715,2,0,P|60:211|101:203,1,85,2|0,3:0|0:0,0:0:0:0:
275,343,64100,2,0,B|265:390|201:382|163:325|237:252,1,170,0|2,1:0|0:3,0:0:0:0:
365,218,64677,1,2,0:0:0:0:
443,359,64869,6,0,B|419:320|444:273|464:289|482:238|471:198,1,170,0|2,3:2|0:3,0:0:0:0:
339,32,65638,2,0,P|375:54|420:42,1,85,0|0,1:0|0:0,0:0:0:0:
329,24,66023,1,2,0:3:0:0:
246,143,66215,1,0,1:0:0:0:
224,66,66407,6,0,B|206:47|185:41|185:41|166:52|143:56,1,85,2|0,0:0|0:0,0:0:0:0:
8,26,66792,2,0,B|32:31|49:47|49:47|46:70|57:91,1,85,2|0,3:0|0:0,0:0:0:0:
127,253,67177,2,0,B|170:224|167:168|122:146|122:146|112:161|91:167,1,170,2|2,1:2|0:3,0:0:0:0:
21,363,67946,6,0,P|81:354|146:342,1,127.5,0|0,3:0|0:0,0:0:0:0:
219,352,68330,2,0,P|224:309|234:268,1,85,2|0,0:3|0:0,0:0:0:0:
408,216,68715,2,0,B|420:214|432:211|432:211|410:266|326:238|337:172,1,170,0|2,1:0|0:3,0:0:0:0:
345,26,69292,2,0,P|387:19|428:11,1,85,0|0,1:0|0:0,0:0:0:0:
336,18,69677,1,0,0:0:0:0:
231,74,69869,6,0,B|216:66|203:55|203:55|221:75|231:99,1,85,2|0,3:0|0:0,0:0:0:0:
350,140,70253,2,0,B|363:131|379:125|379:125|352:131|327:127,1,85,2|0,1:2|0:0,0:0:0:0:
231,210,70638,2,0,B|232:225|228:242|228:242|237:217|253:196,1,84.7874965068628,2|0,0:3|0:0,0:0:0:0:
261,192,71023,5,0,3:0:0:0:
142,218,71215,2,0,P|97:214|58:203,1,85,8|2,0:0|0:3,0:0:0:0:
14,124,71600,1,0,3:0:0:0:
114,300,71792,2,0,P|124:341|132:382,1,85,0|0,1:0|0:0,0:0:0:0:
258,218,72177,1,0,1:0:0:0:
257,298,72369,1,8,0:3:0:0:
187,256,72561,1,4,0:3:0:0:
400,140,72753,5,0,1:0:0:0:
330,90,72946,2,0,P|322:131|315:173,1,85,0|0,1:0|0:0,0:0:0:0:
428,8,73330,1,0,1:0:0:0:
331,80,73523,1,8,0:3:0:0:
275,10,73715,1,8,0:3:0:0:
234,88,73907,2,0,P|205:83|176:76,1,42.5,4|0,0:3|0:0,0:0:0:0:
72,27,74100,6,0,B|78:-20|168:-28|214:59|110:163,1,255,6|0,3:2|0:0,0:0:0:0:
30,342,74869,2,0,P|63:315|104:304,1,85,0|0,1:0|0:0,0:0:0:0:
188,292,75253,1,2,0:3:0:0:
353,342,75446,2,0,B|351:365|324:381|324:381|284:368|274:338|274:338|287:312|287:271,1,170,2|0,1:2|0:0,0:0:0:0:
242,188,76023,2,0,P|282:201|324:209,1,85,2|0,3:0|0:0,0:0:0:0:
503,125,76407,2,0,B|465:90|406:110|397:152|397:152|414:173|419:208,1,170,0|2,1:0|0:3,0:0:0:0:
391,270,76984,1,2,0:0:0:0:
198,265,77177,6,0,P|206:201|216:138,1,127.5,2|0,3:2|0:0,0:0:0:0:
221,66,77561,2,0,P|260:80|302:87,1,85,2|0,0:3|0:0,0:0:0:0:
122,205,77946,2,0,B|90:156|21:191|21:191|34:210,1,127.5,0|0,1:0|0:0,0:0:0:0:
36,209,78330,1,2,0:3:0:0:
145,363,78523,2,0,P|186:356|228:346,1,85,2|0,1:2|0:0,0:0:0:0:
291,229,78907,1,0,0:0:0:0:
195,184,79100,2,0,P|201:225|211:267,1,85,2|0,3:0|0:0,0:0:0:0:
410,373,79484,2,0,B|459:324|409:264|409:264|365:269|348:305,1,170,0|2,1:0|0:3,0:0:0:0:
122,384,80253,6,0,B|80:330|125:262|179:290|221:225|188:166,1,255,2|0,3:2|0:0,0:0:0:0:
28,168,81023,2,0,P|66:185|106:199,1,85,0|0,1:0|0:0,0:0:0:0:
20,175,81407,1,2,0:3:0:0:
186,291,81600,2,0,P|267:268|346:237,1,170,0|8,1:0|0:0,0:0:0:0:
451,212,82177,2,0,P|438:252|431:294,1,85,2|0,3:0|0:0,0:0:0:0:
186,291,82561,2,0,P|212:210|231:127,1,170,0|2,1:0|0:3,0:0:0:0:
11,18,83330,6,0,B|-10:76|47:99|47:99|71:79|97:71,1,127.5,0|0,3:0|0:0,0:0:0:0:
78,83,83715,1,2,0:3:0:0:
109,168,83907,1,0,3:0:0:0:
223,38,84100,2,0,P|181:30|140:18,1,85,4|0,1:2|0:0,0:0:0:0:
307,190,84484,1,4,1:0:0:0:
213,121,84677,6,0,P|203:184|196:247,1,127.5,0|0,3:0|0:0,0:0:0:0:
188,253,85061,1,0,1:0:0:0:
305,333,85253,2,0,P|348:326|389:316,1,85,8|0,0:3|0:0,0:0:0:0:
485,178,85638,1,0,1:0:0:0:
398,99,85830,1,8,0:3:0:0:
336,162,86023,1,8,0:3:0:0:
402,111,86215,2,0,P|410:88|417:61,1,42.5,4|0,0:3|0:0,0:0:0:0:
512,0,86407,6,0,B|539:46|484:105|401:70|427:24|373:-2|322:28,1,255,4|0,3:1|0:0,0:0:0:0:
332,194,87177,2,0,P|353:157|359:115,1,85,0|0,1:0|0:0,0:0:0:0:
312,26,87561,1,2,3:0:0:0:
163,88,87753,2,0,B|115:100|80:73|98:58|51:28|8:54,1,170,2|8,1:2|0:0,0:0:0:0:
15,208,88330,2,0,P|26:167|35:125,1,85,2|0,3:0|0:0,0:0:0:0:
215,16,88715,2,0,P|192:97|172:180,1,170,0|2,1:0|0:3,0:0:0:0:
143,301,89292,1,2,0:0:0:0:
379,362,89484,6,0,B|398:301|348:267|348:267|316:280,1,127.5,2|0,3:2|0:0,0:0:0:0:
262,302,89869,2,0,P|273:352|281:387,1,85,2|0,0:3|0:0,0:0:0:0:
429,233,90253,2,0,P|413:171|400:108,1,127.5,2|0,1:2|0:0,0:0:0:0:
407,101,90637,1,2,0:3:0:0:
251,131,90830,2,0,P|209:124|167:114,1,85,2|0,1:2|0:0,0:0:0:0:
259,125,91214,1,0,0:0:0:0:
172,238,91407,2,0,P|213:228|255:221,1,85,2|0,3:0|0:0,0:0:0:0:
28,154,91791,2,0,B|47:140|73:143|73:143|111:207|55:251,1,170,0|2,1:0|0:3,0:0:0:0:
321,300,92560,6,0,B|348:238|301:177|250:209|199:145|236:89,1,255,2|0,3:2|0:0,0:0:0:0:
402,11,93330,2,0,P|440:28|480:42,1,85,0|0,1:0|0:0,0:0:0:0:
392,6,93714,1,2,0:3:0:0:
478,171,93907,2,0,P|399:139|317:117,1,170,0|0,1:0|0:0,0:0:0:0:
158,141,94484,2,0,B|133:105|133:105|147:54,1,85,2|0,3:0|0:0,0:0:0:0:
273,211,94869,2,0,P|191:233|112:264,1,170,0|2,1:0|0:3,0:0:0:0:
89,359,95446,1,0,0:0:0:0:
64,183,95637,6,0,B|52:143|20:140|-46:188|26:263,1,170,0|2,3:0|0:3,0:0:0:0:
112,265,96214,1,0,3:0:0:0:
261,134,96407,2,0,P|256:92|250:50,1,85,4|0,1:2|0:0,0:0:0:0:
282,234,96791,1,4,1:0:0:0:
418,155,96984,1,8,0:3:0:0:
471,233,97177,5,0,3:0:0:0:
370,303,97368,1,0,1:0:0:0:
480,240,97561,2,0,P|486:197|491:155,1,85,0|0,1:0|0:0,0:0:0:0:
384,31,97946,1,0,1:0:0:0:
282,156,98137,1,0,1:0:0:0:
181,77,98330,6,0,L|213:71,1,31.875,4|0,0:3|0:0,0:0:0:0:
284,58,98715,5,4,3:1:0:0:
459,95,104484,5,0,1:0:0:0:
406,164,104677,1,0,3:0:0:0:
470,236,104869,5,2,3:2:0:0:
391,248,105061,2,0,P|349:240|307:230,1,85,2|0,0:0|0:0,0:0:0:0:
145,186,105638,1,2,1:2:0:0:
190,277,105830,2,0,P|209:269|230:264,1,42.5,2|0,0:0|0:0,0:0:0:0:
262,171,106215,2,0,P|242:178|221:183,1,42.5,2|0,3:2|0:0,0:0:0:0:
357,176,106600,5,8,0:0:0:0:
362,176,106696,1,8,0:0:0:0:
368,176,106792,2,0,P|366:137|336:95,1,85,2|0,3:2|0:0,0:0:0:0:
327,13,107369,2,0,P|346:20|367:26,1,42.5,8|0,0:0|0:0,0:0:0:0:
316,18,107753,1,0,1:0:0:0:
236,91,107946,5,2,3:2:0:0:
189,25,108138,2,0,P|148:36|106:41,1,85,10|0,0:0|0:0,0:0:0:0:
0,0,108715,1,2,1:2:0:0:
29,86,108907,2,0,P|35:107|37:127,1,42.5,2|0,0:0|0:0,0:0:0:0:
107,174,109292,2,0,P|115:154|120:133,1,42.5,2|0,3:2|0:0,0:0:0:0:
182,201,109677,5,8,0:0:0:0:
178,210,109773,1,8,0:0:0:0:
174,219,109869,2,0,P|159:234|143:248,1,42.0749998715973,2|0,3:1|0:0,0:0:0:0:
8,377,110830,5,2,0:0:0:0:
4,371,110927,1,2,0:0:0:0:
0,366,111023,2,0,P|37:327|90:332,1,110.499994941712,4|0,3:1|0:0,0:0:0:0:
166,384,111600,1,0,0:0:0:0:
268,299,111792,2,0,P|266:271|264:243,1,55.2499974708558,2|0,1:2|0:0,0:0:0:0:
212,172,112177,1,0,0:0:0:0:
272,243,112369,2,0,P|274:271|276:299,1,55.2499974708558,2|0,3:2|0:0,0:0:0:0:
396,340,112753,5,8,0:0:0:0:
389,347,112850,1,8,0:0:0:0:
382,354,112946,2,0,P|383:326|385:298,1,55.2499974708558,0|0,3:0|0:0,0:0:0:0:
481,171,113330,2,0,P|453:217|400:217,1,110.499994941712,2|0,1:2|0:0,0:0:0:0:
343,149,113907,1,2,0:0:0:0:
228,216,114100,6,0,P|173:211|119:203,1,110.499994941712,0|0,3:0|0:0,0:0:0:0:
31,162,114677,1,0,0:0:0:0:
78,288,114869,2,0,P|83:315|87:342,1,55.2499974708558,2|0,1:2|0:0,0:0:0:0:
69,283,115253,1,2,0:0:0:0:
181,314,115446,6,0,P|209:311|236:304,1,55.2499974708558,2|0,3:2|0:0,0:0:0:0:
319,243,115830,1,8,0:0:0:0:
323,239,115927,1,8,0:0:0:0:
327,235,116023,2,0,P|324:207|319:180,1,55.2499974708558,0|0,3:0|0:0,0:0:0:0:
220,39,116407,2,0,P|258:76|312:73,1,110.499994941712,2|0,1:2|0:0,0:0:0:0:
386,20,116984,1,8,0:0:0:0:
512,92,117177,6,0,B|484:79|457:76|457:76|436:103|394:110,1,110.499994941712,2|0,3:2|0:0,0:0:0:0:
335,164,117753,1,2,0:2:0:0:
417,288,117946,2,0,P|443:277|470:271,1,55.2499974708558,0|2,1:0|0:0,0:0:0:0:
406,285,118330,1,0,0:0:0:0:
330,345,118523,6,0,P|300:341|275:334,1,55.2499974708558,2|0,3:2|0:0,0:0:0:0:
184,246,118907,1,8,0:0:0:0:
189,251,119003,1,8,0:0:0:0:
194,256,119100,2,0,P|223:252|248:245,1,55.2499974708558,0|0,3:0|0:0,0:0:0:0:
90,217,119484,2,0,P|98:271|111:325,1,110.499994941712,0|0,1:0|0:0,0:0:0:0:
111,325,120061,1,8,0:0:0:0:
16,264,120253,5,2,3:2:0:0:
83,211,120446,2,0,P|88:183|92:156,2,55.2499974708558,10|0|0,0:0|0:0|0:0,0:0:0:0:
40,84,121023,1,2,1:2:0:0:
124,45,121215,2,0,P|151:39|178:34,1,55.2499974708558,2|0,0:2|0:0,0:0:0:0:
227,130,121600,2,0,P|199:124|172:119,1,55.2499974708558,2|0,3:2|0:0,0:0:0:0:
289,59,121984,5,8,0:0:0:0:
292,55,122080,1,8,0:0:0:0:
296,51,122177,2,0,P|336:44|377:35,1,82.8749962062838,2|0,3:2|0:0,0:0:0:0:
386,34,122561,1,0,1:0:0:0:
305,207,122753,1,0,1:0:0:0:
409,145,122946,6,0,L|373:138,1,31.875,2|0,0:1|0:0,0:0:0:0:
421,143,123330,5,0,3:0:0:0:
458,230,123523,2,0,P|485:225|512:220,2,55.2499974708558,8|0|0,0:0|0:0|0:0,0:0:0:0:
376,356,124100,2,0,P|368:329|363:302,1,55.2499974708558,2|0,1:2|0:0,0:0:0:0:
348,206,124484,1,0,0:0:0:0:
355,304,124677,2,0,P|359:331|367:357,1,55.2499974708558,2|0,3:2|0:0,0:0:0:0:
256,333,125061,1,8,0:0:0:0:
250,330,125157,1,8,0:0:0:0:
245,327,125253,2,0,P|240:299|237:272,1,55.2499974708558,0|0,3:0|0:0,0:0:0:0:
168,121,125638,2,0,P|117:143|64:156,1,110.499994941712,2|0,1:2|0:0,0:0:0:0:
99,62,126215,1,2,0:2:0:0:
175,110,126407,5,0,3:0:0:0:
243,64,126600,2,0,P|246:36|250:9,2,55.2499974708558,8|0|0,0:0|0:0|0:0,0:0:0:0:
389,142,127177,2,0,P|370:106|331:92,1,82.8749962062838,2|0,1:2|0:0,0:0:0:0:
327,95,127561,1,2,0:2:0:0:
223,168,127753,2,0,P|227:195|230:222,1,55.2499974708558,2|0,3:2|0:0,0:0:0:0:
322,261,128138,1,8,0:0:0:0:
326,263,128234,1,8,0:0:0:0:
330,265,128330,2,0,P|333:237|337:210,1,55.2499974708558,0|0,3:0|0:0,0:0:0:0:
187,308,128715,2,0,P|240:322|291:343,1,110.499994941712,2|0,1:2|0:0,0:0:0:0:
290,344,129292,1,2,0:2:0:0:
141,368,129484,5,0,3:0:0:0:
111,302,129677,1,10,0:0:0:0:
228,245,129869,1,2,0:0:0:0:
187,308,130062,1,2,0:0:0:0:
79,233,130253,2,0,P|77:191|73:150,1,82.8749962062838,2|0,1:2|0:0,0:0:0:0:
67,144,130638,1,2,0:0:0:0:
196,149,130830,6,0,P|224:144|250:137,1,55.2499974708558,0|0,3:0|0:0,0:0:0:0:
343,229,131215,1,8,0:0:0:0:
341,234,131311,1,8,0:0:0:0:
339,239,131407,2,0,P|311:234|285:227,1,55.2499974708558,0|0,3:0|0:0,0:0:0:0:
303,64,131792,2,0,P|356:77|410:87,1,110.499994941712,2|0,1:2|0:0,0:0:0:0:
479,35,132369,1,8,0:0:0:0:
512,202,132561,5,2,3:2:0:0:
429,169,132753,2,0,P|401:172|374:177,2,55.2499974708558,10|0|0,0:2|0:0|0:0,0:0:0:0:
512,298,133330,1,2,1:2:0:0:
443,353,133523,2,0,P|416:346|388:343,1,55.2499974708558,2|0,0:2|0:0,0:0:0:0:
285,268,133907,2,0,P|312:264|339:258,1,55.2499974708558,2|0,3:2|0:0,0:0:0:0:
173,383,134292,1,0,1:0:0:0:
103,324,134484,6,0,L|97:289,1,31.875,2|0,3:1|0:0,0:0:0:0:
91,285,134869,1,2,1:2:0:0:
272,354,135061,1,2,1:2:0:0:
254,191,135253,2,0,L|223:198,1,31.875,8|0,0:3|0:0,0:0:0:0:
154,217,135638,6,0,B|127:177|127:177|140:131,1,95.6250036478044,4|0,3:1|0:0,0:0:0:0:
144,123,136023,1,8,0:3:0:0:
207,71,136215,2,0,L|269:86,1,63.7500024318696,4|0,0:3|0:0,0:0:0:0:
315,16,136600,2,0,L|253:1,1,63.7500024318696,0|0,3:0|0:0,0:0:0:0:
352,132,136984,2,0,B|361:99|361:99|422:82,1,95.6250036478044,0|0,1:0|0:0,0:0:0:0:
431,80,137369,1,8,0:3:0:0:
453,199,137561,2,0,B|410:211|410:211|407:215|407:215|360:229,1,95.6250036478044,8|0,0:3|0:0,0:0:0:0:
355,231,137946,5,2,1:2:0:0:
330,334,138138,2,0,B|376:320|376:320|416:345,1,95.6250036478044,2|0,3:2|0:0,0:0:0:0:
424,352,138523,1,4,0:3:0:0:
245,384,138715,6,0,L|221:284,1,95.6250036478044,2|0,3:2|0:0,0:0:0:0:
219,282,139100,1,8,0:3:0:0:
123,309,139292,1,4,0:3:0:0:
71,224,139484,1,2,0:2:0:0:
153,164,139677,2,0,L|226:181,1,63.7500024318696,0|0,3:0|0:0,0:0:0:0:
149,24,140061,2,0,B|105:33|105:33|99:38|99:38|56:48,1,95.6250036478044,0|0,1:0|0:0,0:0:0:0:
51,44,140446,1,8,0:3:0:0:
0,151,140638,2,0,L|70:133,1,63.7500024318696,8|0,0:3|0:0,0:0:0:0:
266,101,141023,5,2,1:2:0:0:
215,178,141215,1,2,3:2:0:0:
294,222,141407,1,4,0:3:0:0:
251,283,141600,1,4,0:3:0:0:
312,327,141792,6,0,B|359:338|359:338|399:308,1,95.6250036478044,2|0,3:2|0:0,0:0:0:0:
396,301,142177,1,8,0:3:0:0:
387,159,142369,2,0,L|374:226,1,63.7500024318696,4|0,0:3|0:0,0:0:0:0:
467,250,142753,2,0,L|479:187,1,63.7500024318696,0|0,3:0|0:0,0:0:0:0:
510,6,143138,2,0,B|501:29|501:29|431:43,1,95.6250036478044,0|0,1:0|0:0,0:0:0:0:
422,39,143523,1,8,0:3:0:0:
325,100,143715,2,0,L|227:78,1,95.6250036478044,8|0,0:3|0:0,0:0:0:0:
224,71,144100,1,0,1:0:0:0:
181,191,144292,2,0,L|245:174,1,63.7500024318696,0|0,3:0|0:0,0:0:0:0:
169,187,144677,1,4,0:3:0:0:
236,265,144869,5,0,3:0:0:0:
108,330,145061,2,0,L|100:266,1,63.7500024318696,0|2,1:0|0:1,0:0:0:0:
87,184,145446,1,0,3:0:0:0:
236,265,145638,2,0,L|228:329,1,63.7500024318696,2|0,1:1|0:0,0:0:0:0:
169,187,146023,2,0,L|176:121,1,63.7500024318696,2|0,0:3|3:0,0:0:0:0:
0,50,146407,6,0,P|34:114|119:89,1,159.375,2|0,1:1|0:0,0:0:0:0:
163,54,146792,6,0,L|171:9,1,42.5,2|0,1:1|0:0,0:0:0:0:
171,12,147946,6,0,P|176:76|184:139,1,127.5,4|0,3:2|0:0,0:0:0:0:
208,211,148330,2,0,P|245:191|286:180,1,85,2|0,0:3|0:0,0:0:0:0:
450,308,148715,2,0,B|399:340|345:304|353:254|353:254|365:242|384:204,1,170,0|2,1:0|0:3,0:0:0:0:
499,164,149292,2,0,P|458:153|420:132,1,85,0|0,1:0|0:0,0:0:0:0:
508,157,149677,1,8,0:0:0:0:
365,74,149869,6,0,B|350:90|342:110|342:110|322:101|301:100,1,85,2|0,3:0|0:0,0:0:0:0:
154,100,150253,2,0,B|175:104|196:101|196:101|198:123|208:142,1,85,2|0,1:2|0:0,0:0:0:0:
283,270,150638,2,0,B|275:250|266:238|266:238|280:219|291:201|291:201|280:220|247:227,1,127.5,2|0,0:3|0:0,0:0:0:0:
213,292,151023,6,0,P|275:303|339:307,1,127.5,0|0,3:0|0:0,0:0:0:0:
415,302,151408,2,0,P|403:343|394:385,1,85,2|0,0:3|0:0,0:0:0:0:
161,350,151792,2,0,P|173:287|180:224,1,127.5,0|0,1:0|0:0,0:0:0:0:
174,214,152177,1,2,0:3:0:0:
0,227,152369,1,0,1:0:0:0:
36,105,152562,6,0,B|60:122|83:125|83:125|96:112|109:105,1,85,2|8,0:2|0:0,0:0:0:0:
268,108,152946,2,0,B|244:125|221:128|221:128|207:115|194:108,1,85,2|0,3:0|0:0,0:0:0:0:
96,268,153330,2,0,B|127:291|127:291|174:270|186:219|152:184,1,170,2|2,1:2|0:3,0:0:0:0:
30,10,154100,6,0,P|92:24|155:33,1,127.5,0|0,3:0|0:0,0:0:0:0:
230,44,154485,2,0,P|270:31|312:23,1,85,2|0,0:3|0:0,0:0:0:0:
422,152,154869,2,0,B|437:188|376:201|345:156|367:112|367:112|384:102|393:87,1,170,0|2,1:0|0:3,0:0:0:0:
500,0,155446,2,0,B|479:12|474:38|474:38|487:58|489:88,1,85,0|0,1:0|0:0,0:0:0:0:
482,231,155831,1,8,0:0:0:0:
361,165,156023,6,0,B|422:150|422:150|408:159|398:171,1,85,2|0,3:0|0:0,0:0:0:0:
329,292,156407,2,0,B|310:352|310:352|309:336|304:321,1,85,2|0,1:2|0:0,0:0:0:0:
234,200,156792,2,0,B|190:154|190:154|205:161|220:163,1,85,2|8,0:3|0:0,0:0:0:0:
309,220,157177,5,0,3:0:0:0:
199,305,157369,2,0,P|156:300|114:293,1,85,8|2,0:0|0:3,0:0:0:0:
207,311,157754,1,0,3:0:0:0:
42,238,157946,2,0,P|35:193|54:153,1,85,4|0,1:2|0:0,0:0:0:0:
182,22,158330,1,2,1:2:0:0:
203,105,158523,2,0,P|161:100|119:92,1,85,0|2,3:0|0:2,0:0:0:0:
341,219,158908,1,0,1:0:0:0:
374,123,159100,6,0,P|342:128|311:137,1,63.75,8|0,0:3|0:0,0:0:0:0:
306,142,159485,1,2,1:2:0:0:
429,232,159677,1,0,1:0:0:0:
395,328,159869,6,0,L|389:299,1,25.5,4|0,0:3|0:0,0:0:0:0:
420,241,160253,6,0,P|375:290|302:294,1,127.5,4|0,3:1|0:0,0:0:0:0:
256,264,160639,2,0,P|236:222|239:175,1,85,2|0,0:3|0:0,0:0:0:0:
441,107,161023,2,0,P|499:66|436:32,1,170,0|2,1:0|0:3,0:0:0:0:
341,154,161600,2,0,P|361:116|355:70,1,85,0|0,1:0|0:0,0:0:0:0:
218,31,161985,1,8,0:0:0:0:
193,116,162177,2,0,P|235:117|273:98,1,85,2|0,3:0|0:0,0:0:0:0:
63,0,162561,2,0,B|42:44|68:88|92:71|109:109|91:156,1,170,0|2,1:0|0:3,0:0:0:0:
32,228,163139,1,2,0:0:0:0:
186,278,163330,6,0,B|180:257|145:257|145:257|109:291|122:344|158:358,1,170,0|2,3:0|0:3,0:0:0:0:
497,173,164100,2,0,P|488:214|485:257,1,85,0|0,1:0|0:0,0:0:0:0:
491,165,164485,1,2,0:3:0:0:
373,260,164677,1,0,1:0:0:0:
509,360,164869,6,0,P|468:346|427:336,1,85,2|0,0:2|0:0,0:0:0:0:
276,384,165253,2,0,B|319:362|319:362|316:338|320:310,1,85,2|0,3:0|0:0,0:0:0:0:
234,151,165639,2,0,B|191:180|194:236|239:258|239:258|251:243|271:230,1,170,2|2,1:2|0:3,0:0:0:0:
512,85,166408,6,0,P|468:128|409:113,1,127.5,0|0,3:0|0:0,0:0:0:0:
344,83,166792,2,0,P|351:40|359:-1,1,85,2|0,0:3|0:0,0:0:0:0:
425,212,167177,2,0,P|342:190|258:177,1,170,0|2,1:0|0:3,0:0:0:0:
143,77,167753,2,0,P|184:84|227:87,1,85,0|0,1:0|0:0,0:0:0:0:
131,70,168139,1,8,0:0:0:0:
107,266,168330,6,0,B|80:297|80:297|63:253,1,85,2|0,3:0|2:0,2:2:0:0:
150,152,168715,2,0,B|190:159|190:159|161:195,1,85,2|0,1:2|2:0,2:2:0:0:
31,171,169100,2,0,B|16:131|16:131|63:139,1,84.7874965068628,2|0,0:3|2:0,2:2:0:0:
68,144,169485,5,0,3:0:0:0:
198,272,169677,2,0,P|245:264|282:257,1,85,8|2,0:0|0:3,0:0:0:0:
411,222,170062,1,0,3:0:0:0:
342,58,170254,2,0,P|332:99|324:140,1,85,0|0,1:0|0:0,0:0:0:0:
512,0,170639,1,0,1:0:0:0:
448,79,170831,1,8,0:3:0:0:
410,7,171023,1,4,0:3:0:0:
324,141,171215,5,0,1:0:0:0:
411,222,171407,2,0,P|453:218|495:210,1,85,0|0,1:0|0:0,0:0:0:0:
306,58,171792,1,0,1:0:0:0:
154,205,171985,1,8,0:3:0:0:
241,223,172177,1,8,0:3:0:0:
239,114,172369,2,0,P|209:114|175:127,1,42.5,4|0,0:3|0:0,0:0:0:0:
74,192,172561,6,0,B|136:202|175:154|151:142|175:93|238:107|238:107|209:127|208:150,1,255,6|0,3:2|0:0,0:0:0:0:
376,211,173330,2,0,P|339:190|299:179,1,85,0|0,1:0|0:0,0:0:0:0:
389,204,173715,1,2,0:3:0:0:
476,368,173907,2,0,B|512:349|507:279|451:270|451:270|436:283|413:290,1,170,2|0,1:2|0:0,0:0:0:0:
315,331,174485,2,0,P|269:332|232:309,1,85,2|0,3:0|0:0,0:0:0:0:
321,97,174869,2,0,B|339:139|309:177|292:166|269:207|290:253,1,170,0|2,1:0|0:3,0:0:0:0:
369,226,175446,1,10,0:0:0:0:
212,167,175639,6,0,P|148:175|85:185,1,127.5,2|0,3:2|0:0,0:0:0:0:
15,206,176023,2,0,P|1:245|27:291,1,85,2|0,0:3|2:0,2:2:0:0:
275,273,176407,2,0,P|307:219|291:159,1,127.5,0|0,1:0|0:0,0:0:0:0:
282,157,176792,1,2,0:3:0:0:
127,61,176985,2,0,P|135:104|141:146,1,85,2|0,1:2|0:0,0:0:0:0:
118,56,177369,1,8,0:0:0:0:
242,79,177562,2,0,P|283:73|325:63,1,85,2|0,3:0|0:0,0:0:0:0:
492,9,177946,2,0,B|475:-8|448:-8|448:-8|398:51|447:100,1,170,0|2,1:0|0:3,0:0:0:0:
271,384,178715,6,0,B|239:323|295:264|343:301|396:244|374:182,1,255,2|0,3:2|0:0,0:0:0:0:
197,177,179485,2,0,P|240:190|287:196,1,85,0|0,1:0|0:0,0:0:0:0:
186,181,179869,1,2,0:3:0:0:
169,384,180062,2,0,P|86:357|-4:342,1,170,0|8,1:0|0:0,0:0:0:0:
85,259,180639,2,0,P|98:219|105:177,1,85,2|0,3:0|0:0,0:0:0:0:
6,2,181023,2,0,B|-19:51|12:96|61:103|61:103|76:94|91:91,1,170,0|2,1:0|0:3,0:0:0:0:
432,256,181792,6,0,B|408:268|408:268|353:238|374:182,1,127.5,0|0,3:0|0:0,0:0:0:0:
382,181,182177,1,2,0:3:0:0:
477,192,182369,1,0,3:0:0:0:
356,344,182562,2,0,P|314:336|268:329,1,85,4|0,1:2|0:0,0:0:0:0:
108,167,182946,1,4,1:0:0:0:
211,239,183139,6,0,B|199:179|199:179|202:173|202:173|193:113,1,127.5,0|0,3:0|0:0,0:0:0:0:
183,111,183523,1,0,1:0:0:0:
289,131,183715,2,0,P|332:124|373:114,1,85,8|0,0:3|0:0,0:0:0:0:
164,29,184100,1,0,1:0:0:0:
96,83,184292,1,8,0:3:0:0:
62,8,184485,1,8,0:3:0:0:
183,111,184677,2,0,P|177:131|170:151,1,42.5,4|0,0:3|0:0,0:0:0:0:
14,251,184869,6,0,B|-13:205|42:146|121:191|97:226|154:258|213:220,1,255,4|0,3:1|0:0,0:0:0:0:
307,137,185639,2,0,P|286:174|291:217,1,85,0|0,1:0|0:0,0:0:0:0:
301,124,186023,1,2,3:0:0:0:
369,298,186215,2,0,B|413:316|447:262|422:202|370:190,1,170,2|8,1:2|0:0,0:0:0:0:
264,301,186792,2,0,P|222:316|179:318,1,85,2|0,3:0|0:0,0:0:0:0:
103,128,187177,2,0,P|180:131|200:214,1,170,0|2,1:0|0:3,0:0:0:0:
107,252,187754,1,10,0:2:0:0:
14,200,187946,6,0,P|11:136|7:72,1,127.5,0|0,3:0|0:0,0:0:0:0:
2,0,188331,2,0,P|41:14|82:25,1,85,2|0,0:3|0:0,0:0:0:0:
302,79,188715,2,0,B|309:21|244:13|244:13|235:60,1,127.5,2|0,1:2|0:0,0:0:0:0:
241,51,189099,1,2,0:3:0:0:
366,162,189292,2,0,P|408:155|450:145,1,85,2|0,1:2|0:0,0:0:0:0:
356,159,189676,1,0,0:0:0:0:
394,280,189869,2,0,P|352:269|310:262,1,85,2|0,3:0|0:0,0:0:0:0:
493,384,190253,2,0,B|540:331|492:275|492:275|496:304|477:329,1,170,0|2,1:0|0:3,0:0:0:0:
190,69,191022,6,0,B|163:129|225:183|269:143|326:195|310:261,1,255,2|0,3:2|0:0,0:0:0:0:
137,266,191792,2,0,P|178:257|220:253,1,85,0|0,1:0|0:0,0:0:0:0:
129,260,192176,1,2,0:3:0:0:
338,184,192369,2,0,P|254:166|173:140,1,170,0|8,1:0|0:0,0:0:0:0:
73,18,192946,2,0,P|80:59|85:101,1,85,2|0,3:0|0:0,0:0:0:0:
23,294,193330,2,0,B|-12:259|-5:212|31:185|31:185|49:196|78:198,1,170,0|2,1:0|0:3,0:0:0:0:
73,197,193908,1,0,0:0:0:0:
168,374,194100,5,0,3:0:0:0:
199,272,194292,2,0,P|158:284|117:294,1,85,8|2,0:0|0:3,0:0:0:0:
204,265,194676,1,0,3:0:0:0:
363,384,194869,2,0,P|372:321|379:257,1,127.5,4|0,1:2|0:0,0:0:0:0:
374,249,195253,1,2,1:2:0:0:
505,171,195446,1,0,1:0:0:0:
414,85,195639,5,0,3:0:0:0:
294,210,195830,1,0,1:0:0:0:
217,167,196023,1,8,0:3:0:0:
288,88,196215,1,4,0:3:0:0:
291,104,196311,1,4,0:3:0:0:
294,120,196407,1,8,0:3:0:0:
206,68,196599,1,0,1:0:0:0:
348,19,196792,1,4,0:3:0:0:
391,151,196984,5,4,0:3:0:0:
393,143,197080,1,4,0:3:0:0:
396,134,197177,2,0,B|428:106|481:130|492:209|412:237|365:224|363:181|326:170|293:192|293:192|334:196|347:234,1,327.250009986878,4|0,3:1|0:0,0:0:0:0:
375,282,197946,2,0,P|373:328|340:360,1,93.5000028533936,0|0,1:0|0:0,0:0:0:0:
246,379,198330,1,0,0:0:0:0:
194,267,198523,2,0,P|238:281|284:290,1,93.5000028533936,0|0,1:0|0:0,0:0:0:0:
185,258,198907,1,8,0:0:0:0:
111,353,199100,2,0,P|66:338|20:329,1,93.5000028533936,0|0,3:0|0:0,0:0:0:0:
129,137,199484,2,0,B|130:104|63:76|19:180|102:223,1,187.000005706787,0|0,1:0|0:0,0:0:0:0:
238,168,200061,5,2,0:0:0:0:
241,162,200157,1,2,0:0:0:0:
245,156,200253,1,6,3:2:0:0:
304,93,200446,2,0,P|348:79|394:72,1,93.5000028533936,0|0,1:0|0:0,0:0:0:0:
263,2,200830,1,8,0:0:0:0:
261,6,200927,1,8,0:0:0:0:
259,10,201023,2,0,P|214:23|168:30,1,93.5000028533936,0|0,1:0|0:0,0:0:0:0:
82,0,201407,1,0,0:0:0:0:
3,137,201600,6,0,P|47:121|92:110,1,93.5000028533936,0|0,1:0|0:0,0:0:0:0:
0,149,201984,1,8,0:0:0:0:
169,237,202177,2,0,P|124:221|79:210,1,93.5000028533936,0|0,3:0|0:0,0:0:0:0:
262,327,202561,2,0,P|300:270|294:202,1,140.25000428009,0|0,1:0|0:0,0:0:0:0:
263,144,202946,6,0,P|259:118|266:90,1,46.7500014266968,2|0,0:0|0:0,0:0:0:0:
253,91,203138,2,0,P|268:69|293:54,1,46.7500014266968,2|0,0:0|0:0,0:0:0:0:
454,123,203330,6,0,B|470:183|377:197|350:122|350:122|357:148|352:166,1,187.000005706787,4|0,3:1|0:0,0:0:0:0:
166,263,204100,2,0,B|160:219|102:216|50:283|142:350,1,187.000005706787,2|0,1:2|0:0,0:0:0:0:
233,173,204677,1,0,1:0:0:0:
259,361,204869,6,0,B|264:380|289:389|289:389|275:351|288:320|304:329|325:298|299:241,1,187.000005706787,6|8,3:2|0:0,0:0:0:0:
303,252,205446,1,0,3:0:0:0:
484,282,205638,1,0,1:0:0:0:
459,376,205830,2,0,P|412:372|366:365,1,93.5000028533936,0|2,3:0|0:0,0:0:0:0:
233,219,206215,1,0,1:0:0:0:
36,305,206407,6,0,B|25:362|144:372|148:267|85:224|46:259|-7:214|14:155|75:164|61:210,1,280.500008560181,4|0,3:1|3:0,0:0:0:0:
238,229,207177,2,0,P|191:224|145:216,1,93.5000028533936,0|0,1:0|0:0,0:0:0:0:
24,69,207561,1,0,1:0:0:0:
105,107,207753,2,0,P|175:98|244:87,1,140.25000428009,0|0,3:0|0:0,0:0:0:0:
249,78,208138,1,0,1:0:0:0:
367,119,208330,2,0,P|381:76|371:31,1,93.5000028533936,8|0,0:3|0:0,0:0:0:0:
267,193,208715,1,0,1:0:0:0:
410,274,208907,1,8,0:3:0:0:
291,349,209100,6,0,P|267:352|241:339,1,46.7500014266968,2|0,3:2|0:0,0:0:0:0:
257,277,209292,2,0,P|280:274|301:283,1,46.7500014266968,2|0,0:0|0:0,0:0:0:0:
425,384,209484,6,0,B|445:334|416:274|382:306|351:239|390:197|390:197|376:242|398:265,1,280.500008560181,4|0,3:1|0:0,0:0:0:0:
512,71,210253,2,0,B|515:127|460:143|460:143|441:123|411:114,1,140.25000428009,0|0,1:0|0:0,0:0:0:0:
414,118,210638,1,0,0:0:0:0:
233,160,210830,2,0,B|279:190|321:150|321:150|313:124|320:94,1,140.25000428009,0|0,1:0|0:0,0:0:0:0:
324,101,211215,1,8,0:0:0:0:
435,12,211407,6,0,P|415:27|392:34,1,46.7500014266968,2|0,3:2|0:0,0:0:0:0:
383,35,211600,2,0,P|363:20|340:13,1,46.7500014266968,2|0,0:2|0:0,0:0:0:0:
224,0,211792,2,0,P|236:45|243:91,1,93.5000028533936,2|0,1:2|0:0,0:0:0:0:
193,239,212177,5,2,0:0:0:0:
191,232,212273,1,2,0:0:0:0:
191,225,212369,2,0,P|215:213|239:209,1,46.7500014266968,2|0,0:0|0:0,0:0:0:0:
276,284,212561,6,0,B|319:241|293:178|189:177|136:271,1,233.750007133484,4|0,3:1|0:0,0:0:0:0:
150,266,213138,1,0,3:0:0:0:
333,368,213330,2,0,P|380:362|426:352,1,93.5000028533936,4|0,1:2|0:0,0:0:0:0:
326,378,213715,1,0,3:0:0:0:
481,282,213907,2,0,B|503:241|475:185|449:208|424:154|453:110,1,187.000005706787,0|0,1:0|0:0,0:0:0:0:
512,0,214484,2,0,P|481:33|435:30,1,93.5000028533936,0|0,3:0|0:0,0:0:0:0:
231,102,214869,2,0,B|256:59|311:70|311:70|334:83|354:90,1,140.25000428009,0|0,1:0|0:0,0:0:0:0:
365,89,215253,1,0,1:0:0:0:
227,217,215446,1,0,1:0:0:0:
176,23,215638,6,0,P|111:47|43:66,1,140.25000428009,4|0,3:1|0:0,0:0:0:0:
31,64,216023,1,0,1:0:0:0:
99,161,216215,2,0,P|142:143|187:132,1,93.5000028533936,8|0,0:3|0:0,0:0:0:0:
399,305,216600,1,0,1:0:0:0:
324,371,216792,2,0,P|315:324|313:278,1,93.5000028533936,8|0,0:3|0:0,0:0:0:0:
336,76,217177,5,0,1:0:0:0:
402,147,217369,1,8,0:3:0:0:
316,189,217561,1,4,0:3:0:0:
480,227,217753,1,0,1:0:0:0:
324,371,217946,5,0,1:0:0:0:
231,270,218138,1,8,0:3:0:0:
147,299,218330,1,8,0:3:0:0:
221,364,218523,5,4,0:3:0:0:
221,364,218619,1,4,0:3:0:0:
221,364,218715,1,4,3:1:0:0:
59,280,218907,1,0,1:0:0:0:
119,222,219100,2,0,P|129:176|138:130,1,93.5000028533936,8|0,0:3|0:0,0:0:0:0:
140,0,219484,1,0,1:0:0:0:
0,39,219677,2,0,P|43:55|89:66,1,93.5000028533936,8|0,0:3|0:0,0:0:0:0:
266,73,220061,1,0,1:0:0:0:
322,0,220253,5,4,0:3:0:0:
387,139,220446,1,0,1:0:0:0:
264,187,220638,1,0,1:0:0:0:
407,43,220830,1,0,1:0:0:0:
457,249,221023,5,0,1:0:0:0:
349,214,221215,1,0,1:0:0:0:
329,294,221407,1,8,0:3:0:0:
257,270,221600,1,4,0:3:0:0:
228,331,221792,5,2,0:0:0:0:
256,192,231023,12,0,232369,0:0:0:0:
259,122,232561,6,0,B|288:125|288:125|291:122|291:122|321:127,1,63.7500024318696,4|0,1:3|0:0,0:0:0:0:
472,223,232946,6,0,L|430:230,1,42.5,4|2,1:3|0:0,0:0:0:0:
430,230,234100,6,0,B|465:210|472:163|440:131|440:131|410:147,1,140.25000428009,4|0,3:2|0:0,0:0:0:0:
351,177,234484,2,0,P|344:219|337:275,1,93.5000028533936,2|0,0:3|0:0,0:0:0:0:
163,293,234869,2,0,P|177:200|189:107,1,187.000005706787,0|2,1:0|0:3,0:0:0:0:
36,32,235446,2,0,P|64:67|108:63,1,93.5000028533936,0|0,1:0|0:0,0:0:0:0:
187,17,235831,1,8,0:0:0:0:
305,77,236023,6,0,B|321:95|321:124|321:124|301:137|296:157,1,93.5000028533936,2|0,3:0|0:0,0:0:0:0:
228,290,236407,2,0,B|235:267|260:252|260:252|281:263|302:257,1,93.5000028533936,2|0,1:2|0:0,0:0:0:0:
452,250,236792,2,0,B|428:254|403:240|403:240|402:216|385:201|385:201|401:215|430:213,1,140.25000428009,2|0,0:3|0:0,0:0:0:0:
501,181,237177,6,0,P|487:249|480:319,1,140.25000428009,0|0,3:0|0:0,0:0:0:0:
429,376,237562,2,0,P|382:369|336:361,1,93.5000028533936,2|0,0:3|0:0,0:0:0:0:
169,200,237946,2,0,B|214:180|246:213|243:251|243:251|232:263|226:284,1,140.25000428009,0|0,1:0|0:0,0:0:0:0:
236,283,238331,1,2,0:3:0:0:
84,150,238523,1,0,1:0:0:0:
168,58,238715,6,0,P|213:66|260:72,1,93.5000028533936,2|8,0:2|0:0,0:0:0:0:
92,141,239100,2,0,P|46:132|0:126,1,93.5000028533936,2|0,3:0|0:0,0:0:0:0:
74,308,239485,2,0,B|88:336|113:344|113:344|141:327|172:288|139:230,1,187.000005706787,2|2,1:2|0:3,0:0:0:0:
0,34,240253,6,0,B|24:67|101:56|111:14|73:-1,1,140.25000428009,2|0,3:2|0:0,0:0:0:0:
63,76,240638,2,0,P|69:123|72:170,1,93.5000028533936,2|0,0:3|0:0,0:0:0:0:
272,139,241023,2,0,B|293:85|229:51|164:101|161:171,1,187.000005706787,0|2,1:0|0:3,0:0:0:0:
269,293,241600,2,0,P|315:300|361:305,1,93.5000028533936,0|0,1:0|0:0,0:0:0:0:
261,301,241984,1,8,0:0:0:0:
175,366,242177,6,0,B|149:347|148:303|148:303|139:317|118:333,1,93.5000028533936,2|0,3:0|0:0,0:0:0:0:
189,156,242561,2,0,B|185:188|147:210|147:210|167:210|188:221,1,93.5000028533936,2|0,1:2|2:0,2:2:0:0:
0,248,242946,2,0,B|29:234|68:256|68:256|58:239|57:215,1,93.5000028533936,2|8,0:3|0:0,0:0:0:0:
0,37,243330,6,0,B|-9:93|21:128|79:133|79:133|99:120|104:89,1,187.000005706787,0|2,3:0|0:3,0:0:0:0:
149,0,243908,1,0,3:0:0:0:
256,146,244100,2,0,P|301:136|346:124,1,93.5000028533936,4|0,1:2|0:0,0:0:0:0:
477,234,244485,1,4,1:0:0:0:
388,312,244677,6,0,P|379:266|372:219,1,93.5000028533936,0|2,3:0|0:2,0:0:0:0:
299,22,245062,1,0,1:0:0:0:
355,116,245253,1,8,0:3:0:0:
414,23,245446,1,4,0:3:0:0:
240,95,245638,2,0,P|228:140|221:186,1,93.5000028533936,6|0,1:2|0:0,0:0:0:0:
267,330,246023,1,4,0:3:0:0:
184,380,246215,1,4,0:3:0:0:
98,293,246407,6,0,B|84:255|105:224|114:232|139:203|121:161,1,140.25000428009,4|0,3:1|0:0,0:0:0:0:
91,102,246792,2,0,P|49:123|4:137,1,93.5000028533936,2|0,0:3|0:0,0:0:0:0:
185,277,247177,2,0,P|272:243|362:217,1,187.000005706787,0|2,1:0|0:3,0:0:0:0:
420,12,247753,2,0,P|404:55|408:102,1,93.5000028533936,0|0,1:0|0:0,0:0:0:0:
429,9,248139,1,8,0:0:0:0:
301,124,248331,2,0,P|255:115|210:102,1,93.5000028533936,2|0,3:0|0:0,0:0:0:0:
13,26,248716,2,0,B|23:-21|87:-13|132:47|49:125,1,187.000005706787,0|2,1:0|0:3,0:0:0:0:
3,183,249293,1,2,0:0:0:0:
47,322,249484,6,0,B|97:326|125:280|125:280|109:332|137:368,1,187.000005706787,0|2,3:0|0:3,0:0:0:0:
333,202,250253,2,0,B|302:168|256:178|233:210|233:210|238:220|241:233,1,140.25000428009,0|0,1:0|0:0,0:0:0:0:
239,241,250639,1,2,0:3:0:0:
403,285,250831,1,0,1:0:0:0:
468,209,251023,6,0,P|474:162|482:116,1,93.5000028533936,2|0,0:2|0:0,0:0:0:0:
390,22,251407,2,0,P|383:68|375:114,1,93.5000028533936,2|0,3:0|0:0,0:0:0:0:
160,140,251792,2,0,P|189:59|273:74,1,187.000005706787,2|2,1:2|0:3,0:0:0:0:
263,342,252562,6,0,P|196:320|127:307,1,140.25000428009,0|0,3:0|0:0,0:0:0:0:
55,302,252946,2,0,B|32:343|32:343|55:384,1,93.5000028533936,2|0,0:3|0:0,0:0:0:0:
268,333,253330,2,0,B|309:248|309:248|265:166,1,187.000005706787,0|2,1:0|0:3,0:0:0:0:
207,22,253908,2,0,P|247:38|305:49,1,93.5000028533936,0|0,1:0|0:0,0:0:0:0:
196,25,254293,1,8,0:0:0:0:
253,168,254484,6,0,B|194:204|159:151|209:159,1,93.5000028533936,2|0,3:0|0:0,0:0:0:0:
84,16,254869,2,0,B|144:49|116:105|98:58,1,93.5000028533936,2|0,1:2|0:0,0:0:0:0:
38,238,255253,2,0,B|36:168|99:165|67:204,1,93.0750025563813,2|0,0:3|0:0,0:0:0:0:
73,204,255639,5,0,3:0:0:0:
131,281,255831,2,0,P|172:274|224:261,1,93.5000028533936,8|2,0:0|0:3,0:0:0:0:
126,289,256216,1,0,3:0:0:0:
342,337,256408,2,0,P|336:293|324:240,1,93.5000028533936,0|0,1:0|0:0,0:0:0:0:
205,58,256793,5,4,1:0:0:0:
261,143,256985,1,8,0:3:0:0:
325,57,257177,1,4,0:3:0:0:
146,147,257369,5,0,1:0:0:0:
325,245,257561,1,0,1:0:0:0:
405,159,257753,5,8,0:3:0:0:
407,140,257850,1,8,0:3:0:0:
409,121,257946,1,8,0:3:0:0:
484,56,258139,1,8,0:3:0:0:
509,141,258331,1,4,0:3:0:0:
298,42,258523,5,4,0:3:0:0:
297,32,258620,1,4,0:3:0:0:
296,23,258715,2,0,B|291:-24|373:-55|418:53|343:103|305:75|287:132|317:165|317:165|323:146|340:127,1,293.2500055933,4|0,3:2|0:0,0:0:0:0:
500,232,259485,2,0,P|467:196|420:189,1,97.7500018644333,0|0,1:0|0:0,0:0:0:0:
329,262,259869,1,2,0:3:0:0:
137,144,260061,2,0,B|192:106|258:141|252:199|252:199|239:215|235:229,1,195.500003728867,2|0,1:2|0:0,0:0:0:0:
316,358,260638,2,0,P|323:310|329:262,1,97.7500018644333,2|0,3:0|0:0,0:0:0:0:
130,149,261023,2,0,P|119:246|105:342,1,195.500003728867,0|2,1:0|0:3,0:0:0:0:
104,342,261600,1,10,0:2:0:0:
0,169,261792,6,0,B|36:187|74:168|63:150|90:131|142:142,1,146.62500279665,4|0,3:2|0:0,0:0:0:0:
201,181,262177,2,0,P|240:195|283:164,1,97.7500018644333,2|0,0:3|0:0,0:0:0:0:
377,7,262561,2,0,B|313:13|319:81|319:81|336:87|350:103,1,146.62500279665,0|0,1:0|0:0,0:0:0:0:
351,112,262946,1,2,0:3:0:0:
433,260,263138,2,0,P|425:219|377:197,1,97.7500018644333,2|0,1:2|0:0,0:0:0:0:
296,262,263523,1,8,0:0:0:0:
395,355,263716,2,0,P|443:347|491:337,1,97.7500018644333,2|0,3:0|0:0,0:0:0:0:
237,334,264100,2,0,B|197:291|209:240|255:219|255:219|285:243|287:264,1,195.500003728867,0|2,1:0|0:3,0:0:0:0:
512,65,264869,6,0,B|442:23|363:75|403:130|328:178|261:140,1,293.2500055933,4|0,3:1|0:0,0:0:0:0:
197,9,265639,2,0,P|244:20|286:44,1,97.7500018644333,0|0,1:0|0:0,0:0:0:0:
190,0,266023,1,2,0:3:0:0:
37,169,266215,2,0,B|-22:148|19:73|90:85|135:147,1,195.500003728867,0|8,1:0|0:0,0:0:0:0:
229,231,266793,2,0,P|214:277|205:325,1,97.7500018644333,2|0,3:0|0:0,0:0:0:0:
462,371,267177,2,0,B|487:321|464:268|397:261|397:261|388:287|363:314,1,195.500003728867,0|2,1:0|0:3,0:0:0:0:
60,384,267946,6,0,P|79:288|95:191,1,195.500003728867,4|2,3:2|0:3,0:0:0:0:
62,86,268523,1,0,3:0:0:0:
211,199,268716,2,0,P|259:189|307:177,1,97.7500018644333,4|0,1:2|0:0,0:0:0:0:
401,0,269100,1,4,1:0:0:0:
422,179,269292,1,0,3:0:0:0:
279,74,269484,5,4,0:3:0:0:
298,52,269612,5,4,0:3:0:0:
341,51,269741,5,0,1:0:0:0:
380,104,269869,5,0,1:0:0:0:
407,108,269997,5,8,0:3:0:0:
422,98,270125,5,8,0:3:0:0:
435,65,270254,5,0,1:0:0:0:
346,194,270446,1,0,1:0:0:0:
493,239,270639,1,8,0:3:0:0:
390,285,270831,2,0,P|384:308|383:333,1,48.8750009322167,4|0,0:3|0:0,0:0:0:0:
459,380,271023,6,0,B|507:337|441:268|365:314|396:352|348:376|287:338|287:338|299:319|304:277,1,293.2500055933,4|0,3:1|0:0,0:0:0:0:
154,177,271793,2,0,P|199:194|247:203,1,97.7500018644333,4|0,1:2|0:0,0:0:0:0:
164,166,272177,1,2,3:0:0:0:
298,52,272369,2,0,P|204:77|107:90,1,195.500003728867,2|8,1:2|0:0,0:0:0:0:
0,90,272946,2,0,P|-9:38|23:-10,1,97.7500018644333,2|0,3:0|0:0,0:0:0:0:
170,202,273330,2,0,B|223:190|248:119|195:79|195:79|197:103|188:122,1,195.500003728867,4|2,1:2|0:3,0:0:0:0:
71,228,273908,1,10,0:2:0:0:
254,357,274100,6,0,P|321:330|393:314,1,146.62500279665,4|0,3:2|0:0,0:0:0:0:
448,380,274485,2,0,P|407:354|399:307,1,97.7500018644333,2|0,0:3|0:0,0:0:0:0:
471,74,274869,2,0,B|516:100|516:155|476:183|476:183|457:170,1,146.62500279665,0|0,1:0|0:0,0:0:0:0:
456,168,275253,1,2,0:3:0:0:
313,128,275446,2,0,P|264:135|217:148,1,97.7500018644333,2|0,1:2|0:0,0:0:0:0:
319,120,275830,1,0,0:0:0:0:
248,5,276023,2,0,P|294:18|343:25,1,97.7500018644333,2|0,3:0|0:0,0:0:0:0:
107,128,276407,2,0,B|68:81|56:7|165:-21|161:67,1,195.500003728867,4|2,1:2|0:3,0:0:0:0:
0,357,277177,6,0,B|73:382|138:322|88:274|157:209|239:238,1,293.2500055933,4|0,3:1|0:0,0:0:0:0:
313,375,277946,2,0,P|266:364|222:339,1,97.7500018644333,0|0,1:0|0:0,0:0:0:0:
323,365,278330,1,2,0:3:0:0:
116,296,278523,2,0,P|147:203|169:108,1,195.500003728867,0|8,1:0|0:0,0:0:0:0:
107,4,279100,2,0,P|82:25|56:91,1,97.7500018644333,2|0,3:0|0:0,0:0:0:0:
233,225,279484,1,4,1:2:0:0:
316,154,279677,1,8,0:3:0:0:
252,86,279869,1,8,0:3:0:0:
333,253,280062,1,0,1:0:0:0:
503,168,280253,5,4,3:2:0:0:
407,60,280446,2,0,P|411:108|417:157,1,97.7500018644333,8|2,0:0|0:3,0:0:0:0:
454,273,280830,1,0,3:0:0:0:
228,336,281023,2,0,P|183:315|137:300,1,97.7500018644333,4|0,1:2|0:0,0:0:0:0:
67,285,281311,1,0,1:0:0:0:
61,292,281407,1,0,1:0:0:0:
203,187,281600,1,8,0:3:0:0:
78,125,281793,5,4,3:1:0:0:
74,134,281888,1,8,0:3:0:0:
74,143,281984,1,0,1:0:0:0:
184,43,282177,1,0,1:0:0:0:
305,103,282369,5,0,1:0:0:0:
314,100,282465,1,0,1:0:0:0:
323,97,282562,1,4,3:2:0:0:
430,58,282753,1,4,1:3:0:0:
304,0,282946,1,4,1:3:0:0:
320,206,283138,1,4,1:3:0:0:
512,171,283330,6,0,P|450:155|386:147,1,127.5,4|0,3:1|0:0,0:0:0:0:
313,214,284100,1,2,0:0:0:0:
344,296,284292,2,0,L|389:305,1,42.5,2|0,0:0|0:0,0:0:0:0:
216,208,284677,2,0,L|132:191,1,85,2|0,0:0|0:0,0:0:0:0:
125,198,285253,6,0,L|208:214,1,85,2|0,0:0|0:0,0:0:0:0:
215,221,286407,5,2,0:0:0:0:
289,162,286600,2,0,L|304:122,2,42.5,2|0|0,0:0|0:0|0:0,0:0:0:0:
222,228,287177,1,2,0:0:0:0:
315,120,287369,2,0,L|300:160,1,42.5,2|0,0:0|0:0,0:0:0:0:
384,58,287754,2,0,P|350:32|308:29,1,85,2|0,0:0|0:0,0:0:0:0:
305,40,288330,2,0,P|330:37|352:47,1,42.5,2|0,0:0|0:0,0:0:0:0:
240,84,288715,1,0,0:0:0:0:
179,25,288907,1,2,0:3:0:0:
188,17,289292,1,2,0:3:0:0:
125,149,289484,5,2,3:1:0:0:
42,120,289677,2,0,P|21:116|0:109,2,42.5,2|0|0,0:0|0:0|0:0,0:0:0:0:
132,156,290254,1,2,0:0:0:0:
0,118,290446,2,0,P|20:124|41:128,1,42.5,2|0,0:0|0:0,0:0:0:0:
139,238,290830,2,0,P|100:226|55:220,1,85,2|0,0:0|0:0,0:0:0:0:
54,229,291407,6,0,P|96:234|137:247,1,85,2|0,0:0|0:0,0:0:0:0:
136,246,292561,5,2,0:0:0:0:
225,298,292754,2,0,L|233:348,2,42.5,2|0|0,0:0|0:0|0:0,0:0:0:0:
147,243,293330,1,2,0:0:0:0:
239,335,293523,2,0,L|233:294,1,42.5,2|0,0:0|0:0,0:0:0:0:
309,204,293907,2,0,L|322:287,1,85,2|0,0:0|0:0,0:0:0:0:
331,291,294484,6,0,L|317:207,1,84.1499997431946,2|0,0:0|0:0,0:0:0:0:
