osu file format v14

[General]
AudioFilename: audio.mp3
AudioLeadIn: 0
PreviewTime: 89863
Countdown: 0
SampleSet: Normal
StackLeniency: 0.4
Mode: 0
LetterboxInBreaks: 0
WidescreenStoryboard: 1

[Editor]
Bookmarks: 26387,50168,126265,214070,284314,323826
DistanceSpacing: 2.6
BeatDivisor: 4
GridSize: 32
TimelineZoom: 1.2

[Metadata]
Title:StarRingChild
TitleUnicode:StarRingChild
Artist:Aimer
ArtistUnicode:エメ
Creator:Akareh
Version:UC0096
Source:機動戦士ガンダム UC
Tags:Mobile Suit Gundam Unicorn RE: ユニコーン 澤野 弘之 Hiroyuki Sawano SawanoHiroyuki[nZk] _FlameL ED Ending anime japanese defstar records midnight sun
BeatmapID:2233823
BeatmapSetID:1065894

[Difficulty]
HPDrainRate:7
CircleSize:4
OverallDifficulty:7.5
ApproachRate:9
SliderMultiplier:1.8
SliderTickRate:1

[Events]
//Background and Video events
0,0,"bg.jpg",0,0
//Break Periods
//Storyboard Layer 0 (Background)
//Storyboard Layer 1 (Fail)
//Storyboard Layer 2 (Pass)
//Storyboard Layer 3 (Foreground)
//Storyboard Layer 4 (Overlay)
//Storyboard Sound Samples

[TimingPoints]
424,365.853658536585,4,2,2,20,1,0
424,-133.333333333333,4,2,2,30,0,0
17984,-333.333333333333,4,2,2,40,0,0
26308,-333.333333333333,4,2,2,5,0,0
26765,-133.333333333333,4,1,1,20,0,0
38472,-100,4,1,2,40,0,0
49631,-133.333333333333,4,1,1,20,0,0
50088,-133.333333333333,4,1,1,5,0,0
50180,-133.333333333333,4,1,1,40,0,0
50911,-166.666666666667,4,1,1,30,0,0
58228,-166.666666666667,4,1,1,5,0,0
58411,-166.666666666667,4,1,1,30,0,0
58594,-166.666666666667,4,1,1,5,0,0
58777,-166.666666666667,4,1,1,30,0,0
59234,-166.666666666667,4,1,1,5,0,0
59326,-166.666666666667,4,1,1,30,0,0
69204,-166.666666666667,4,1,1,5,0,0
69387,-166.666666666667,4,1,1,30,0,0
69478,-166.666666666667,4,1,1,5,0,0
69570,-166.666666666667,4,1,1,30,0,0
72131,-166.666666666667,4,1,1,5,0,0
72314,-166.666666666667,4,1,1,30,0,0
72405,-166.666666666667,4,1,1,5,0,0
72497,-166.666666666667,4,1,1,30,0,0
80911,-166.666666666667,4,1,1,5,0,0
81094,-166.666666666667,4,1,1,30,0,0
81186,-166.666666666667,4,1,1,5,0,0
81277,-166.666666666667,4,1,1,30,0,0
83838,-166.666666666667,4,1,1,5,0,0
84021,-166.666666666667,4,1,1,30,0,0
84113,-166.666666666667,4,1,1,5,0,0
84204,-166.666666666667,4,1,1,30,0,0
86033,-166.666666666667,4,1,1,5,0,0
86216,-166.666666666667,4,1,1,30,0,0
86399,-166.666666666667,4,1,1,5,0,0
86582,-166.666666666667,4,1,1,30,0,0
86765,-166.666666666667,4,1,1,5,0,0
86948,-166.666666666667,4,1,1,30,0,0
90058,-250,4,1,1,30,0,0
90423,-166.666666666667,4,1,1,5,0,0
90606,-333.333333333333,4,1,1,30,0,0
90972,-250,4,1,1,5,0,0
91155,-83.3333333333333,4,1,2,60,0,1
102771,-83.3333333333333,4,1,2,5,0,1
102863,-83.3333333333333,4,1,2,60,0,1
107984,-83.3333333333333,4,1,2,5,0,1
108167,-83.3333333333333,4,1,2,60,0,1
112558,-83.3333333333333,4,1,2,5,0,1
112741,-83.3333333333333,4,1,2,60,0,1
114570,-83.3333333333333,4,1,2,50,0,0
116948,-83.3333333333333,4,1,2,5,0,0
117131,-83.3333333333333,4,1,2,50,0,0
117222,-83.3333333333333,4,1,2,5,0,0
117314,-83.3333333333333,4,1,2,50,0,0
117405,-83.3333333333333,4,1,2,5,0,0
117497,-83.3333333333333,4,1,2,50,0,0
120241,-83.3333333333333,4,1,2,5,0,0
120423,-83.3333333333333,4,1,2,50,0,0
121155,-83.3333333333333,4,1,2,50,0,0
121247,-83.3333333333333,4,1,2,5,0,0
121338,-83.3333333333333,4,1,2,50,0,0
121430,-83.3333333333333,4,1,2,5,0,0
121521,-83.3333333333333,4,1,2,50,0,0
121887,-83.3333333333333,4,1,2,5,0,0
122070,-83.3333333333333,4,1,2,50,0,0
122253,-83.3333333333333,4,1,2,5,0,0
122436,-83.3333333333333,4,1,2,50,0,0
123533,-83.3333333333333,4,1,2,5,0,0
123716,-83.3333333333333,4,1,2,50,0,0
123808,-83.3333333333333,4,1,2,5,0,0
123899,-83.3333333333333,4,1,2,50,0,0
124082,-83.3333333333333,4,1,2,5,0,0
124265,-83.3333333333333,4,1,2,50,0,0
124448,-83.3333333333333,4,1,2,5,0,0
124631,-83.3333333333333,4,1,2,50,0,0
126277,-133.333333333333,4,1,1,40,0,0
137984,-200,4,1,1,30,0,0
138350,-200,4,3,0,30,0,0
143106,-250,4,3,0,35,0,0
143838,-133.333333333333,4,1,1,40,0,0
166155,-333.333333333333,4,2,2,40,0,0
166704,-333.333333333333,4,2,2,30,0,0
167253,-333.333333333333,4,2,2,35,0,0
178960,-222.222222222222,4,1,1,35,0,0
180241,-222.222222222222,4,1,1,25,0,0
184814,-200,4,1,1,25,0,0
189936,-200,4,1,1,5,0,0
190119,-166.666666666667,4,1,1,40,0,0
190484,-166.666666666667,4,1,1,5,0,0
190667,-83.3333333333333,4,1,2,65,0,1
214082,-83.3333333333333,4,1,2,60,0,0
215545,-83.3333333333333,4,1,2,5,0,0
215728,-83.3333333333333,4,1,2,60,0,0
215911,-83.3333333333333,4,1,2,5,0,0
216094,-83.3333333333333,4,1,2,60,0,0
218472,-83.3333333333333,4,1,2,5,0,0
218655,-83.3333333333333,4,1,2,60,0,0
218838,-83.3333333333333,4,1,2,5,0,0
219021,-83.3333333333333,4,1,2,60,0,0
219295,-83.3333333333333,4,1,2,5,0,0
219387,-83.3333333333333,4,1,2,60,0,0
219478,-83.3333333333333,4,1,2,5,0,0
219570,-83.3333333333333,4,1,2,60,0,0
219844,-83.3333333333333,4,1,2,5,0,0
219936,-83.3333333333333,4,1,2,60,0,0
220759,-83.3333333333333,4,1,2,5,0,0
220850,-83.3333333333333,4,1,2,60,0,0
220942,-83.3333333333333,4,1,2,5,0,0
221033,-83.3333333333333,4,1,2,60,0,0
221491,-83.3333333333333,4,1,2,5,0,0
221582,-83.3333333333333,4,1,2,60,0,0
221765,-83.3333333333333,4,1,2,5,0,0
221948,-83.3333333333333,4,1,2,60,0,0
223045,-83.3333333333333,4,1,2,5,0,0
223228,-83.3333333333333,4,1,2,60,0,0
223320,-83.3333333333333,4,1,2,5,0,0
223411,-83.3333333333333,4,1,2,60,0,0
223594,-83.3333333333333,4,1,2,5,0,0
223777,-83.3333333333333,4,1,2,60,0,0
223960,-83.3333333333333,4,1,2,5,0,0
224143,-83.3333333333333,4,1,2,60,0,0
227619,-83.3333333333333,4,1,2,5,0,0
227802,-83.3333333333333,4,1,2,60,0,0
234570,-100,4,1,2,65,0,0
237497,-250,4,3,2,40,0,0
249204,-125,4,1,2,55,0,0
257802,-125,4,1,2,5,0,0
257984,-125,4,1,2,60,0,0
258716,-125,4,1,2,65,0,0
259448,-333.333333333333,4,1,2,60,0,0
260911,-76.9230769230769,4,1,2,70,0,1
262558,-76.9230769230769,4,1,2,5,0,1
262741,-76.9230769230769,4,1,2,70,0,1
262832,-76.9230769230769,4,1,2,5,0,1
262923,-76.9230769230769,4,1,2,70,0,1
263106,-76.9230769230769,4,1,2,5,0,1
263289,-76.9230769230769,4,1,2,70,0,1
263381,-76.9230769230769,4,1,2,5,0,1
263472,-76.9230769230769,4,1,2,70,0,1
263655,-76.9230769230769,4,1,2,5,0,1
263838,-76.9230769230769,4,1,2,70,0,1
264753,-76.9230769230769,4,1,2,5,0,1
264936,-76.9230769230769,4,1,2,70,0,1
265484,-76.9230769230769,4,1,2,5,0,1
265667,-76.9230769230769,4,1,2,70,0,1
265759,-76.9230769230769,4,1,2,5,0,1
265850,-76.9230769230769,4,1,2,70,0,1
266033,-76.9230769230769,4,1,2,5,0,1
266216,-76.9230769230769,4,1,2,70,0,1
266308,-76.9230769230769,4,1,2,5,0,1
266399,-76.9230769230769,4,1,2,70,0,1
266582,-76.9230769230769,4,3,2,70,0,1
266765,-76.9230769230769,4,1,2,70,0,1
269143,-76.9230769230769,4,1,2,5,0,1
269326,-76.9230769230769,4,1,2,70,0,1
269875,-76.9230769230769,4,1,2,5,0,1
270058,-76.9230769230769,4,1,2,70,0,1
270241,-76.9230769230769,4,1,2,5,0,1
270423,-76.9230769230769,4,1,2,70,0,1
270606,-76.9230769230769,4,1,2,5,0,1
270789,-76.9230769230769,4,1,2,70,0,1
270881,-76.9230769230769,4,1,2,5,0,1
270972,-76.9230769230769,4,1,2,70,0,1
274356,-76.9230769230769,4,1,2,5,0,1
274448,-76.9230769230769,4,1,2,70,0,1
274539,-76.9230769230769,4,1,2,5,0,1
274631,-76.9230769230769,4,1,2,70,0,1
274814,-76.9230769230769,4,1,2,5,0,1
274997,-76.9230769230769,4,1,2,70,0,1
275088,-76.9230769230769,4,1,2,5,0,1
275180,-76.9230769230769,4,1,2,70,0,1
277283,-76.9230769230769,4,1,2,5,0,1
277375,-76.9230769230769,4,1,2,70,0,1
277466,-76.9230769230769,4,1,2,5,0,1
277558,-76.9230769230769,4,1,2,70,0,1
277832,-76.9230769230769,4,1,2,5,0,1
277923,-76.9230769230769,4,1,2,70,0,1
278015,-76.9230769230769,4,1,2,5,0,1
278106,-76.9230769230769,4,1,2,70,0,1
278198,-76.9230769230769,4,1,2,5,0,1
278289,-76.9230769230769,4,1,2,70,0,1
278655,-76.9230769230769,4,1,2,5,0,1
278838,-76.9230769230769,4,1,2,70,0,1
279844,-76.9230769230769,4,1,2,5,0,1
279936,-76.9230769230769,4,1,2,70,0,1
280942,-76.9230769230769,4,1,2,5,0,1
281033,-76.9230769230769,4,1,2,70,0,1
281308,-76.9230769230769,4,1,2,5,0,1
281399,-76.9230769230769,4,1,2,70,0,1
284326,-100,4,1,1,50,0,0
289722,-100,4,1,1,5,0,0
289813,-100,4,1,1,50,0,0
289904,-100,4,1,1,5,0,0
289996,-100,4,1,1,50,0,0
290087,-100,4,1,1,5,0,0
290179,-100,4,1,1,50,0,0
293198,-100,4,1,1,5,0,0
293289,-100,4,1,1,60,0,0
293930,-100,4,1,1,5,0,0
294021,-100,4,1,1,70,0,0
294570,-100,4,1,1,75,0,0
295119,-100,4,3,0,60,0,0
295667,-100,4,3,0,70,0,0
296033,-100,4,1,1,50,0,0
296673,-100,4,1,1,5,0,0
296765,-100,4,1,1,50,0,0
298869,-100,4,1,1,5,0,0
298960,-100,4,1,1,50,0,0
299600,-100,4,1,1,5,0,0
299692,-100,4,1,1,50,0,0
301613,-100,4,1,1,5,0,0
301704,-100,4,1,1,50,0,0
301795,-100,4,1,1,5,0,0
301887,-100,4,1,1,50,0,0
302527,-100,4,1,1,5,0,0
302619,-100,4,1,1,50,0,0
304722,-100,4,1,1,5,0,0
304814,-100,4,1,1,50,0,0
305271,-100,4,1,1,5,0,0
305363,-100,4,1,1,50,0,0
305865,350.877192982456,4,1,1,50,1,0
305952,-100,4,1,1,5,0,0
306128,-100,4,1,1,50,0,0
306276,365.853658536585,4,1,1,50,1,0
307741,-100,4,2,2,40,0,0
308472,-100,4,2,2,35,0,0
309204,-100,4,2,2,30,0,0
310667,-100,4,2,2,40,0,0
311399,-100,4,2,2,35,0,0
312130,-100,4,2,2,30,0,0
313594,-100,4,2,2,40,0,0
314326,-100,4,2,2,35,0,0
315057,-100,4,2,2,30,0,0
316521,-100,4,2,2,40,0,0
317253,-100,4,2,2,35,0,0
317984,-100,4,2,2,30,0,0

[Colours]
Combo1 : 138,117,126
Combo2 : 192,192,192
Combo3 : 128,128,128
Combo4 : 190,203,182

[HitObjects]
166,284,424,6,0,P|126:302|147:200,1,202.500007724762,4|0,0:0|0:0,0:0:0:0:
150,164,1155,2,0,P|54:202|57:293,1,202.500007724762,2|0,0:0|0:0,0:0:0:0:
145,344,1887,2,0,B|230:326|230:326|250:334|250:334|328:321|328:321|303:358,1,202.500007724762,0|0,0:0|0:0,0:0:0:0:
330,363,2619,2,0,B|373:282|373:282|264:299,1,202.500007724762,2|0,0:0|0:0,0:0:0:0:
113,211,3350,6,0,B|207:198|207:198|241:161|241:161|366:146|366:146|332:208,1,337.500012874604,8|0,0:0|0:0,0:0:0:0:
346,253,4448,1,2,0:0:0:0:
346,253,4631,1,2,0:0:0:0:
346,253,4814,2,0,B|409:112|409:112|347:128|347:128,1,202.500007724762,0|0,0:0|0:0,0:0:0:0:
206,162,5545,2,0,L|296:138,1,67.5000025749208,8|0,0:0|0:0,0:0:0:0:
326,49,5911,2,0,L|395:30,1,67.5000025749208,8|0,0:0|0:0,0:0:0:0:
211,268,6277,5,6,0:0:0:0:
211,268,7009,2,0,P|143:257|178:356,1,202.500007724762,0|0,0:0|0:0,0:0:0:0:
175,384,7741,2,0,P|111:356|134:240,1,202.500007724762,2|0,0:0|0:0,0:0:0:0:
239,194,8472,2,0,B|381:205|381:205|304:235,1,202.500007724762,0|0,0:0|0:0,0:0:0:0:
310,255,9204,6,0,B|446:193|446:193|360:186|360:186|328:151|328:151|198:144,1,405.000015449525,8|0,0:0|0:0,0:0:0:0:
117,200,10484,1,2,0:0:0:0:
45,135,10667,2,0,L|45:44,1,67.5000025749208,8|2,0:0|0:0,0:0:0:0:
117,200,11033,2,0,B|114:246|114:246|81:275|81:275|81:367|81:367|134:396|194:373|203:318,1,337.500012874604,8|0,0:0|0:0,0:0:0:0:
349,370,12131,5,6,0:0:0:0:
349,370,12863,2,0,P|398:364|336:287,1,202.500007724762,0|0,0:0|0:0,0:0:0:0:
317,254,13594,2,0,P|377:244|444:364,1,202.500007724762,2|0,0:0|0:0,0:0:0:0:
349,370,14326,2,0,B|291:370|291:370|260:339|260:339|143:338,1,202.500007724762,0|0,0:0|0:0,0:0:0:0:
14,349,15058,6,0,B|-21:271|-21:271|76:273|76:273|109:311|109:311|244:311,1,337.500012874604,8|0,0:0|0:0,0:0:0:0:
311,282,16155,1,2,0:0:0:0:
214,284,16338,1,2,0:0:0:0:
57,228,16521,2,0,L|141:229,1,67.5000025749208,8|0,0:0|0:0,0:0:0:0:
238,257,16887,2,0,P|265:217|136:247,1,337.500012874604,8|0,0:0|0:0,0:0:0:0:
224,352,17984,6,0,B|269:350|269:350|297:331|297:331|382:332,1,161.999995056153,4|0,0:0|0:0,0:0:0:0:
451,356,19265,2,0,P|455:311|432:276,1,80.9999975280763,0|0,0:0|0:0,0:0:0:0:
345,253,19997,2,0,L|345:190,1,53.9999983520508,0|0,0:0|0:0,0:0:0:0:
357,302,20911,6,0,B|312:300|312:300|284:281|284:281|199:282,1,161.999995056153,4|0,0:0|0:0,0:0:0:0:
130,306,22192,2,0,P|126:261|149:226,1,80.9999975280763,0|0,0:0|0:0,0:0:0:0:
236,203,22924,2,0,L|236:140,1,53.9999983520508,0|0,0:0|0:0,0:0:0:0:
297,87,23472,5,2,0:0:0:0:
297,76,23655,1,2,0:0:0:0:
256,192,24204,12,0,26399,0:0:0:0:
322,47,26765,6,0,L|355:49,1,33.7500012874604,8|0,0:0|0:0,0:0:0:0:
457,58,26948,2,0,P|397:58|405:-1,1,135.000005149842,2|2,0:0|0:0,0:0:0:0:
472,77,27497,2,0,P|423:122|357:131,1,135.000005149842,8|0,0:0|0:0,0:0:0:0:
207,112,28045,2,0,B|246:104|303:104|303:160|359:160|399:152,1,202.500007724762,8|0,0:0|0:0,0:0:0:0:
505,128,28777,2,0,P|482:232|401:147,1,270.000010299683,8|0,0:0|0:0,0:0:0:0:
488,259,29692,6,0,P|482:279|472:297,1,33.7500012874604,8|0,0:0|0:0,0:0:0:0:
414,370,29875,2,0,B|370:376|370:376|326:364|326:364|282:370,1,135.000005149842,2|0,0:0|0:0,0:0:0:0:
238,290,30423,2,0,P|296:310|282:370,1,135.000005149842,8|0,0:0|0:0,0:0:0:0:
223,267,30972,2,0,B|187:256|157:272|126:289|91:278,1,135.000005149842,8|0,0:0|0:0,0:0:0:0:
27,228,31521,2,0,L|24:194,1,33.7500012874604,8|0,0:0|0:0,0:0:0:0:
114,252,31704,2,0,L|119:319,1,67.5000025749208,2|8,0:0|0:0,0:0:0:0:
9,230,32070,2,0,B|6:189|6:189|28:140|28:140|26:96,1,135.000005149842,8|0,0:0|0:0,0:0:0:0:
128,94,32619,6,0,L|130:127,1,33.7500012874604,8|0,0:0|0:0,0:0:0:0:
193,33,32802,2,0,P|133:4|72:26,1,135.000005149842,2|2,0:0|0:0,0:0:0:0:
128,94,33350,2,0,B|173:145|173:145|236:110,1,135.000005149842,8|0,0:0|0:0,0:0:0:0:
311,74,33899,2,0,B|323:210|323:210|256:180,1,202.500007724762,8|0,0:0|0:0,0:0:0:0:
458,138,34631,2,0,B|391:102|391:102|407:295,1,270.000010299683,8|0,0:0|0:0,0:0:0:0:
500,384,35545,6,0,L|497:350,1,33.7500012874604,8|0,0:0|0:0,0:0:0:0:
489,249,35728,2,0,P|424:235|373:276,1,135.000005149842,2|0,0:0|0:0,0:0:0:0:
352,355,36277,2,0,L|217:366,1,135.000005149842,8|0,0:0|0:0,0:0:0:0:
150,321,36826,2,0,P|165:263|221:284,1,135.000005149842,8|0,0:0|0:0,0:0:0:0:
131,345,37375,2,0,L|97:347,1,33.7500012874604,8|0,0:0|0:0,0:0:0:0:
15,272,37558,2,0,P|48:268|78:253,1,67.5000025749208,2|8,0:0|0:0,0:0:0:0:
127,188,37923,2,0,P|118:124|57:101,1,135.000005149842,0|0,0:0|0:0,0:0:0:0:
162,265,38472,6,0,B|220:296|220:296|333:274,1,180,8|0,3:1|0:0,0:0:0:0:
268,210,39021,1,2,0:0:0:0:
186,249,39204,2,0,L|178:338,1,90,8|0,0:0|0:0,0:0:0:0:
96,378,39570,1,6,0:0:0:0:
167,227,39753,2,0,P|114:190|73:187,1,90,8|0,3:1|0:0,0:0:0:0:
47,266,40119,6,0,P|100:303|141:306,1,90,8|2,3:1|0:0,0:0:0:0:
191,211,40484,1,8,0:0:0:0:
64,164,40667,2,0,L|56:75,1,90,8|0,3:1|0:0,0:0:0:0:
175,102,41033,1,2,0:0:0:0:
37,144,41216,1,8,0:0:0:0:
157,10,41399,6,0,B|236:-3|253:68|326:54,1,180,8|0,3:1|0:0,0:0:0:0:
408,15,41948,1,2,0:0:0:0:
401,105,42131,2,0,L|393:194,1,90,8|0,0:0|0:0,0:0:0:0:
483,67,42497,1,2,3:1:0:0:
326,54,42680,2,0,P|311:107|320:146,1,90,8|0,3:1|0:0,0:0:0:0:
401,105,43045,5,8,3:1:0:0:
410,208,43228,1,2,0:0:0:0:
419,311,43411,1,8,0:0:0:0:
261,273,43594,2,0,L|351:265,1,90,8|4,3:1|0:0,0:0:0:0:
481,254,43960,1,2,0:0:0:0:
489,357,44143,1,8,0:0:0:0:
512,174,44326,6,0,P|435:133|358:173,1,180,8|0,3:1|0:0,0:0:0:0:
320,256,44875,1,2,0:0:0:0:
262,187,45058,2,0,L|173:195,1,90,8|0,0:0|0:0,0:0:0:0:
105,253,45423,1,2,3:1:0:0:
274,348,45606,2,0,P|297:308|294:263,1,90,8|0,3:1|0:0,0:0:0:0:
206,247,45972,6,0,P|183:287|186:332,1,90,8|2,3:1|0:0,0:0:0:0:
320,256,46338,1,8,0:0:0:0:
161,341,46521,2,0,L|72:333,1,90,8|0,3:1|0:0,0:0:0:0:
95,232,46887,1,2,0:0:0:0:
137,351,47070,1,8,0:0:0:0:
0,265,47253,6,0,B|-4:214|-4:214|21:140|21:140|16:89,1,180,8|0,3:1|0:0,0:0:0:0:
7,0,47802,1,2,0:0:0:0:
89,37,47984,2,0,L|178:45,1,90,8|0,0:0|0:0,0:0:0:0:
268,120,48350,1,2,3:1:0:0:
106,150,48533,2,0,P|102:110|128:57,1,90,8|0,3:1|0:0,0:0:0:0:
299,32,48899,5,8,3:1:0:0:
210,48,49082,1,2,0:0:0:0:
406,100,49265,2,0,P|409:55|390:15,1,90,8|8,0:0|3:1,0:0:0:0:
484,1,49631,2,0,P|500:82|477:163,1,168.750006437302,2|0,0:0|0:0,0:0:0:0:
423,228,50180,5,4,0:0:0:0:
437,241,50728,1,2,0:0:0:0:
355,193,50911,1,2,0:0:0:0:
350,280,51094,1,0,0:0:0:0:
437,241,51277,1,0,0:0:0:0:
265,222,51460,6,0,P|246:257|247:342,1,107.999996704102,2|2,0:0|0:0,0:0:0:0:
242,323,52009,1,8,0:0:0:0:
398,369,52192,1,0,0:0:0:0:
398,369,52375,2,0,P|394:328|382:304,1,53.9999983520508,8|0,0:0|0:0,0:0:0:0:
356,232,52741,1,8,0:0:0:0:
309,353,52923,1,10,0:0:0:0:
136,262,53106,2,0,B|178:283|178:283|237:273,1,107.999996704102,2|0,0:0|0:0,0:0:0:0:
198,194,53655,1,8,0:0:0:0:
159,117,53838,6,0,L|171:-3,1,107.999996704102,10|0,0:0|0:0,0:0:0:0:
316,37,54387,2,0,P|357:60|431:47,1,107.999996704102,2|0,0:0|0:0,0:0:0:0:
415,55,54936,1,10,0:0:0:0:
272,130,55119,1,10,0:0:0:0:
316,37,55302,1,10,0:0:0:0:
396,138,55484,2,0,P|403:175|381:244,1,107.999996704102,8|0,0:0|0:0,0:0:0:0:
381,244,55942,1,0,0:0:0:0:
377,249,56033,1,4,0:0:0:0:
367,262,56582,5,2,0:0:0:0:
249,217,56765,1,2,0:0:0:0:
227,349,56948,1,0,0:0:0:0:
308,331,57131,1,0,0:0:0:0:
171,253,57314,6,0,P|161:205|199:143,1,107.999996704102,2|2,0:0|0:0,0:0:0:0:
186,153,57863,1,8,0:0:0:0:
234,64,58045,2,0,P|260:82|309:84,1,80.9999975280763,10|0,0:0|0:0,0:0:0:0:
324,131,58411,2,0,P|357:108|405:100,1,80.9999975280763,10|0,0:0|0:0,0:0:0:0:
431,65,58777,1,10,0:0:0:0:
478,175,58960,6,0,L|474:272,1,80.9999975280763,2|0,0:0|0:0,0:0:0:0:
474,269,59326,1,0,0:0:0:0:
438,353,59509,1,0,0:0:0:0:
438,353,59692,2,0,P|410:346|377:348,1,53.9999983520508,8|0,0:0|0:0,0:0:0:0:
299,365,60058,1,0,0:0:0:0:
248,283,60241,2,0,P|216:299|142:283,1,107.999996704102,2|0,0:0|0:0,0:0:0:0:
147,287,60789,1,10,0:0:0:0:
195,210,60972,1,10,0:0:0:0:
156,364,61155,1,10,0:0:0:0:
49,310,61338,2,0,L|56:201,1,107.999996704102,8|0,0:0|0:0,0:0:0:0:
57,195,61795,1,0,0:0:0:0:
58,187,61887,1,4,0:0:0:0:
59,168,62436,5,2,0:0:0:0:
24,75,62619,2,0,L|140:85,1,107.999996704102,2|0,0:0|0:0,0:0:0:0:
198,136,63167,2,0,P|218:87|200:35,1,107.999996704102,2|2,0:0|0:0,0:0:0:0:
253,204,63716,1,8,0:0:0:0:
169,251,63899,2,0,L|101:250,1,53.9999983520508,8|0,0:0|0:0,0:0:0:0:
177,352,64265,2,0,B|217:349|217:349|235:330|235:330|291:335,1,107.999996704102,0|10,0:0|0:0,0:0:0:0:
290,331,64722,1,0,0:0:0:0:
301,328,64814,6,0,P|336:357|409:346,1,107.999996704102,2|0,0:0|0:0,0:0:0:0:
369,263,65363,2,0,L|366:140,1,107.999996704102,8|0,0:0|0:0,0:0:0:0:
422,69,65911,1,8,0:0:0:0:
422,69,66094,2,0,B|448:38|448:38|447:110,1,107.999996704102,0|0,0:0|0:0,0:0:0:0:
445,236,66643,1,10,0:0:0:0:
364,159,66826,1,10,0:0:0:0:
280,289,67009,1,10,0:0:0:0:
212,242,67192,2,0,P|261:210|310:217,1,107.999996704102,8|0,0:0|0:0,0:0:0:0:
260,367,67741,6,0,B|188:368|188:368|164:348|164:348|98:348,1,161.999995056153,4|0,0:0|0:0,0:0:0:0:
12,384,68472,1,10,0:0:0:0:
24,374,69021,2,0,L|26:280,1,80.9999975280763,10|0,0:0|0:0,0:0:0:0:
42,278,69387,2,0,L|43:245,1,26.9999991760254,10|0,0:0|0:0,0:0:0:0:
28,162,69570,1,10,0:0:0:0:
113,201,69753,1,10,0:0:0:0:
106,101,69936,2,0,P|100:48|128:2,1,107.999996704102,2|0,0:0|0:0,0:0:0:0:
234,16,70484,1,8,0:0:0:0:
249,123,70667,6,0,B|248:166|248:166|259:184|259:184|258:244,1,107.999996704102,10|0,0:0|0:0,0:0:0:0:
251,328,71216,1,0,0:0:0:0:
163,278,71399,2,0,P|150:320|154:351,1,53.9999983520508,10|0,0:0|0:0,0:0:0:0:
224,384,71765,1,10,0:0:0:0:
317,384,71948,2,0,L|402:377,1,80.9999975280763,10|0,0:0|0:0,0:0:0:0:
387,358,72314,2,0,L|435:363,1,26.9999991760254,10|0,0:0|0:0,0:0:0:0:
512,382,72497,1,10,0:0:0:0:
472,306,72680,1,10,0:0:0:0:
511,201,72863,2,0,L|500:81,1,107.999996704102,2|0,0:0|0:0,0:0:0:0:
491,11,73411,1,8,0:0:0:0:
419,77,73594,6,0,P|387:91|308:54,1,107.999996704102,4|0,0:0|0:0,0:0:0:0:
255,16,74143,1,0,0:0:0:0:
174,55,74326,2,0,P|136:92|133:145,1,107.999996704102,2|0,0:0|0:0,0:0:0:0:
113,272,74875,2,0,B|165:268|165:268|188:255|188:255|236:254,1,107.999996704102,10|8,0:0|0:0,0:0:0:0:
310,231,75423,1,10,0:0:0:0:
219,339,75606,1,10,0:0:0:0:
315,371,75789,1,10,0:0:0:0:
397,283,75972,2,0,P|404:230|389:178,1,107.999996704102,2|0,0:0|0:0,0:0:0:0:
332,91,76521,6,0,B|297:97|297:97|267:78|267:78|209:84,1,107.999996704102,10|0,0:0|0:0,0:0:0:0:
150,18,77070,2,0,P|128:53|135:123,1,107.999996704102,2|0,0:0|0:0,0:0:0:0:
190,201,77619,1,8,0:0:0:0:
309,141,77802,1,8,0:0:0:0:
320,138,78167,1,10,0:0:0:0:
340,302,78350,1,8,0:0:0:0:
271,236,78533,1,10,0:0:0:0:
167,343,78716,6,0,B|127:342|127:342|108:325|108:325|45:321,1,107.999996704102,4|8,0:0|0:0,0:0:0:0:
67,321,79265,1,2,0:0:0:0:
1,228,79448,2,0,L|128:232,1,107.999996704102,2|8,0:0|0:0,0:0:0:0:
202,277,79997,1,2,0:0:0:0:
279,215,80180,2,0,L|271:95,1,107.999996704102,10|0,0:0|0:0,0:0:0:0:
227,39,80728,2,0,P|265:26|312:40,1,80.9999975280763,10|0,0:0|0:0,0:0:0:0:
315,16,81094,2,0,P|353:29|362:29,1,26.9999991760254,10|0,0:0|0:0,0:0:0:0:
445,41,81277,1,10,0:0:0:0:
379,111,81460,1,10,0:0:0:0:
505,148,81643,2,0,P|506:194|395:211,1,161.999995056153,2|0,0:0|0:0,0:0:0:0:
334,168,82375,6,0,B|297:166|297:166|267:187|267:187|224:184,1,107.999996704102,10|0,0:0|0:0,0:0:0:0:
135,200,82923,1,2,0:0:0:0:
54,146,83106,1,8,0:0:0:0:
0,234,83289,2,0,L|0:302,1,53.9999983520508,8|8,0:0|0:0,0:0:0:0:
51,383,83655,2,0,P|85:359|128:354,1,80.9999975280763,10|0,0:0|0:0,0:0:0:0:
124,331,84021,2,0,P|148:350|165:357,1,26.9999991760254,10|0,0:0|0:0,0:0:0:0:
247,383,84204,1,10,0:0:0:0:
221,293,84387,1,10,0:0:0:0:
347,286,84570,6,0,L|346:215,1,53.9999983520508,2|0,0:0|0:0,0:0:0:0:
345,142,84936,1,8,0:0:0:0:
464,323,85119,1,0,0:0:0:0:
464,323,85302,2,0,L|462:263,1,53.9999983520508,10|0,0:0|0:0,0:0:0:0:
486,131,85667,1,8,0:0:0:0:
345,142,85850,2,0,P|298:158|257:149,1,80.9999975280763,2|0,0:0|0:0,0:0:0:0:
251,190,86216,2,0,P|204:174|163:183,1,80.9999975280763,10|0,0:0|0:0,0:0:0:0:
135,163,86582,2,0,B|120:147|120:147|132:214,1,80.9999975280763,10|0,0:0|0:0,0:0:0:0:
106,238,86948,1,10,0:0:0:0:
35,320,87131,5,10,0:0:0:0:
22,200,87314,1,10,0:0:0:0:
7,346,87497,1,10,0:0:0:0:
151,313,87680,1,10,0:0:0:0:
159,320,88045,5,2,0:0:0:0:
167,328,88137,1,0,0:0:0:0:
177,337,88228,2,0,B|229:335|229:335|257:307|257:307|347:308,1,161.999995056153,10|0,0:0|0:0,0:0:0:0:
412,257,88960,2,0,L|412:191,1,53.9999983520508,10|0,0:0|0:0,0:0:0:0:
366,128,89326,1,8,0:0:0:0:
224,251,89509,1,10,0:0:0:0:
224,251,90058,6,0,P|234:207|198:165,1,90,10|0,0:0|0:0,0:0:0:0:
79,88,90606,2,0,P|55:124|63:150,1,67.4999979400635,12|0,0:0|0:0,0:0:0:0:
135,291,91155,6,0,B|274:268|274:268|192:347,1,215.999993408203,0|0,3:0|0:0,0:0:0:0:
104,379,91704,1,0,3:0:0:0:
65,167,91887,1,10,0:0:0:0:
61,145,92253,5,0,3:0:0:0:
39,53,92436,2,0,P|99:50|148:187,1,215.999993408203,8|0,3:1|3:0,0:0:0:0:
274,328,92984,1,0,3:0:0:0:
321,259,93167,2,0,P|230:254|217:385,1,215.999993408203,4|0,3:1|0:0,0:0:0:0:
366,365,93716,1,10,0:0:0:0:
316,157,93899,6,0,P|259:167|240:158,1,53.9999983520508,8|8,0:0|0:0,0:0:0:0:
111,280,94082,2,0,B|73:328|73:328|79:235|79:235|61:207|61:207|61:121|61:121|41:175,1,323.999990112305,2|8,3:1|0:0,0:0:0:0:
0,270,94814,1,10,0:0:0:0:
0,291,95180,5,0,3:0:0:0:
0,142,95363,2,0,B|-5:0|-5:0|54:79,1,215.999993408203,8|0,3:1|0:0,0:0:0:0:
231,319,95911,1,0,3:0:0:0:
232,198,96094,2,0,B|240:54|240:54|181:133,1,215.999993408203,8|0,3:1|0:0,0:0:0:0:
125,254,96643,1,8,3:1:0:0:
377,159,96826,6,0,L|321:124,1,53.9999983520508,10|8,0:0|0:0,0:0:0:0:
163,33,97009,2,0,P|90:18|151:173,1,323.999990112305,2|8,3:1|0:0,0:0:0:0:
269,282,97741,1,10,0:0:0:0:
288,290,98106,5,0,3:0:0:0:
73,291,98289,2,0,B|42:257|42:257|114:264|114:264|150:238|150:238|230:246,1,215.999993408203,8|0,3:1|0:0,0:0:0:0:
288,290,98838,1,0,3:0:0:0:
449,245,99021,2,0,B|485:217|485:217|413:210|413:210|383:178|383:178|303:170,1,215.999993408203,8|0,3:1|0:0,0:0:0:0:
202,243,99570,1,10,0:0:0:0:
289,58,99753,1,8,0:0:0:0:
331,372,99936,6,0,B|256:370|256:370|224:334|224:334|115:334,1,215.999993408203,2|8,3:1|0:0,0:0:0:0:
28,362,100484,2,0,P|30:298|172:238,1,215.999993408203,10|8,0:0|0:0,0:0:0:0:
265,301,101033,1,2,0:0:0:0:
422,199,101216,1,0,3:0:0:0:
259,119,101399,5,8,3:1:0:0:
259,119,101582,1,8,3:1:0:0:
415,312,101765,1,10,0:0:0:0:
508,46,101948,1,0,0:0:0:0:
318,214,102131,1,2,3:1:0:0:
178,60,102314,6,0,B|226:14|226:14|208:258,1,269.999991760254,10|0,0:0|0:0,0:0:0:0:
210,247,102863,6,0,P|161:204|123:326,1,215.999993408203,0|0,3:0|0:0,0:0:0:0:
176,380,103411,1,0,3:0:0:0:
366,334,103594,1,10,0:0:0:0:
384,345,103960,1,0,3:0:0:0:
498,342,104143,6,0,P|453:248|351:236,1,215.999993408203,8|0,3:1|0:0,0:0:0:0:
162,273,104692,1,0,3:0:0:0:
48,274,104875,2,0,P|92:180|195:167,1,215.999993408203,8|0,3:1|0:0,0:0:0:0:
346,102,105423,1,10,0:0:0:0:
272,318,105606,6,0,L|256:257,1,53.9999983520508,8|8,0:0|0:0,0:0:0:0:
234,62,105789,6,0,B|174:58|174:58|103:98|103:98|-2:90|-2:90|74:166,1,323.999990112305,2|8,3:1|0:0,0:0:0:0:
137,236,106521,2,0,P|105:324|26:272,1,215.999993408203,10|8,0:0|0:0,0:0:0:0:
186,143,107070,2,0,B|244:144|244:144|277:186|277:186|389:190,1,215.999993408203,8|0,3:1|0:0,0:0:0:0:
479,254,107619,1,8,0:0:0:0:
483,73,107802,2,0,P|432:96|334:42,1,161.999995056153,10|0,0:0|0:0,0:0:0:0:
306,20,108167,6,0,L|323:103,1,53.9999983520508,10|0,0:0|0:0,0:0:0:0:
351,254,108350,1,8,3:1:0:0:
492,158,108533,1,8,3:1:0:0:
206,1,108716,6,0,P|208:82|324:52,1,215.999993408203,8|0,3:1|0:0,0:0:0:0:
316,71,109265,1,2,0:0:0:0:
468,146,109448,2,0,P|466:227|350:197,1,215.999993408203,10|0,0:0|0:0,0:0:0:0:
267,160,109997,6,0,B|197:164|197:164|148:198|148:198|29:177,1,215.999993408203,8|0,3:1|0:0,0:0:0:0:
239,57,110545,2,0,P|263:110|258:198,1,107.999996704102,2|0,3:1|0:0,0:0:0:0:
189,286,110911,6,0,B|49:269|49:269|124:321,1,215.999993408203,2|0,3:1|0:0,0:0:0:0:
216,382,111460,1,8,0:0:0:0:
268,375,111552,1,8,0:0:0:0:
319,369,111643,1,8,3:1:0:0:
432,266,111826,6,0,P|335:280|343:378,1,215.999993408203,8|0,3:1|0:0,0:0:0:0:
385,238,112375,2,0,B|381:184|381:184|397:154|397:154|393:40,1,161.999995056153,8|0,3:1|0:0,0:0:0:0:
394,80,112741,1,10,0:0:0:0:
394,80,112923,1,10,0:0:0:0:
475,222,113106,5,8,3:1:0:0:
281,124,113289,1,0,3:1:0:0:
483,34,113472,1,8,3:1:0:0:
478,43,113655,1,8,3:1:0:0:
337,258,113838,5,10,0:0:0:0:
378,21,114021,1,2,3:1:0:0:
454,307,114204,1,8,3:1:0:0:
207,219,114387,1,8,3:1:0:0:
365,211,114570,6,0,P|375:302|285:283,1,215.999993408203,8|0,3:1|0:0,0:0:0:0:
282,279,115119,1,2,0:0:0:0:
250,183,115302,2,0,P|260:91|170:110,1,215.999993408203,8|0,3:1|0:0,0:0:0:0:
168,109,115850,1,8,3:1:0:0:
151,231,116033,5,0,3:0:0:0:
250,183,116216,1,8,3:1:0:0:
75,164,116399,1,0,3:1:0:0:
220,322,116582,1,0,3:1:0:0:
428,253,116765,2,0,P|437:175|379:80,1,161.999995056153,8|0,3:1|0:0,0:0:0:0:
338,37,117131,2,0,P|295:57|260:56,1,53.9999983520508,10|0,0:0|0:0,0:0:0:0:
233,130,117314,2,0,P|198:97|173:89,1,53.9999983520508,10|0,0:0|0:0,0:0:0:0:
142,37,117497,6,0,B|0:21|0:21|69:83,1,215.999993408203,8|0,3:1|0:0,0:0:0:0:
54,69,118045,1,2,0:0:0:0:
213,131,118228,2,0,L|105:139,1,107.999996704102,8|0,3:1|0:0,0:0:0:0:
5,146,118594,1,8,3:1:0:0:
266,210,118777,5,8,3:1:0:0:
273,214,118869,1,8,0:0:0:0:
281,220,118960,2,0,L|154:226,1,107.999996704102,10|4,0:0|0:0,0:0:0:0:
56,228,119326,1,10,0:0:0:0:
202,347,119509,1,8,3:1:0:0:
257,130,119692,1,10,0:0:0:0:
173,225,119875,1,2,3:1:0:0:
326,197,120058,2,0,P|319:60|293:45,1,161.999995056153,8|0,3:1|0:0,0:0:0:0:
284,24,120423,6,0,B|217:26|217:26|166:55|166:55|70:38,1,215.999993408203,8|0,3:1|0:0,0:0:0:0:
79,39,120972,1,2,0:0:0:0:
6,146,121155,2,0,L|22:219,1,53.9999983520508,8|0,3:1|0:0,0:0:0:0:
112,264,121338,2,0,L|137:193,1,53.9999983520508,8|0,3:1|0:0,0:0:0:0:
216,156,121521,1,2,3:1:0:0:
305,294,121704,6,0,P|363:323|380:224,1,161.999995056153,8|0,3:1|0:0,0:0:0:0:
388,234,122070,2,0,B|386:173|386:173|405:146|405:146|399:42,1,161.999995056153,8|0,3:1|0:0,0:0:0:0:
413,60,122436,1,8,3:1:0:0:
479,329,122619,1,8,3:1:0:0:
489,341,122984,5,10,0:0:0:0:
388,234,123167,1,0,3:0:0:0:
293,339,123350,2,0,B|233:328|233:328|203:298|203:298|99:284,1,161.999995056153,8|0,3:1|0:0,0:0:0:0:
116,384,123716,2,0,L|202:365,1,53.9999983520508,10|0,0:0|0:0,0:0:0:0:
362,314,123899,2,0,P|329:236|254:265,1,161.999995056153,8|0,3:1|0:0,0:0:0:0:
239,213,124265,2,0,P|180:219|167:107,1,161.999995056153,8|0,3:1|0:0,0:0:0:0:
157,94,124631,1,0,3:0:0:0:
157,94,124997,5,10,0:0:0:0:
244,218,125180,1,8,3:1:0:0:
316,37,125363,1,8,3:1:0:0:
142,258,125545,5,10,0:0:0:0:
248,105,125728,1,8,3:1:0:0:
415,281,125911,1,8,3:1:0:0:
415,281,126277,6,0,P|331:318|330:238,1,202.500007724762,4|2,0:0|0:0,0:0:0:0:
306,154,127009,2,0,P|345:152|380:167,1,67.5000025749208,2|0,0:0|0:0,0:0:0:0:
329,239,127375,1,0,0:0:0:0:
244,216,127558,2,0,L|255:350,1,135.000005149842,2|2,0:0|0:0,0:0:0:0:
168,358,128106,6,0,L|101:363,1,67.5000025749208,8|8,0:0|0:0,0:0:0:0:
80,364,128381,1,2,0:0:0:0:
60,365,128472,1,10,0:0:0:0:
6,296,128655,1,10,0:0:0:0:
55,223,128838,1,8,0:0:0:0:
139,248,129021,1,10,0:0:0:0:
244,180,129204,6,0,B|197:163|155:183|139:221|98:236|55:223,1,202.500007724762,0|8,0:0|0:0,0:0:0:0:
56,101,129936,2,0,P|89:101|120:114,1,67.5000025749208,10|0,0:0|0:0,0:0:0:0:
158,194,130302,1,0,0:0:0:0:
244,180,130484,2,0,B|255:45,1,135.000005149842,2|0,0:0|0:0,0:0:0:0:
331,0,131033,6,0,P|370:4|406:27,1,67.5000025749208,10|10,0:0|0:0,0:0:0:0:
408,33,131308,1,0,0:0:0:0:
417,51,131399,1,10,0:0:0:0:
359,118,131582,2,0,B|338:168|380:200|359:250,1,135.000005149842,8|0,0:0|0:0,0:0:0:0:
466,328,132131,6,0,B|327:345|327:345|273:302,1,202.500007724762,4|2,0:0|0:0,0:0:0:0:
141,357,132863,2,0,P|173:363|206:357,1,67.5000025749208,2|0,0:0|0:0,0:0:0:0:
278,306,133228,1,0,0:0:0:0:
205,257,133411,2,0,P|173:251|140:257,1,67.5000025749208,2|0,0:0|0:0,0:0:0:0:
67,308,133777,5,2,0:0:0:0:
23,216,133960,1,8,0:0:0:0:
114,171,134143,2,0,L|119:238,1,67.5000025749208,10|0,0:0|0:0,0:0:0:0:
234,180,134509,2,0,L|228:112,1,67.5000025749208,10|0,0:0|0:0,0:0:0:0:
39,29,134875,2,0,L|36:62,1,33.7500012874604,10|0,0:0|0:0,0:0:0:0:
35,88,135058,6,0,B|104:82|104:82|155:40|155:40|221:34,1,202.500007724762,2|8,0:0|0:0,0:0:0:0:
243,32,135698,1,8,0:0:0:0:
263,31,135789,1,10,0:0:0:0:
315,102,135972,2,0,L|382:96,1,67.5000025749208,0|0,0:0|0:0,0:0:0:0:
470,89,136338,2,0,P|480:29|420:17,1,135.000005149842,2|0,0:0|0:0,0:0:0:0:
434,169,136887,5,10,0:0:0:0:
470,89,137070,1,10,0:0:0:0:
348,179,137253,1,10,0:0:0:0:
487,240,137436,5,8,0:0:0:0:
382,96,137619,1,10,0:0:0:0:
330,328,137984,6,0,B|292:339|283:317|241:328,1,90,4|0,0:0|0:0,0:0:0:0:
242,242,138533,1,0,0:0:0:0:
153,328,138716,2,0,B|191:339|200:317|242:328,1,90,2|0,0:0|0:0,0:0:0:0:
322,359,139265,1,10,0:0:0:0:
384,300,139448,6,0,P|393:258|378:213,1,90,2|0,0:0|0:0,0:0:0:0:
293,220,139997,2,0,L|248:223,1,45,4|0,0:0|0:0,0:0:0:0:
194,290,140363,2,0,L|104:282,1,90,12|0,0:0|0:0,0:0:0:0:
33,329,140911,6,0,P|17:287|27:243,1,90,6|0,0:0|0:0,0:0:0:0:
88,183,141460,1,2,0:0:0:0:
17,135,141643,2,0,L|13:90,1,45,10|2,0:0|0:0,0:0:0:0:
77,33,142009,2,0,B|129:51|157:15|209:33,1,135,8|8,0:0|0:0,0:0:0:0:
257,105,142741,2,0,P|278:110|300:109,1,45,8|2,0:0|0:0,0:0:0:0:
373,64,143106,2,0,B|361:-7|361:-7|412:0,1,108,0|0,0:0|0:0,0:0:0:0:
466,53,143838,6,0,B|515:47|515:47|491:202,1,202.500007724762,6|2,0:0|0:0,0:0:0:0:
383,227,144570,2,0,P|371:258|368:292,1,67.5000025749208,8|0,0:0|0:0,0:0:0:0:
429,356,144936,1,0,0:0:0:0:
490,293,145119,2,0,P|427:268|366:294,1,135.000005149842,2|2,0:0|0:0,0:0:0:0:
314,362,145667,6,0,L|247:367,1,67.5000025749208,2|0,0:0|0:0,0:0:0:0:
226,368,145942,1,0,0:0:0:0:
206,369,146033,1,8,0:0:0:0:
153,299,146216,2,0,L|86:294,1,67.5000025749208,2|0,0:0|0:0,0:0:0:0:
32,364,146582,1,0,0:0:0:0:
156,265,146765,6,0,B|102:261|102:261|76:244|76:244|26:240,1,135.000005149842,2|0,0:0|0:0,0:0:0:0:
0,156,147314,1,2,0:0:0:0:
133,179,147497,1,8,0:0:0:0:
58,88,147680,2,0,L|52:20,1,67.5000025749208,0|2,0:0|0:0,0:0:0:0:
136,47,148045,5,2,0:0:0:0:
222,28,148228,1,0,0:0:0:0:
308,9,148411,2,0,L|302:76,1,67.5000025749208,2|2,0:0|0:0,0:0:0:0:
293,164,148777,1,0,0:0:0:0:
420,63,148960,2,0,P|353:43|301:78,1,135.000005149842,8|0,0:0|0:0,0:0:0:0:
293,164,149509,1,0,0:0:0:0:
481,124,149692,6,0,B|451:207|513:239|481:322,1,202.500007724762,4|0,0:0|0:0,0:0:0:0:
377,293,150423,2,0,P|384:260|402:232,1,67.5000025749208,2|0,0:0|0:0,0:0:0:0:
489,253,150789,1,0,0:0:0:0:
471,339,150972,2,0,P|425:341|346:287,1,135.000005149842,10|8,0:0|0:0,0:0:0:0:
304,221,151521,6,0,L|237:226,1,67.5000025749208,10|10,0:0|0:0,0:0:0:0:
216,227,151796,1,0,0:0:0:0:
196,228,151887,1,10,0:0:0:0:
134,290,152070,2,0,P|97:276|57:280,1,67.5000025749208,2|0,0:0|0:0,0:0:0:0:
85,364,152436,1,10,0:0:0:0:
196,228,152619,6,0,P|233:214|273:218,1,67.5000025749208,10|10,0:0|0:0,0:0:0:0:
245,301,152984,1,2,0:0:0:0:
47,259,153167,1,2,0:0:0:0:
85,364,153350,1,10,0:0:0:0:
134,290,153533,1,10,0:0:0:0:
64,237,153716,6,0,L|58:169,1,67.5000025749208,10|0,0:0|0:0,0:0:0:0:
199,192,154082,2,0,L|204:124,1,67.5000025749208,10|0,0:0|0:0,0:0:0:0:
124,89,154448,1,10,0:0:0:0:
185,24,154631,1,10,0:0:0:0:
99,5,154814,1,4,0:0:0:0:
234,122,154997,6,0,L|301:116,1,67.5000025749208,8|8,0:0|0:0,0:0:0:0:
338,36,155363,2,0,P|352:13|366:0,1,33.7500012874604,10|8,0:0|0:0,0:0:0:0:
506,77,155545,6,0,P|445:59|409:112,1,135.000005149842,2|8,0:0|0:0,0:0:0:0:
482,163,156094,1,2,0:0:0:0:
352,199,156277,1,10,0:0:0:0:
426,246,156460,2,0,P|449:283|452:312,1,67.5000025749208,0|0,0:0|0:0,0:0:0:0:
397,375,156826,2,0,B|340:391|322:352|264:366,1,135.000005149842,10|10,0:0|0:0,0:0:0:0:
195,312,157375,6,0,L|128:317,1,67.5000025749208,10|10,0:0|0:0,0:0:0:0:
107,318,157650,1,0,0:0:0:0:
87,319,157741,1,2,0:0:0:0:
26,257,157923,1,2,0:0:0:0:
71,182,158106,1,8,0:0:0:0:
14,115,158289,1,2,0:0:0:0:
61,41,158472,6,0,P|137:24|181:76,1,135.000005149842,10|0,0:0|0:0,0:0:0:0:
201,143,159021,1,2,0:0:0:0:
284,114,159204,2,0,L|290:46,1,67.5000025749208,8|8,0:0|0:0,0:0:0:0:
367,4,159570,1,10,0:0:0:0:
491,119,159753,1,10,0:0:0:0:
391,88,159936,5,10,0:0:0:0:
455,23,160119,1,8,0:0:0:0:
465,144,160302,1,10,0:0:0:0:
361,205,160484,5,10,0:0:0:0:
423,267,160667,2,0,P|454:279|487:277,1,67.5000025749208,10|0,0:0|0:0,0:0:0:0:
363,332,161033,2,0,P|331:344|298:342,1,67.5000025749208,8|0,0:0|0:0,0:0:0:0:
231,285,161399,5,8,0:0:0:0:
161,232,161582,2,0,P|127:230|96:242,1,67.5000025749208,10|8,0:0|0:0,0:0:0:0:
54,319,161948,1,8,0:0:0:0:
142,320,162131,1,10,0:0:0:0:
109,148,162314,1,2,0:0:0:0:
16,196,162497,1,0,0:0:0:0:
174,210,162680,6,0,P|198:149|174:87,1,135.000005149842,10|10,0:0|0:0,0:0:0:0:
109,148,163228,1,10,0:0:0:0:
174,87,163411,2,0,L|253:94,1,67.5000025749208,10|10,0:0|0:0,0:0:0:0:
323,32,163777,2,0,L|328:99,1,67.5000025749208,10|0,0:0|0:0,0:0:0:0:
446,168,164143,1,2,0:0:0:0:
419,164,164234,1,2,0:0:0:0:
392,159,164326,5,10,0:0:0:0:
308,185,164509,1,8,0:0:0:0:
289,271,164692,1,10,0:0:0:0:
357,327,164875,1,10,0:0:0:0:
328,99,165058,5,10,0:0:0:0:
108,156,165241,1,8,0:0:0:0:
239,62,165423,5,10,0:0:0:0:
264,287,165606,1,10,0:0:0:0:
271,297,166155,6,0,L|277:364,1,67.4999979400635,2|0,0:0|0:0,0:0:0:0:
175,375,166704,2,0,L|179:322,1,53.9999983520508,10|0,0:0|0:0,0:0:0:0:
102,278,167253,5,4,0:0:0:0:
442,337,167984,1,2,0:0:0:0:
156,358,168716,5,2,0:0:0:0:
350,311,169448,1,2,0:0:0:0:
237,260,170180,5,10,0:0:0:0:
327,211,170911,1,2,0:0:0:0:
179,146,171643,1,2,0:0:0:0:
389,35,172375,5,6,0:0:0:0:
126,59,173106,1,10,0:0:0:0:
423,141,173838,1,2,0:0:0:0:
212,0,174570,5,2,0:0:0:0:
282,316,175302,1,2,0:0:0:0:
260,139,176033,6,0,P|296:138|296:175,1,80.9999975280763,6|0,0:0|0:0,0:0:0:0:
227,229,176765,2,0,L|201:226,1,26.9999991760254,10|0,0:0|0:0,0:0:0:0:
115,219,177131,1,8,0:0:0:0:
198,253,177314,6,0,L|200:226,1,26.9999991760254,2|2,0:0|0:0,0:0:0:0:
209,141,177680,1,0,0:0:0:0:
282,65,177863,2,0,L|284:91,1,26.9999991760254,2|2,0:0|0:0,0:0:0:0:
290,177,178228,1,0,0:0:0:0:
202,49,178411,2,0,P|175:43|148:46,1,53.9999983520508,10|2,0:0|0:0,0:0:0:0:
134,149,178960,6,0,B|188:183|234:142|290:177,1,161.999995056153,4|2,0:0|0:0,0:0:0:0:
304,169,180058,2,0,L|307:209,1,40.4999987640381,8|0,0:0|0:0,0:0:0:0:
182,379,180423,2,0,P|133:325|190:281,1,161.999995056153,0|2,0:0|0:0,0:0:0:0:
183,266,181521,2,0,L|223:269,1,40.4999987640381,8|0,0:0|0:0,0:0:0:0:
363,359,181887,6,0,B|429:360|448:302|513:305,1,161.999995056153,6|2,0:0|0:0,0:0:0:0:
222,244,183350,1,2,0:0:0:0:
253,345,184082,2,0,P|214:350|175:338,1,80.9999975280763,12|0,0:0|0:0,0:0:0:0:
163,300,184814,6,0,P|239:326|308:259,1,180,2|2,0:0|0:0,0:0:0:0:
328,273,185911,2,0,L|324:228,1,45,8|0,0:0|0:0,0:0:0:0:
209,96,186277,2,0,B|172:46|172:46|181:163,1,180,6|2,0:0|0:0,0:0:0:0:
159,159,187375,2,0,L|162:204,1,45,2|0,0:0|0:0,0:0:0:0:
190,300,187741,6,0,P|114:326|45:259,1,180,10|10,0:0|0:0,0:0:0:0:
230,183,189204,6,0,L|233:230,1,45,4|0,0:0|0:0,0:0:0:0:
309,144,189570,2,0,P|271:105|209:98,1,112.5,10|0,0:0|0:0,0:0:0:0:
307,310,190119,2,0,P|370:349|422:340,1,107.999996704102,10|0,0:0|0:0,0:0:0:0:
230,183,190667,6,0,B|206:233|240:273|218:321|218:321|193:350|151:351,1,215.999993408203,0|0,3:0|0:0,0:0:0:0:
63,311,191216,1,0,3:0:0:0:
317,235,191399,1,10,0:0:0:0:
337,241,191765,5,0,3:0:0:0:
173,310,191948,2,0,B|261:276|293:360|381:326,1,215.999993408203,8|0,3:1|3:0,0:0:0:0:
337,241,192496,1,0,3:0:0:0:
508,293,192680,2,0,P|506:203|429:248,1,215.999993408203,4|0,3:1|0:0,0:0:0:0:
460,374,193228,1,10,0:0:0:0:
317,235,193411,6,0,P|322:205|331:179,1,53.9999983520508,8|8,0:0|0:0,0:0:0:0:
507,77,193594,2,0,B|514:33|483:0|483:0|439:-2|409:25|409:25|366:35|366:35|368:44|368:44|366:35|366:35|301:50|301:50|309:20,1,323.999990112305,2|8,3:1|0:0,0:0:0:0:
428,106,194326,1,10,0:0:0:0:
415,123,194692,5,0,3:0:0:0:
237,107,194875,2,0,P|205:38|300:73,1,215.999993408203,8|0,3:1|0:0,0:0:0:0:
289,185,195423,1,0,3:0:0:0:
111,169,195606,2,0,P|67:231|167:213,1,215.999993408203,8|0,3:1|0:0,0:0:0:0:
167,63,196155,1,8,3:1:0:0:
289,185,196338,6,0,P|279:214|264:240,1,53.9999983520508,10|8,0:0|0:0,0:0:0:0:
68,350,196521,2,0,B|122:370|207:363|207:299|279:299|317:321|317:321|294:343|285:374,1,323.999990112305,2|8,3:1|0:0,0:0:0:0:
201,205,197253,1,10,0:0:0:0:
183,216,197618,5,0,3:0:0:0:
25,179,197801,2,0,B|-6:134|-6:134|66:150|82:101|151:116,1,215.999993408203,8|0,3:1|0:0,0:0:0:0:
183,216,198350,1,0,3:0:0:0:
324,137,198533,2,0,B|371:110|371:110|299:92|306:41|237:25,1,215.999993408203,8|0,3:1|0:0,0:0:0:0:
152,117,199082,1,10,0:0:0:0:
386,19,199265,1,8,0:0:0:0:
387,305,199448,6,0,P|310:357|286:267,1,215.999993408203,2|8,3:1|0:0,0:0:0:0:
494,328,199997,2,0,B|509:236|428:217|452:122,1,215.999993408203,10|8,0:0|0:0,0:0:0:0:
512,32,200545,1,2,0:0:0:0:
279,81,200728,1,0,3:0:0:0:
405,6,200911,5,8,3:1:0:0:
405,6,201094,1,8,3:1:0:0:
290,220,201277,1,10,0:0:0:0:
424,128,201460,1,0,0:0:0:0:
127,186,201643,1,2,3:1:0:0:
289,60,201826,6,0,B|259:39|215:39|215:39|101:71|101:71|91:71|81:69,1,215.999993408203,10|0,0:0|0:0,0:0:0:0:
54,58,202283,1,0,0:0:0:0:
38,33,202375,6,0,P|132:19|116:123,1,215.999993408203,0|0,3:0|0:0,0:0:0:0:
21,145,202923,1,0,3:0:0:0:
0,311,203106,1,10,0:0:0:0:
19,300,203472,5,0,3:0:0:0:
230,253,203655,2,0,B|216:300|171:340|119:344|119:344|148:359|178:365,1,215.999993408203,8|0,3:1|0:0,0:0:0:0:
19,300,204204,1,0,3:0:0:0:
230,253,204387,2,0,B|197:215|140:198|91:217|91:217|110:191|135:172,1,215.999993408203,8|0,3:1|0:0,0:0:0:0:
249,155,204935,1,10,0:0:0:0:
276,331,205118,6,0,P|303:347|340:355,1,53.9999983520508,8|8,0:0|0:0,0:0:0:0:
506,234,205301,6,0,P|404:137|338:261,1,323.999990112305,2|8,3:1|0:0,0:0:0:0:
418,225,206033,2,0,B|453:177|480:97|480:97|475:58|455:27,1,215.999993408203,10|8,0:0|0:0,0:0:0:0:
349,151,206582,2,0,B|370:119|381:90|381:90|346:21|264:12,1,215.999993408203,8|0,3:1|0:0,0:0:0:0:
160,123,207131,1,8,0:0:0:0:
73,59,207314,2,0,B|115:62|129:33|178:42,1,107.999996704102,10|0,0:0|0:0,0:0:0:0:
258,273,207680,1,10,0:0:0:0:
116,222,207863,1,8,3:1:0:0:
322,145,208045,1,8,3:1:0:0:
424,354,208228,6,0,B|350:322|286:386|213:354,1,215.999993408203,8|0,3:1|0:0,0:0:0:0:
258,273,208777,1,2,0:0:0:0:
97,225,208960,2,0,P|89:312|165:268,1,215.999993408203,10|0,0:0|0:0,0:0:0:0:
187,145,209509,6,0,B|178:89|129:58|129:58|72:50|24:77,1,215.999993408203,8|0,3:1|0:0,0:0:0:0:
218,23,210058,2,0,P|248:69|266:119,1,107.999996704102,2|0,3:1|0:0,0:0:0:0:
436,93,210423,2,0,P|387:-8|347:51,1,215.999993408203,2|0,3:1|0:0,0:0:0:0:
409,181,210972,1,8,0:0:0:0:
215,327,211155,5,8,3:1:0:0:
469,275,211338,1,8,3:1:0:0:
214,229,211521,5,0,0:0:0:0:
433,368,211704,1,0,0:0:0:0:
196,347,211887,5,0,3:0:0:0:
338,315,212070,1,0,3:0:0:0:
353,331,212436,5,10,0:0:0:0:
123,258,212618,1,8,3:1:0:0:
346,176,212801,1,0,3:1:0:0:
215,327,212984,1,8,3:1:0:0:
150,138,213167,5,8,3:1:0:0:
368,180,213350,1,10,0:0:0:0:
223,12,213533,1,2,3:1:0:0:
243,335,213716,5,8,3:1:0:0:
328,39,213899,1,8,3:1:0:0:
29,113,214082,6,0,P|0:41|96:62,1,215.999993408203,8|0,3:1|0:0,0:0:0:0:
95,57,214631,1,2,0:0:0:0:
96,206,214814,2,0,P|86:298|176:279,1,215.999993408203,8|0,3:1|0:0,0:0:0:0:
176,277,215363,6,0,B|173:223|173:223|190:194|190:194|187:83,1,161.999995056153,8|0,3:1|0:0,0:0:0:0:
264,302,215728,2,0,B|261:248|261:248|278:219|278:219|275:108,1,161.999995056153,8|0,3:1|0:0,0:0:0:0:
281,53,216094,1,0,3:1:0:0:
197,196,216277,1,8,3:1:0:0:
377,142,216460,1,8,3:1:0:0:
121,221,216643,1,10,0:0:0:0:
128,87,216826,5,2,0:0:0:0:
128,75,216917,1,2,0:0:0:0:
128,62,217009,2,0,P|189:15|206:131,1,215.999993408203,8|0,3:1|0:0,0:0:0:0:
232,112,217558,1,2,0:0:0:0:
173,257,217741,1,8,3:1:0:0:
314,209,217923,1,0,0:0:0:0:
138,153,218106,1,0,0:0:0:0:
155,350,218289,6,0,B|216:360|216:360|239:346|239:346|316:355,1,161.999995056153,8|0,3:1|0:0,0:0:0:0:
427,297,218655,2,0,B|365:293|365:293|346:274|346:274|269:265,1,161.999995056153,4|0,3:1|0:0,0:0:0:0:
173,257,219021,1,0,3:0:0:0:
294,126,219204,6,0,L|286:193,1,53.9999983520508,8|0,3:1|0:0,0:0:0:0:
427,297,219387,2,0,L|433:243,1,53.9999983520508,8|0,3:1|0:0,0:0:0:0:
415,54,219570,2,0,P|487:43|498:116,1,161.999995056153,2|0,3:1|0:0,0:0:0:0:
505,136,219936,6,0,B|445:128|445:128|425:138|425:138|262:105,1,215.999993408203,8|0,3:1|0:0,0:0:0:0:
294,111,220484,1,2,0:0:0:0:
200,40,220667,2,0,P|170:27|119:20,1,53.9999983520508,8|0,3:1|0:0,0:0:0:0:
137,126,220850,2,0,P|104:132|59:156,1,53.9999983520508,8|0,3:1|0:0,0:0:0:0:
48,248,221033,1,8,3:1:0:0:
168,350,221216,6,0,P|226:379|243:280,1,161.999995056153,8|0,3:1|0:0,0:0:0:0:
287,213,221582,2,0,B|290:280|290:280|271:307|271:307|273:368,1,161.999995056153,8|0,3:1|0:0,0:0:0:0:
385,342,221948,1,8,3:1:0:0:
192,196,222131,1,8,3:1:0:0:
325,131,222314,1,0,0:0:0:0:
231,79,222497,1,10,0:0:0:0:
302,44,222680,1,10,0:0:0:0:
284,25,222863,6,0,P|212:4|165:109,1,161.999995056153,0|0,3:0|0:0,0:0:0:0:
159,202,223228,2,0,L|159:137,1,53.9999983520508,0|0,3:1|0:0,0:0:0:0:
223,290,223411,2,0,B|250:323|250:323|251:204,1,161.999995056153,8|0,3:3|0:0,0:0:0:0:
310,125,223777,2,0,B|337:91|337:91|338:210,1,161.999995056153,8|0,3:1|0:0,0:0:0:0:
351,320,224143,5,8,3:1:0:0:
351,320,224326,1,0,3:1:0:0:
223,290,224509,1,0,3:1:0:0:
424,249,224692,1,8,3:1:0:0:
433,244,224875,1,8,3:1:0:0:
263,369,225058,5,10,0:0:0:0:
197,93,225241,1,0,3:0:0:0:
79,272,225423,5,10,0:0:0:0:
313,281,225606,1,10,0:0:0:0:
102,159,225789,6,0,P|96:75|200:105,1,215.999993408203,8|0,3:1|0:0,0:0:0:0:
196,92,226338,1,2,0:0:0:0:
269,231,226521,2,0,P|358:259|364:166,1,215.999993408203,8|0,3:1|0:0,0:0:0:0:
185,186,227070,2,0,P|179:255|208:309,1,107.999996704102,8|0,3:1|3:0,0:0:0:0:
193,289,227436,2,0,P|131:241|15:244,1,161.999995056153,8|0,3:1|0:0,0:0:0:0:
49,232,227802,1,0,3:1:0:0:
93,360,227985,1,8,3:1:0:0:
279,296,228167,2,0,B|348:291|348:291|382:312|382:312|503:302,1,215.999993408203,8|0,3:1|0:0,0:0:0:0:
493,164,228716,6,0,P|490:149|436:218,1,215.999993408203,8|0,3:1|0:0,0:0:0:0:
417,212,229265,1,2,0:0:0:0:
512,60,229448,2,0,P|472:42|395:49,1,107.999996704102,8|8,3:1|3:1,0:0:0:0:
320,105,229814,1,0,0:0:0:0:
140,49,229997,2,0,P|180:31|326:131,1,215.999993408203,8|8,3:1|3:1,0:0:0:0:
375,207,230545,2,0,P|369:273|342:321,1,107.999996704102,0|0,0:0|3:1,0:0:0:0:
252,365,230911,1,8,3:1:0:0:
167,217,231094,2,0,P|202:166|224:266,1,215.999993408203,8|0,3:1|0:0,0:0:0:0:
163,329,231643,6,0,B|113:324|113:324|89:301|89:301|7:292|7:292|43:357,1,215.999993408203,8|0,3:1|0:0,0:0:0:0:
31,335,232192,1,2,0:0:0:0:
167,217,232375,2,0,L|274:229,1,107.999996704102,8|0,3:1|0:0,0:0:0:0:
31,335,232741,1,8,3:1:0:0:
18,150,232923,6,0,B|90:159|90:159|118:209|118:209|202:223,1,215.999993408203,8|8,3:1|3:1,0:0:0:0:
328,234,233472,1,0,3:1:0:0:
181,314,233655,1,0,3:1:0:0:
182,128,233838,1,8,3:1:0:0:
403,259,234021,2,0,P|402:202|271:177,1,215.999993408203,8|8,3:1|0:0,0:0:0:0:
264,267,234570,6,0,L|277:361,1,90,0|8,3:0|3:1,0:0:0:0:
257,196,234936,1,2,3:1:0:0:
384,312,235119,1,2,3:1:0:0:
190,369,235302,5,8,3:1:0:0:
182,374,235484,1,0,3:1:0:0:
359,223,235667,1,8,3:1:0:0:
131,134,235850,1,8,3:1:0:0:
115,117,237497,6,0,L|127:233,1,108,4|2,2:3|2:3,0:0:0:0:
124,223,238228,1,10,2:3:0:0:
129,229,238594,1,10,2:3:0:0:
142,342,238777,1,2,2:3:0:0:
276,279,238960,6,0,L|396:296,1,108,4|2,2:3|2:3,0:0:0:0:
381,292,239692,1,10,2:3:0:0:
387,298,240058,1,10,2:3:0:0:
478,228,240423,6,0,L|371:212,1,108,4|2,2:3|2:3,0:0:0:0:
369,211,241155,1,10,2:3:0:0:
374,218,241521,1,12,2:3:0:0:
235,188,241704,1,10,2:3:0:0:
369,117,241887,1,4,2:3:0:0:
231,92,242070,6,0,L|228:13,1,72,6|2,2:3|2:3,0:0:0:0:
228,17,242619,1,10,2:3:0:0:
229,17,242984,1,10,2:3:0:0:
218,166,243167,1,2,2:3:0:0:
205,299,243350,6,0,L|314:291,1,108,4|2,2:3|2:3,0:0:0:0:
312,291,244082,1,10,2:3:0:0:
319,297,244448,1,10,2:3:0:0:
445,274,244631,1,2,2:3:0:0:
324,202,244814,1,10,2:3:0:0:
457,176,244997,6,0,L|473:93,1,72,12|2,2:3|2:3,0:0:0:0:
469,103,245545,1,10,2:3:0:0:
487,14,245728,1,2,2:3:0:0:
396,4,245911,1,10,2:3:0:0:
379,95,246094,1,8,2:3:0:0:
287,88,246277,6,0,L|170:72,1,108,4|2,2:3|2:3,0:0:0:0:
177,73,247009,1,10,2:3:0:0:
173,73,247375,1,10,2:3:0:0:
80,60,247558,1,2,2:3:0:0:
163,173,247741,1,12,2:3:0:0:
59,244,247923,6,0,L|46:326,1,72,4|2,2:3|2:3,0:0:0:0:
48,315,248472,2,0,L|93:307,1,36,12|0,2:3|2:3,0:0:0:0:
193,333,248838,2,0,L|238:325,1,36,12|0,2:3|2:3,0:0:0:0:
342,353,249204,6,0,P|343:297|276:232,1,144,0|0,3:0|0:0,0:0:0:0:
285,235,249753,1,8,0:0:0:0:
198,160,249936,2,0,P|143:175|59:126,1,144,8|0,3:1|0:0,0:0:0:0:
67,138,250484,2,0,P|112:178|133:273,1,144,2|2,3:1|0:0,0:0:0:0:
109,354,251033,1,0,3:1:0:0:
212,304,251216,1,0,0:0:0:0:
295,384,251399,1,8,3:1:0:0:
499,307,251582,2,0,B|440:300|440:300|408:311|408:311|352:298,1,144,2|0,3:1|0:0,0:0:0:0:
284,229,252131,6,0,P|276:175|342:120,1,144,0|0,3:0|0:0,0:0:0:0:
338,120,252680,1,8,0:0:0:0:
358,299,252863,2,0,P|307:329|216:304,1,144,8|0,3:1|0:0,0:0:0:0:
227,313,253411,2,0,P|174:273|92:279,1,144,2|2,3:1|0:0,0:0:0:0:
6,331,253960,1,0,3:1:0:0:
140,377,254143,1,0,0:0:0:0:
15,322,254326,5,8,3:1:0:0:
172,228,254509,1,8,3:1:0:0:
30,152,254692,1,10,0:0:0:0:
91,291,254875,1,8,3:1:0:0:
235,188,255058,6,0,P|280:169|362:207,1,144,0|2,3:0|0:0,0:0:0:0:
362,206,255606,1,8,0:0:0:0:
336,90,255789,2,0,P|327:35|345:1,1,72,8|0,3:1|0:0,0:0:0:0:
472,103,256155,1,2,0:0:0:0:
472,103,256338,2,0,B|470:158|470:158|484:184|484:184|484:266,1,144,2|2,3:1|0:0,0:0:0:0:
511,341,256887,6,0,L|419:334,1,72,8|10,3:1|0:0,0:0:0:0:
439,335,257253,1,0,3:0:0:0:
341,373,257436,1,8,0:0:0:0:
256,310,257619,2,0,P|219:287|139:303,1,108,10|0,0:0|0:0,0:0:0:0:
150,277,257984,5,0,3:1:0:0:
192,377,258167,1,0,3:1:0:0:
251,211,258350,5,8,3:1:0:0:
173,365,258533,1,8,0:0:0:0:
142,151,258716,5,2,3:1:0:0:
292,305,258899,1,8,3:1:0:0:
80,268,259082,1,2,3:1:0:0:
273,173,259265,1,10,0:0:0:0:
273,173,260911,6,0,P|344:195|311:70,1,233.999989288331,8|2,3:1|0:0,0:0:0:0:
351,74,261460,1,0,3:0:0:0:
150,90,261643,2,0,P|207:85|254:51,1,116.999994644165,10|0,0:0|0:0,0:0:0:0:
305,264,262009,2,0,P|247:259|200:225,1,116.999994644165,0|8,3:0|0:0,0:0:0:0:
49,142,262375,2,0,B|55:211|55:211|86:244|86:244|92:335,1,175.499991966248,8|0,3:1|0:0,0:0:0:0:
13,350,262741,6,0,L|10:272,1,58.4999973220826,10|0,0:0|0:0,0:0:0:0:
137,178,262923,2,0,B|132:66|132:66|179:144,1,175.499991966248,8|0,3:1|0:0,0:0:0:0:
288,184,263289,6,0,L|229:186,1,58.4999973220826,10|0,0:0|0:0,0:0:0:0:
90,304,263472,2,0,B|154:299|154:299|183:267|183:267|251:265,1,175.499991966248,0|0,3:1|0:0,0:0:0:0:
283,279,263838,5,8,3:1:0:0:
392,295,264021,1,2,0:0:0:0:
227,368,264204,1,2,3:1:0:0:
229,186,264387,1,2,3:1:0:0:
470,299,264570,2,0,P|496:261|391:244,1,175.499991966248,8|0,3:1|0:0,0:0:0:0:
381,191,264936,5,0,3:0:0:0:
283,279,265119,1,8,0:0:0:0:
195,160,265302,2,0,P|216:104|107:91,1,175.499991966248,8|0,3:1|0:0,0:0:0:0:
104,202,265667,6,0,L|103:124,1,58.4999973220826,10|0,0:0|0:0,0:0:0:0:
59,288,265850,2,0,B|139:291|139:291|172:260|172:260|268:259,1,175.499991966248,8|0,3:1|0:0,0:0:0:0:
296,353,266216,6,0,L|223:352,1,58.4999973220826,10|0,0:0|0:0,0:0:0:0:
81,362,266399,1,0,3:0:0:0:
45,138,266582,1,2,2:3:0:0:
42,120,266673,1,2,2:3:0:0:
37,103,266765,6,0,B|52:72|89:60|89:60|120:132|83:204|83:204|123:129|210:134,1,350.999983932496,8|8,3:1|0:0,0:0:0:0:
285,160,267497,1,2,3:1:0:0:
141,302,267680,2,0,P|148:245|192:208,1,116.999994644165,8|0,0:0|0:0,0:0:0:0:
278,352,268045,2,0,B|209:347|209:347|155:380|155:380|17:358,1,233.999989288331,8|8,3:1|0:0,0:0:0:0:
247,273,268594,2,0,L|375:285,1,116.999994644165,2|0,3:1|0:0,0:0:0:0:
474,274,268960,2,0,B|510:203|510:203|414:213,1,175.499991966248,8|0,3:1|0:0,0:0:0:0:
383,195,269326,5,0,3:0:0:0:
429,366,269509,1,10,0:0:0:0:
234,316,269692,2,0,P|222:235|292:278,1,175.499991966248,8|0,3:1|0:0,0:0:0:0:
383,195,270058,2,0,P|395:114|325:157,1,175.499991966248,2|0,3:1|0:0,0:0:0:0:
220,56,270423,6,0,B|276:59|276:59|309:27|309:27|383:30,1,175.499991966248,8|0,3:1|0:0,0:0:0:0:
234,140,270789,2,0,L|161:137,1,58.4999973220826,8|0,3:1|0:0,0:0:0:0:
45,107,270972,2,0,B|92:62|92:62|81:150|81:150|95:197|95:197|83:277,1,233.999989288331,8|8,3:1|3:1,0:0:0:0:
75,319,271521,5,10,0:0:0:0:
72,330,271704,1,8,3:1:0:0:
10,196,271887,1,10,0:0:0:0:
190,324,272070,1,0,3:0:0:0:
211,114,272253,1,8,3:1:0:0:
123,225,272436,1,8,3:1:0:0:
2,81,272619,6,0,B|75:72|75:72|92:96|92:96|230:78,1,233.999989288331,8|2,3:1|0:0,0:0:0:0:
221,79,273167,1,0,3:0:0:0:
403,175,273350,2,0,P|330:156|272:180,1,116.999994644165,10|0,0:0|0:0,0:0:0:0:
466,87,273716,2,0,P|508:155|495:238,1,116.999994644165,0|8,3:0|0:0,0:0:0:0:
453,290,274082,2,0,B|308:277|308:277|347:327,1,175.499991966248,8|0,3:1|0:0,0:0:0:0:
397,369,274448,6,0,L|498:375,1,58.4999973220826,10|0,0:0|0:0,0:0:0:0:
351,190,274631,2,0,B|288:189|288:189|248:209|248:209|199:203|199:203|212:190,1,175.499991966248,8|0,3:1|0:0,0:0:0:0:
246,60,274997,6,0,L|244:119,1,58.4999973220826,10|0,0:0|0:0,0:0:0:0:
242,296,275180,1,0,3:0:0:0:
80,261,275363,5,0,0:0:0:0:
78,253,275454,1,0,0:0:0:0:
76,245,275545,2,0,L|59:110,1,116.999994644165,8|0,3:1|0:0,0:0:0:0:
52,38,275911,1,2,0:0:0:0:
159,265,276094,6,0,P|105:335|-2:261,1,233.999989288331,2|0,3:1|3:0,0:0:0:0:
210,366,276643,2,0,P|243:262|227:207,1,116.999994644165,0|8,3:0|0:0,0:0:0:0:
203,144,277009,2,0,B|266:168|266:168|306:149|306:149|377:167,1,175.499991966248,8|0,3:1|0:0,0:0:0:0:
423,252,277375,6,0,L|334:264,1,58.4999973220826,10|0,0:0|0:0,0:0:0:0:
263,79,277558,2,0,P|290:21|385:89,1,175.499991966248,8|0,3:1|0:0,0:0:0:0:
463,111,277923,6,0,L|455:168,1,58.4999973220826,10|0,0:0|0:0,0:0:0:0:
365,259,278106,2,0,L|372:201,1,58.4999973220826,0|0,3:0|0:0,0:0:0:0:
473,362,278289,1,2,0:0:0:0:
479,372,278472,6,0,B|405:369|405:369|381:347|381:347|307:339,1,175.499991966248,8|0,3:1|0:0,0:0:0:0:
281,356,278838,1,0,0:0:0:0:
191,277,279021,1,8,0:0:0:0:
372,201,279204,1,2,3:1:0:0:
170,110,279387,1,10,0:0:0:0:
323,0,279570,6,0,P|375:63|317:124,1,175.499991966248,0|0,3:0|0:0,0:0:0:0:
294,102,279936,1,8,3:1:0:0:
268,278,280119,1,8,0:0:0:0:
130,191,280302,1,10,0:0:0:0:
271,268,280484,1,2,0:0:0:0:
110,305,280667,6,0,B|85:305|53:343|53:343|84:264|68:203,1,175.499991966248,8|0,3:1|0:0,0:0:0:0:
53,221,281033,2,0,P|46:158|168:123,1,175.499991966248,2|0,3:1|0:0,0:0:0:0:
162,85,281399,1,8,3:1:0:0:
130,191,281581,1,10,0:0:0:0:
63,32,281765,1,2,3:1:0:0:
234,166,281948,1,2,0:0:0:0:
61,270,282131,5,8,3:1:0:0:
52,277,282314,1,8,3:1:0:0:
246,345,282497,1,2,0:0:0:0:
125,155,282680,1,2,3:1:0:0:
137,348,282863,5,8,3:1:0:0:
326,235,283045,1,8,3:1:0:0:
236,176,283228,5,2,3:1:0:0:
428,308,283411,1,8,3:1:0:0:
512,244,283594,5,10,0:0:0:0:
248,373,283777,1,0,3:0:0:0:
84,158,283960,6,0,L|162:168,1,58.4999973220826,10|0,0:0|0:0,0:0:0:0:
268,246,284143,2,0,L|326:235,1,58.4999973220826,2|0,3:1|0:0,0:0:0:0:
496,55,284326,6,0,P|426:17|433:116,1,180,8|0,0:0|0:0,0:0:0:0:
446,185,284875,1,8,0:0:0:0:
496,55,285058,2,0,B|425:24|393:86|321:55,1,180,10|0,0:0|0:0,0:0:0:0:
240,15,285606,5,10,0:0:0:0:
150,22,285789,2,0,L|60:29,1,90,8|8,0:0|0:0,0:0:0:0:
110,203,286155,1,10,0:0:0:0:
151,103,286338,5,2,0:0:0:0:
18,187,286521,2,0,B|89:156|121:218|193:187,1,180,10|0,0:0|0:0,0:0:0:0:
151,103,287070,1,2,0:0:0:0:
59,273,287253,6,0,B|70:385|70:385|116:332,1,180,8|0,0:0|0:0,0:0:0:0:
173,265,287802,1,8,0:0:0:0:
342,243,287984,2,0,B|384:285|384:285|264:275,1,180,10|0,0:0|0:0,0:0:0:0:
211,349,288533,5,10,0:0:0:0:
323,226,288716,1,8,0:0:0:0:
403,356,288899,1,8,0:0:0:0:
486,294,289082,2,0,P|451:320|407:326,1,90,10|2,0:0|0:0,0:0:0:0:
389,155,289448,2,0,P|441:182|416:243,1,135,10|0,0:0|0:0,0:0:0:0:
336,246,289814,2,0,L|292:249,1,45,10|0,0:0|0:0,0:0:0:0:
389,155,289997,2,0,L|436:151,1,45,10|0,0:0|0:0,0:0:0:0:
508,57,290180,6,0,L|328:72,1,180,8|0,0:0|0:0,0:0:0:0:
253,23,290728,1,8,0:0:0:0:
79,69,290911,2,0,P|140:21|160:93,1,180,10|0,0:0|0:0,0:0:0:0:
96,157,291460,5,10,0:0:0:0:
11,128,291643,2,0,L|18:217,1,90,8|8,0:0|0:0,0:0:0:0:
89,275,292009,1,10,0:0:0:0:
39,350,292192,1,2,0:0:0:0:
177,294,292375,2,0,B|248:263|280:325|352:294,1,180,10|0,0:0|0:0,0:0:0:0:
311,214,292923,5,2,0:0:0:0:
258,323,293106,2,0,L|261:367,1,45,10|0,0:0|0:0,0:0:0:0:
439,331,293289,2,0,L|446:241,1,90,10|0,0:0|0:0,0:0:0:0:
331,139,293655,1,10,0:0:0:0:
334,175,293747,1,2,0:0:0:0:
338,211,293838,2,0,L|342:257,1,45,10|0,0:0|0:0,0:0:0:0:
182,193,294021,2,0,L|174:283,1,90,10|0,0:0|0:0,0:0:0:0:
103,339,294387,1,2,0:0:0:0:
346,290,294570,5,10,0:0:0:0:
247,124,294753,1,2,0:0:0:0:
232,367,294936,1,10,0:0:0:0:
441,335,295119,5,8,0:0:0:0:
449,306,295210,1,8,0:0:0:0:
448,276,295301,1,12,0:0:0:0:
441,247,295393,1,12,0:0:0:0:
433,218,295484,1,10,0:0:0:0:
432,188,295576,1,10,0:0:0:0:
440,159,295667,6,0,P|460:150|482:147,1,45,10|10,0:0|0:0,0:0:0:0:
345,210,295850,2,0,P|322:206|301:200,1,45,12|12,0:0|0:0,0:0:0:0:
303,40,296033,6,0,P|354:3|379:94,1,180,8|0,0:0|0:0,0:0:0:0:
303,40,296582,2,0,L|258:43,1,45,8|8,0:0|0:0,0:0:0:0:
32,116,296765,2,0,B|103:85|135:147|207:116,1,180,10|0,0:0|0:0,0:0:0:0:
166,35,297314,5,10,0:0:0:0:
141,26,297497,1,8,0:0:0:0:
73,198,297680,1,8,0:0:0:0:
195,151,297863,5,10,0:0:0:0:
258,280,298045,1,2,0:0:0:0:
51,324,298228,6,0,P|64:246|138:276,1,180,10|0,0:0|0:0,0:0:0:0:
67,351,298777,2,0,L|111:355,1,45,2|2,0:0|0:0,0:0:0:0:
277,327,298960,6,0,B|337:332|337:332|386:365|386:365|446:369,1,180,8|0,0:0|0:0,0:0:0:0:
280,299,299509,2,0,L|324:302,1,45,8|0,0:0|0:0,0:0:0:0:
508,204,299692,6,0,P|434:176|421:254,1,180,10|0,0:0|0:0,0:0:0:0:
334,226,300241,5,10,0:0:0:0:
322,202,300423,1,8,0:0:0:0:
457,139,300606,1,8,0:0:0:0:
378,18,300789,5,10,0:0:0:0:
501,46,300972,1,2,0:0:0:0:
258,113,301155,5,10,0:0:0:0:
393,50,301338,1,0,0:0:0:0:
195,6,301521,6,0,L|239:9,1,45,10|0,0:0|0:0,0:0:0:0:
334,120,301704,2,0,L|289:116,1,45,10|0,0:0|0:0,0:0:0:0:
54,102,301887,6,0,B|12:53|12:53|128:63,1,180,8|0,0:0|0:0,0:0:0:0:
32,122,302436,2,0,L|3:88,1,45,8|0,0:0|0:0,0:0:0:0:
132,158,302619,2,0,B|163:229|101:261|132:333,1,180,10|0,0:0|0:0,0:0:0:0:
212,292,303167,5,2,0:0:0:0:
83,273,303350,1,2,0:0:0:0:
239,295,303533,5,10,0:0:0:0:
14,339,303716,1,8,0:0:0:0:
42,198,303899,1,2,0:0:0:0:
170,372,304082,6,0,L|160:282,1,90,10|0,0:0|0:0,0:0:0:0:
148,168,304448,1,0,0:0:0:0:
348,223,304631,2,0,L|304:211,1,45,10|0,0:0|0:0,0:0:0:0:
117,159,304814,1,10,0:0:0:0:
266,108,304997,1,10,0:0:0:0:
239,295,305180,6,0,L|233:250,1,45,10|0,0:0|0:0,0:0:0:0:
204,33,305363,1,2,0:0:0:0:
421,88,305545,2,0,B|437:139|395:167|410:219,1,135,10|0,0:0|0:0,0:0:0:0:
493,195,305865,2,0,L|444:184,1,45,10|0,0:0|0:0,0:0:0:0:
260,142,306128,1,2,0:0:0:0:
316,330,306276,5,10,0:0:0:0:
348,190,306458,1,8,0:0:0:0:
263,241,306642,1,10,0:0:0:0:
403,276,306825,1,2,0:0:0:0:
260,142,307008,5,10,0:0:0:0:
402,377,307191,1,8,0:0:0:0:
446,184,307374,1,10,0:0:0:0:
214,331,307557,1,10,0:0:0:0:
489,328,307740,5,4,0:0:0:0:
489,328,308471,1,2,0:0:0:0:
489,328,309203,1,8,0:0:0:0:
489,328,310300,5,8,0:0:0:0:
300,247,310667,5,4,0:0:0:0:
300,247,311398,1,2,0:0:0:0:
300,247,312130,1,8,0:0:0:0:
300,247,313228,5,8,0:0:0:0:
465,123,313594,5,4,0:0:0:0:
465,123,314325,1,2,0:0:0:0:
465,123,315057,1,8,0:0:0:0:
465,123,316155,5,8,0:0:0:0:
489,328,316519,5,4,0:0:0:0:
300,247,317251,1,2,0:0:0:0:
465,123,317983,1,10,0:0:0:0:
