osu file format v14

[General]
AudioFilename: audio.mp3
AudioLeadIn: 0
PreviewTime: 207885
Countdown: 1
SampleSet: None
StackLeniency: 0.2
Mode: 0
LetterboxInBreaks: 0
WidescreenStoryboard: 1

[Editor]
Bookmarks: 15493,36363,67667,207885
DistanceSpacing: 1
BeatDivisor: 4
GridSize: 32
TimelineZoom: 1.5

[Metadata]
Title:STAND-ALONE
TitleUnicode:STAND-ALONE
Artist:Aimer
ArtistUnicode:Aimer
Creator:Heanday
Version:123
Source:
Tags:
BeatmapID:2061754
BeatmapSetID:985443

[Difficulty]
HPDrainRate:6
CircleSize:4
OverallDifficulty:8
ApproachRate:10
SliderMultiplier:2
SliderTickRate:1

[Events]
//Background and Video events
0,0,"SAbg.jpg",0,0
//Break Periods
2,54824,67217
//Storyboard Layer 0 (Background)
//Storyboard Layer 1 (Fail)
//Storyboard Layer 2 (Pass)
//Storyboard Layer 3 (Foreground)
//Storyboard Sound Samples

[TimingPoints]
5059,326.086956521739,4,2,1,20,1,0
5059,-142.857142857143,4,2,1,20,0,0
35874,-111.111111111111,4,2,1,20,0,0
36363,-111.111111111111,4,2,1,40,0,0
38319,-66.6666666666667,4,2,1,40,0,0
38808,-111.111111111111,4,2,1,40,0,0
43537,-66.6666666666667,4,2,1,40,0,0
45330,-111.111111111111,4,2,1,40,0,0
67667,-100,4,2,1,60,0,0

[Colours]
Combo1 : 255,94,55
Combo2 : 173,255,95
Combo3 : 17,254,176
Combo4 : 255,88,100

[HitObjects]
58,121,35874,6,0,P|36:114|18:100,1,44.999998626709,2|0,0:0|0:0,0:0:0:0:
127,25,36037,2,0,P|148:31|166:45,1,44.999998626709,2|0,0:0|0:0,0:0:0:0:
337,172,36200,2,0,P|328:151|327:128,1,44.999998626709,2|0,0:0|0:0,0:0:0:0:
270,51,36363,6,0,B|374:59|320:122|430:120,1,179.999994506836,4|0,1:0|0:0,0:0:0:0:
448,291,36852,1,0,0:0:0:0:
114,250,37015,2,0,L|64:239,2,44.999998626709,2|0|0,1:2|1:0|1:0,0:0:0:0:
198,340,37341,5,0,1:0:0:0:
198,340,37423,1,0,1:0:0:0:
198,340,37504,2,0,P|269:317|295:264,1,134.999995880127,0|0,1:0|0:0,0:0:0:0:
386,214,37830,2,0,P|399:184|398:158,1,44.999998626709,8|0,1:3|0:0,0:0:0:0:
318,47,37993,2,0,P|269:35|171:24,1,134.999995880127,4|0,1:3|0:0,0:0:0:0:
135,28,38319,6,0,P|167:47|197:88,1,75.0000028610231,2|0,1:2|0:0,0:0:0:0:
493,362,38482,2,0,B|370:312|370:312|449:312|473:269,1,225.000008583069,4|0,1:3|0:0,0:0:0:0:
399,172,38808,5,2,0:0:0:0:
439,130,38890,5,2,0:0:0:0:
408,82,38972,6,0,L|396:196,1,89.9999972534181,6|0,1:2|0:0,0:0:0:0:
117,367,39298,2,0,L|126:277,1,89.9999972534181,2|0,1:2|0:0,0:0:0:0:
66,125,39624,1,0,1:0:0:0:
106,127,39705,1,0,1:0:0:0:
141,149,39787,1,0,1:0:0:0:
357,304,39950,1,2,0:0:0:0:
169,190,40113,2,0,P|209:151|293:145,1,134.999995880127,0|0,1:0|0:0,0:0:0:0:
324,223,40439,6,0,L|375:219,1,44.999998626709,8|0,0:3|0:0,0:0:0:0:
467,163,40602,2,0,P|434:133|381:121,1,89.9999972534181,4|0,0:3|0:0,0:0:0:0:
268,43,40928,5,6,1:2:0:0:
60,201,41091,2,0,P|147:206|210:146,1,179.999994506836,0|0,1:0|0:0,0:0:0:0:
241,270,41580,1,0,1:0:0:0:
267,279,41662,1,0,1:0:0:0:
297,289,41743,2,0,L|345:305,1,44.999998626709,0|0,1:0|1:0,1:0:0:0:
376,213,41906,1,0,1:0:0:0:
402,204,41988,1,0,1:0:0:0:
432,194,42069,2,0,L|480:178,1,44.999998626709,0|0,1:0|1:0,1:0:0:0:
502,277,42232,5,6,1:0:0:0:
424,362,42396,1,2,0:2:0:0:
298,245,42559,1,0,0:0:0:0:
80,325,42722,6,0,P|139:285|214:291,1,134.999995880127,2|0,1:0|0:0,0:0:0:0:
283,330,43048,2,0,P|296:300|295:274,1,44.999998626709,8|0,1:3|0:0,0:0:0:0:
215,163,43211,2,0,P|166:151|68:140,1,134.999995880127,4|0,1:3|0:0,0:0:0:0:
166,106,43537,6,0,P|203:103|234:82,1,75.0000028610231,2|0,1:2|0:0,0:0:0:0:
487,147,43700,2,0,B|416:137|315:146|315:146|352:121|349:61,1,225.000008583069,4|0,1:3|0:0,0:0:0:0:
288,56,44026,5,2,0:0:0:0:
330,16,44108,5,2,0:0:0:0:
378,47,44190,6,0,L|264:59,1,89.9999972534181,6|0,1:2|0:0,0:0:0:0:
382,232,44352,1,0,0:0:0:0:
101,186,44515,1,0,1:0:0:0:
236,188,44678,1,0,1:0:0:0:
346,335,44841,5,6,1:2:0:0:
178,264,45004,1,0,0:0:0:0:
371,148,45167,1,0,1:0:0:0:
120,63,45330,2,0,L|99:-26,1,89.9999972534181,4|0,1:2|0:0,0:0:0:0:
273,266,45656,2,0,L|296:152,1,89.9999972534181,2|0,1:2|0:0,0:0:0:0:
287,65,45982,1,0,1:0:0:0:
256,59,46063,1,0,1:0:0:0:
227,54,46145,1,0,1:0:0:0:
85,251,46308,1,0,1:0:0:0:
116,245,46389,1,0,1:0:0:0:
432,320,46635,1,0,1:0:0:0:
220,182,46798,6,0,P|168:235|186:346,1,179.999994506836,4|0,1:0|0:0,0:0:0:0:
108,130,47287,1,0,0:0:0:0:
409,181,47450,1,0,1:0:0:0:
393,170,47531,1,0,1:0:0:0:
371,167,47613,1,0,1:0:0:0:
341,179,47694,5,0,1:0:0:0:
320,213,47776,1,0,1:0:0:0:
298,250,47857,1,0,1:0:0:0:
256,273,47939,2,0,P|212:263|166:257,1,89.9999972534181,0|0,1:0|0:0,0:0:0:0:
17,66,48265,1,0,1:0:0:0:
127,215,48428,2,0,P|138:283|148:383,1,134.999995880127,0|0,1:0|0:0,0:0:0:0:
181,384,48754,2,0,P|187:361|204:334,1,44.999998626709,0|0,1:0|0:0,0:0:0:0:
304,247,48917,2,0,P|386:219|443:208,1,134.999995880127,0|0,1:0|0:0,0:0:0:0:
447,293,49243,6,0,L|445:338,2,44.999998626709,0|0|0,1:0|1:0|1:0,0:0:0:0:
455,169,49569,1,0,0:0:0:0:
317,73,49732,1,2,0:0:0:0:
92,234,50058,1,0,1:0:0:0:
92,234,50140,1,0,1:0:0:0:
92,234,50222,2,0,P|121:221|151:220,1,44.999998626709
239,302,50385,1,0,0:0:0:0:
16,305,50548,2,0,P|-4:264|42:151,1,134.999995880127,0|0,1:0|0:0,0:0:0:0:
91,153,50874,1,0,0:0:0:0:
274,66,51037,2,0,P|221:39|180:38,1,89.9999972534181,0|0,1:0|0:0,0:0:0:0:
347,145,51363,1,0,1:0:0:0:
482,21,51526,2,0,P|446:70|481:178,1,179.999994506836
265,355,52015,6,0,P|298:317|337:302,1,89.9999972534181
173,243,52341,2,0,P|150:201|112:167,1,89.9999972534181
265,137,52667,5,6,1:2:0:0:
455,245,52830,1,0,0:0:0:0:
276,156,52993,1,0,0:0:0:0:
437,40,53156,1,6,1:2:0:0:
290,317,53482,5,0,1:0:0:0:
165,258,53645,2,0,P|100:229|39:223,1,89.9999972534181,0|0,1:0|0:0,0:0:0:0:
160,377,53972,5,0,1:0:0:0:
275,196,54135,2,0,P|246:131|240:70,1,89.9999972534181,0|0,1:0|0:0,0:0:0:0:
443,94,54461,1,0,1:0:0:0:
413,81,54542,1,0,1:0:0:0:
375,64,54624,1,0,1:0:0:0:
33,113,67667,6,0,P|88:42|196:22,1,200,4|0,1:0|1:0,0:0:0:0:
296,39,68156,1,0,0:0:0:0:
152,248,68319,2,0,P|135:298|125:346,1,100,0|0,1:0|0:0,0:0:0:0:
250,178,68645,2,0,L|405:163,1,150,0|0,1:0|0:0,0:0:0:0:
459,167,68972,2,0,P|495:202|511:250,1,100,0|0,1:0|0:0,0:0:0:0:
140,110,69298,2,0,P|156:63|191:28,1,100,0|0,1:0|0:0,0:0:0:0:
394,42,69624,5,2,1:2:0:0:
327,178,69787,1,2,1:2:0:0:
270,313,69950,1,2,1:2:0:0:
346,203,70113,2,0,L|358:26,1,150,6|0,1:0|0:0,0:0:0:0:
359,24,70439,1,0,0:0:0:0:
133,139,70602,5,0,1:0:0:0:
164,232,70765,1,0,0:0:0:0:
248,161,70928,1,0,1:0:0:0:
206,59,71091,1,0,0:0:0:0:
102,26,71254,2,0,P|95:83|130:139,1,100,0|0,1:0|0:0,0:0:0:0:
340,97,71580,2,0,L|355:252,1,150,0|0,1:0|0:0,0:0:0:0:
351,306,71907,2,0,P|316:342|268:358,1,100,0|0,1:0|0:0,0:0:0:0:
49,183,72232,5,2,1:0:0:0:
163,139,72395,1,0,1:0:0:0:
258,213,72558,1,2,1:0:0:0:
487,214,72722,6,0,L|465:5,1,200,6|0,0:2|0:0,0:0:0:0:
367,24,73211,2,0,L|344:76,3,50,0|0|0|0,1:0|1:0|1:0|1:0,0:0:0:0:
273,168,73537,2,0,L|285:226,3,50,0|0|0|0,1:0|1:0|1:0|1:0,0:0:0:0:
404,284,73863,2,0,L|351:267,1,50
180,238,74026,1,0,1:0:0:0:
180,238,74107,1,0,1:0:0:0:
180,238,74189,2,0,P|134:207|16:245,1,150,0|0,1:0|0:0,0:0:0:0:
0,275,74515,6,0,P|52:251|99:254,1,100,0|0,1:0|0:0,0:0:0:0:
328,312,74841,2,0,P|304:260|307:213,1,100,0|0,1:0|0:0,0:0:0:0:
116,153,75167,2,0,L|226:134,1,100,0|0,1:0|0:0,0:0:0:0:
291,37,75493,2,0,P|264:103|215:232,1,200,6|0,1:0|0:0,0:0:0:0:
375,263,75982,5,0,0:0:0:0:
313,138,76145,1,0,0:0:0:0:
91,243,76308,1,0,0:0:0:0:
279,327,76472,6,0,L|488:305,1,200,6|0,0:2|0:0,0:0:0:0:
175,260,76961,5,0,0:0:0:0:
101,128,77124,1,0,0:0:0:0:
237,43,77287,1,0,0:0:0:0:
239,164,77451,6,0,L|217:373,1,200,6|0,0:2|1:0,0:0:0:0:
275,359,77857,5,0,1:0:0:0:
237,375,77939,1,0,1:0:0:0:
189,351,78020,1,0,1:0:0:0:
157,299,78102,1,0,1:0:0:0:
174,250,78183,1,0,1:0:0:0:
234,220,78265,1,0,1:0:0:0:
308,196,78347,1,0,1:0:0:0:
340,114,78428,1,0,1:0:0:0:
