osu file format v14

[General]
AudioFilename: audio.mp3
AudioLeadIn: 0
PreviewTime: 54473
Countdown: 0
SampleSet: Soft
StackLeniency: 0.7
Mode: 2
LetterboxInBreaks: 0
WidescreenStoryboard: 1

[Editor]
DistanceSpacing: 1
BeatDivisor: 4
GridSize: 32
TimelineZoom: 2

[Metadata]
Title:SPARK-AGAIN (TV Size)
TitleUnicode:SPARK-AGAIN (TV Size)
Artist:Aimer
ArtistUnicode:Aimer
Creator:Secre
Version:Jemzuu's Salad
Source:炎炎ノ消防隊 弐ノ章
Tags:Fire Force enen no shouboutai brigade of flames 2nd second season japanese anime op opening 2 two jrock j-rock rock エメ chickenbible jemzuu ajamez greaper
BeatmapID:2552786
BeatmapSetID:1206887

[Difficulty]
HPDrainRate:3.5
CircleSize:3
OverallDifficulty:7
ApproachRate:7
SliderMultiplier:1.4
SliderTickRate:1

[Events]
//Background and Video events
0,0,"tamaki.jpg",0,0
//Break Periods
//Storyboard Layer 0 (Background)
//Storyboard Layer 1 (Fail)
//Storyboard Layer 2 (Pass)
//Storyboard Layer 3 (Foreground)
//Storyboard Layer 4 (Overlay)
//Storyboard Sound Samples

[TimingPoints]
557,324.324324324324,4,2,1,75,1,0
1723,333.333333333333,4,2,1,75,1,0
55056,-100,4,2,1,85,0,1
76556,-100,4,2,1,85,0,0
87556,-117.647058823529,4,2,1,50,0,0

[Colours]
Combo1 : 102,179,255
Combo2 : 255,140,140
Combo3 : 174,94,94

[HitObjects]
168,346,557,5,4,0:0:0:0:
452,238,881,2,0,L|473:141,3,70,8|8|8|8,0:0|0:3|0:0|0:0,0:0:0:0:
156,85,1723,6,0,L|305:60,1,140,4|8,0:3|0:3,0:0:0:0:
370,86,2223,1,8,0:0:0:0:
203,206,2556,2,0,L|107:216,2,70,0|8|8,0:0|0:3|0:0,0:0:0:0:
376,379,3056,6,0,P|400:310|334:268,1,140,8|8,0:3|0:3,0:0:0:0:
274,263,3556,1,8,0:0:0:0:
187,234,3723,2,0,L|336:199,1,140,2|8,0:0|0:3,0:0:0:0:
246,178,4223,1,8,0:0:0:0:
67,244,4390,6,0,P|34:180|75:118,1,140,8|8,0:3|0:3,0:0:0:0:
142,93,4890,1,8,0:0:0:0:
308,38,5223,2,0,L|237:86,1,70,0|8,0:0|0:3,0:0:0:0:
172,94,5556,1,8,0:0:0:0:
346,155,5723,6,0,L|487:200,1,140,8|8,0:3|0:3,0:0:0:0:
404,241,6223,1,8,0:0:0:0:
232,276,6390,1,2,0:0:0:0:
375,324,6723,2,0,L|300:335,1,70,4|8,0:0|0:0,0:0:0:0:
130,366,7056,6,0,P|77:361|48:261,1,140,4|8,0:0|0:3,0:0:0:0:
114,243,7556,1,8,0:0:0:0:
273,155,7890,2,0,L|363:144,2,70,0|8|8,0:0|0:3|0:0,0:0:0:0:
99,212,8390,6,0,P|41:182|62:104,1,140,8|8,0:3|0:3,0:0:0:0:
126,82,8890,1,8,0:0:0:0:
284,28,9223,2,0,L|192:26,2,70,8|0|8,0:3|0:0|0:0,0:0:0:0:
460,82,9723,6,0,L|469:248,1,140,4|8,0:0|0:3,0:0:0:0:
393,260,10223,2,0,L|312:265,1,70,8|0,0:0|0:0,0:0:0:0:
406,313,10556,2,0,L|496:321,1,70,8|0,0:0|0:0,0:0:0:0:
183,372,11056,6,0,L|170:202,1,140,8|8,0:3|0:3,0:0:0:0:
257,171,11556,2,0,L|170:160,1,70,0|8,0:0|0:0,0:0:0:0:
100,144,11890,2,0,L|91:61,1,70,8|8,0:3|0:0,0:0:0:0:
178,42,12223,1,8,0:3:0:0:
212,39,12306,1,0,0:0:0:0:
247,36,12389,1,0,0:0:0:0:
63,28,12556,6,0,L|52:107,1,70,8|8,0:3|0:3,0:0:0:0:
292,339,13390,2,0,L|149:336,1,140,8|8,0:3|0:3,0:0:0:0:
490,115,14723,6,0,L|343:86,2,140,8|8|8,0:3|0:3|0:3,0:0:0:0:
266,153,16056,2,0,L|261:312,1,140,8|8,0:3|0:3,0:0:0:0:
35,328,17390,2,0,L|62:175,1,140,8|0,0:3|0:0,0:0:0:0:
238,104,17890,6,0,L|313:99,1,70,8|8,0:3|0:3,0:0:0:0:
63,29,18723,2,0,L|219:11,1,140,8|8,0:3|0:3,0:0:0:0:
476,291,20056,2,0,L|401:298,1,70,8|8,0:3|0:0,0:0:0:0:
221,373,20390,6,0,P|164:357|171:269,1,140,4|8,0:0|0:3,0:0:0:0:
235,242,20890,1,8,0:0:0:0:
66,203,21223,2,0,L|46:130,2,70,8|0|8,0:3|0:0|0:0,0:0:0:0:
247,125,21723,6,0,L|404:114,1,140,4|8,0:0|0:3,0:0:0:0:
309,78,22223,1,8,0:0:0:0:
474,58,22556,2,0,L|489:113,2,35,8|0|8,0:3|0:0|0:3,0:0:0:0:
397,29,22890,2,0,L|313:22,1,70,8|8,0:0|0:3,0:0:0:0:
150,59,23223,6,0,P|92:73|65:156,1,140,8|8,0:3|0:0,0:0:0:0:
234,238,23890,2,0,L|325:234,2,70,0|8|8,0:0|0:3|0:0,0:0:0:0:
146,291,24390,6,0,P|215:342|288:324,1,140,8|8,0:3|0:3,0:0:0:0:
345,321,24890,1,8,0:0:0:0:
174,259,25223,1,8,0:3:0:0:
126,199,25389,1,8,0:3:0:0:
171,134,25556,1,8,0:0:0:0:
250,95,25723,2,0,P|188:54|110:48,1,140,8|8,0:3|0:3,0:0:0:0:
292,9,26223,5,8,0:0:0:0:
152,64,26556,2,0,L|83:80,2,70,8|0|8,0:3|0:0|0:0,0:0:0:0:
250,95,27056,6,0,L|260:259,1,140,8|8,0:3|0:3,0:0:0:0:
179,266,27556,1,8,0:0:0:0:
354,329,27890,1,8,0:3:0:0:
419,312,28056,1,8,0:3:0:0:
452,252,28223,1,8,0:3:0:0:
429,188,28390,1,0,0:0:0:0:
244,224,28556,6,0,P|221:150|253:90,1,140,4|8,0:0|0:0,0:0:0:0:
325,72,29056,1,8,0:3:0:0:
491,15,29390,2,0,L|415:8,1,70,8|8,0:3|0:0,0:0:0:0:
342,27,29723,6,0,P|299:74|355:108,1,140,8|8,0:3|0:3,0:0:0:0:
421,174,30223,1,8,0:0:0:0:
258,240,30556,2,0,L|272:325,1,70,8|8,0:3|0:3,0:0:0:0:
346,328,30890,1,8,0:0:0:0:
175,356,31056,6,0,L|25:330,1,140,4|8,0:0|0:3,0:0:0:0:
112,289,31556,1,8,0:0:0:0:
239,258,31806,1,8,0:3:0:0:
275,240,31890,2,0,L|362:232,2,70,8|8|8,0:3|0:3|0:0,0:0:0:0:
102,247,32390,6,0,P|39:226|41:140,1,140,4|8,0:0|0:3,0:0:0:0:
101,118,32890,1,8,0:0:0:0:
270,44,33223,2,0,L|197:73,1,70,8|8,0:0|0:3,0:0:0:0:
124,71,33556,1,8,0:0:0:0:
413,115,33890,6,0,P|466:148|468:237,1,140,4|0,0:0|0:0,0:0:0:0:
398,242,34390,1,0,0:0:0:0:
319,279,34556,2,0,L|404:288,1,70,8|0,0:0|0:0,0:0:0:0:
229,366,35056,6,0,L|80:353,1,140,0|8,0:0|0:0,0:0:0:0:
163,312,35556,1,8,0:3:0:0:
240,306,35723,1,8,0:3:0:0:
161,259,35890,1,8,0:0:0:0:
312,153,36223,2,0,L|222:144,1,70,8|0,0:3|0:0,0:0:0:0:
74,213,36556,6,0,P|32:197|47:93,1,140,4|0,0:0|0:0,0:0:0:0:
97,81,37056,1,8,0:3:0:0:
171,42,37223,2,0,L|92:39,1,70,8|0,0:0|0:0,0:0:0:0:
263,29,37723,6,0,L|273:183,1,140,0|8,0:0|0:3,0:0:0:0:
192,196,38223,1,0,0:0:0:0:
359,243,38556,2,0,P|426:245|472:308,1,140,8|0,0:0|0:0,0:0:0:0:
397,337,39056,1,8,0:3:0:0:
239,364,39223,6,0,P|173:360|157:275,1,140
221,269,39723,1,8,0:3:0:0:
299,266,39890,2,0,L|305:184,1,70,8|0,0:0|0:0,0:0:0:0:
128,123,40390,6,0,L|279:100,1,140,8|8,0:3|0:3,0:0:0:0:
201,64,40890,1,0,0:0:0:0:
128,57,41056,1,0,0:0:0:0:
53,61,41223,1,8,0:0:0:0:
203,16,41556,2,0,L|285:15,1,70,8|8,0:3|0:3,0:0:0:0:
113,192,41890,6,0,L|24:198,2,70,8|8|0,0:3|0:3|0:0,0:0:0:0:
199,249,42390,2,0,L|41:281,1,140,8|8,0:3|0:3,0:0:0:0:
139,315,42890,1,0,0:0:0:0:
226,324,43056,6,0,L|238:180,1,140,8|8,0:3|0:3,0:0:0:0:
156,159,43556,1,8,0:3:0:0:
303,110,43890,1,8,0:0:0:0:
41,54,44223,1,8,0:0:0:0:
324,15,44556,6,0,P|405:38|418:94,1,140,4|0,0:0|0:0,0:0:0:0:
346,117,45056,1,8,0:3:0:0:
270,137,45223,2,0,L|265:220,1,70,8|0,0:0|0:0,0:0:0:0:
440,321,45723,6,0,L|296:337,1,140,8|8,0:3|0:3,0:0:0:0:
228,319,46223,1,8,0:3:0:0:
305,277,46390,2,0,L|392:264,1,70,8|8,0:3|0:0,0:0:0:0:
204,216,46890,2,0,L|115:204,1,70,0|8,0:0|0:3,0:0:0:0:
297,185,47223,6,0,P|343:164|356:78,1,140,8|8,0:3|0:3,0:0:0:0:
284,56,47723,1,0,0:3:0:0:
206,40,47890,2,0,L|297:22,1,70,8|0,0:0|0:0,0:0:0:0:
111,58,48390,6,0,L|13:176,1,140,8|8,0:3|0:3,0:0:0:0:
88,211,48890,1,8,0:3:0:0:
161,227,49056,1,8,0:3:0:0:
237,237,49223,1,8,0:0:0:0:
68,297,49556,2,0,L|58:390,1,70,8|8,0:3|0:3,0:0:0:0:
244,358,49890,6,0,L|335:349,2,70,12|8|12,0:0|0:0|0:0,0:0:0:0:
159,355,50390,2,0,P|143:313|206:237,1,140,12|8,0:0|0:0,0:0:0:0:
266,223,50890,1,12,0:0:0:0:
443,193,51056,5,0,0:0:0:0:
299,119,51390,2,0,L|255:115,2,35,8|8|8,0:0|0:0|0:0,0:0:0:0:
386,111,51723,2,0,P|440:129|457:218,1,140,8|8,0:3|0:3,0:0:0:0:
385,233,52223,1,8,0:3:0:0:
207,271,52390,5,4,0:0:0:0:
352,361,52723,2,0,L|266:365,1,70,8|8,0:0|0:0,0:0:0:0:
114,286,53223,2,0,L|28:277,2,70,8|8|8,0:0|0:3|0:3,0:0:0:0:
283,153,53723,2,0,P|236:113|138:116,1,140,4|8,0:0|0:3,0:0:0:0:
84,86,54223,1,8,0:0:0:0:
333,237,54556,6,0,L|339:313,1,70,2|2,0:0|0:0,0:0:0:0:
21,267,55056,6,0,L|167:302,1,140,12|8,0:3|0:3,0:0:0:0:
243,229,55556,2,0,L|78:189,1,140,8|0,0:0|0:0,0:0:0:0:
168,124,56056,1,8,0:3:0:0:
249,107,56223,1,8,0:0:0:0:
420,136,56390,6,0,P|457:186|400:237,1,140,8|8,0:3|0:3,0:0:0:0:
330,249,56890,2,0,L|187:276,1,140,8|8,0:0|0:3,0:0:0:0:
258,324,57390,1,8,0:3:0:0:
337,335,57556,1,8,0:0:0:0:
174,370,57723,6,0,L|23:330,1,140,0|8,0:0|0:3,0:0:0:0:
113,275,58223,1,8,0:0:0:0:
271,218,58556,2,0,L|352:207,2,70,8|8|8,0:3|0:3|0:0,0:0:0:0:
184,187,59056,2,0,P|233:139|331:127,1,140,0|8,0:0|0:3,0:0:0:0:
375,116,59556,1,8,0:0:0:0:
205,54,59723,6,0,P|132:72|95:139,1,140
175,178,60223,1,8,0:0:0:0:
345,238,60390,6,0,L|397:241,1,35,8|8,0:0|0:0,0:0:0:0:
343,264,60556,2,0,L|182:284,1,140,4|8,0:0|0:0,0:0:0:0:
283,330,61056,2,0,L|444:345,1,140,8|8,0:3|0:3,0:0:0:0:
347,368,61556,1,8,0:0:0:0:
178,360,61723,6,0,L|35:310,2,140,8|8|0,0:3|0:3|0:0,0:0:0:0:
333,188,62723,2,0,L|254:174,1,70,8|8,0:3|0:0,0:0:0:0:
96,242,63056,6,0,P|44:235|39:140,1,140,4|8,0:0|0:3,0:0:0:0:
97,124,63556,1,8,0:0:0:0:
248,46,63890,2,0,L|159:42,2,70,8|0|8,0:3|0:0|0:0,0:0:0:0:
417,90,64390,6,0,P|468:109|471:206,1,140,4|8,0:0|0:3,0:0:0:0:
410,219,64890,1,8,0:0:0:0:
246,247,65223,1,2,0:0:0:0:
208,254,65306,1,0,0:0:0:0:
246,247,65390,2,0,L|340:251,1,70,8|8,0:3|0:3,0:0:0:0:
492,347,65723,6,0,P|473:296|405:247,1,140,12|8,0:3|0:3,0:0:0:0:
320,229,66223,2,0,L|164:203,1,140,8|0,0:0|0:0,0:0:0:0:
271,181,66723,2,0,L|277:102,1,70,8|8,0:3|0:0,0:0:0:0:
100,60,67056,6,0,P|40:93|40:175,1,140,8|8,0:3|0:3,0:0:0:0:
115,203,67556,2,0,L|276:215,1,140,8|8,0:0|0:3,0:0:0:0:
172,273,68056,2,0,L|174:353,1,70,8|8,0:3|0:0,0:0:0:0:
348,366,68390,6,0,P|397:350|405:260,1,140,8|8,0:3|0:3,0:0:0:0:
334,249,68890,1,8,0:0:0:0:
175,258,69223,1,8,0:3:0:0:
138,201,69389,1,8,0:3:0:0:
174,145,69556,1,8,0:0:0:0:
253,130,69723,2,0,L|93:112,1,140,8|8,0:3|0:3,0:0:0:0:
35,118,70223,1,8,0:0:0:0:
206,37,70390,6,0,L|374:64,1,140,0|8,0:0|0:3,0:0:0:0:
268,105,70890,1,8,0:0:0:0:
90,155,71056,6,0,L|83:320,1,140,4|8,0:0|0:3,0:0:0:0:
161,314,71556,1,8,0:0:0:0:
248,327,71723,2,0,L|94:313,1,140,8|8,0:3|0:3,0:0:0:0:
186,286,72223,1,8,0:0:0:0:
358,268,72390,2,0,L|513:193,2,140,8|8|0,0:3|0:3|0:0,0:0:0:0:
195,231,73390,2,0,L|274:209,1,70,8|8,0:3|0:0,0:0:0:0:
437,160,73723,6,0,P|474:198|432:277,1,140,4|8,0:0|0:3,0:0:0:0:
372,298,74223,1,8,0:0:0:0:
204,259,74556,2,0,L|286:217,1,70,8|8,0:3|0:3,0:0:0:0:
340,218,74890,1,8,0:0:0:0:
172,171,75056,5,4,0:0:0:0:
95,168,75223,2,0,P|70:228|122:304,1,140,8|8,0:3|0:0,0:0:0:0:
174,311,75723,1,8,0:3:0:0:
346,320,75890,2,0,L|421:308,2,70,8|8|8,0:3|0:3|0:3,0:0:0:0:
44,309,76556,6,0,P|34:254|112:200,1,140,4|8,0:0|0:3,0:0:0:0:
165,182,77056,1,8,0:3:0:0:
240,176,77223,1,8,0:0:0:0:
87,87,77556,2,0,L|14:72,1,70,8|8,0:3|0:3,0:0:0:0:
101,35,77890,6,0,L|252:46,1,140,0|8,0:0|0:3,0:0:0:0:
172,49,78389,1,8,0:3:0:0:
131,103,78556,1,8,0:0:0:0:
146,169,78723,1,8,0:3:0:0:
413,295,79056,1,8,0:3:0:0:
484,311,79223,6,0,P|486:253|421:178,1,140,8|8,0:3|0:3,0:0:0:0:
363,169,79723,1,8,0:3:0:0:
283,160,79890,2,0,L|441:140,1,140,8|8,0:0|0:3,0:0:0:0:
341,113,80390,1,8,0:3:0:0:
259,108,80556,6,0,L|248:254,1,140,0|8,0:0|0:3,0:0:0:0:
281,308,81056,1,0,0:0:0:0:
341,341,81223,1,8,0:0:0:0:
410,337,81390,1,8,0:3:0:0:
141,373,81723,1,8,0:3:0:0:
65,368,81890,6,0,P|34:323|69:226,1,140,8|8,0:3|0:3,0:0:0:0:
123,215,82390,1,8,0:3:0:0:
291,187,82556,2,0,L|304:110,1,70,8|8,0:0|0:0,0:0:0:0:
211,102,82890,2,0,L|197:30,1,70,8|8,0:3|0:3,0:0:0:0:
384,19,83223,5,8,0:3:0:0:
439,126,83890,2,0,L|488:129,1,35,8|8,0:0|0:3,0:0:0:0:
434,160,84056,2,0,L|343:171,1,70,8|8,0:3|0:3,0:0:0:0:
183,296,84390,6,0,P|135:295|105:205,1,140,4|8,0:0|0:3,0:0:0:0:
176,180,84890,2,0,L|249:182,1,70,8|0,0:0|0:0,0:0:0:0:
165,122,85223,2,0,L|77:113,1,70,8|8,0:3|0:3,0:0:0:0:
379,42,85723,6,0,P|407:91|343:152,1,140,4|8,0:0|0:0,0:0:0:0:
285,171,86223,1,0,0:0:0:0:
205,202,86390,2,0,L|298:219,1,70,8|8,0:0|0:3,0:0:0:0:
352,218,86723,1,8,0:0:0:0:
49,351,87056,5,4,0:0:0:0:
