osu file format v14

[General]
AudioFilename: audio.mp3
AudioLeadIn: 0
PreviewTime: 54473
Countdown: 0
SampleSet: Soft
StackLeniency: 0.7
Mode: 2
LetterboxInBreaks: 0
WidescreenStoryboard: 1

[Editor]
DistanceSpacing: 1
BeatDivisor: 4
GridSize: 16
TimelineZoom: 2

[Metadata]
Title:SPARK-AGAIN (TV Size)
TitleUnicode:SPARK-AGAIN (TV Size)
Artist:Aimer
ArtistUnicode:Aimer
Creator:Secre
Version:Greaper's Rain
Source:炎炎ノ消防隊 弐ノ章
Tags:Fire Force enen no shouboutai brigade of flames 2nd second season japanese anime op opening 2 two jrock j-rock rock エメ chickenbible jemzuu ajamez greaper
BeatmapID:2513535
BeatmapSetID:1206887

[Difficulty]
HPDrainRate:5
CircleSize:4
OverallDifficulty:9
ApproachRate:9
SliderMultiplier:1.73
SliderTickRate:2

[Events]
//Background and Video events
0,0,"tamaki.jpg",0,0
//Break Periods
//Storyboard Layer 0 (Background)
//Storyboard Layer 1 (Fail)
//Storyboard Layer 2 (Pass)
//Storyboard Layer 3 (Foreground)
//Storyboard Layer 4 (Overlay)
//Storyboard Sound Samples

[TimingPoints]
557,324.324324324324,4,2,1,75,1,0
1723,333.333333333333,4,2,1,75,1,0
12556,-111.111111111111,4,2,1,75,0,0
20390,-100,4,2,1,75,0,0
33890,-90.9090909090909,4,2,1,75,0,0
55056,-83.3333333333333,4,2,1,85,0,1
76556,-100,4,2,1,85,0,0
87556,-117.647058823529,4,2,1,50,0,0

[Colours]
Combo1 : 102,179,255
Combo2 : 255,140,140
Combo3 : 174,94,94

[HitObjects]
347,238,557,5,4,0:0:0:0:
199,238,719,2,0,L|195:136,1,86.5,8|8,0:3|0:0,0:0:0:0:
353,127,1043,1,8,0:3:0:0:
117,115,1205,2,0,L|20:109,1,86.5,8|8,0:0|0:0,0:0:0:0:
449,277,1723,6,0,P|445:233|335:168,1,173,4|8,0:3|0:3,0:0:0:0:
195,163,2223,1,8,0:0:0:0:
284,155,2390,2,0,L|392:148,2,86.5,8|0|8,0:3|0:0|0:3,0:0:0:0:
137,103,2890,1,8,0:0:0:0:
363,267,3056,6,0,P|408:249|342:162,1,173,8|8,0:3|0:3,0:0:0:0:
146,156,3556,1,8,0:0:0:0:
287,146,3723,2,0,L|291:52,1,86.5,2|8,0:0|0:3,0:0:0:0:
202,51,4056,1,8,0:3:0:0:
350,50,4223,1,8,0:0:0:0:
115,57,4390,6,0,P|121:142|229:182,1,173,8|8,0:3|0:3,0:0:0:0:
337,193,4890,2,0,L|248:197,2,86.5,8|8|0,0:0|0:3|0:0,0:0:0:0:
486,228,5390,2,0,L|491:323,1,86.5,8|8,0:3|0:0,0:0:0:0:
227,316,5723,6,0,P|186:293|244:210,1,173,8|8,0:3|0:3,0:0:0:0:
386,207,6223,1,8,0:0:0:0:
149,213,6390,2,0,L|142:36,1,173,2|4,0:0|0:0,0:0:0:0:
291,27,6890,1,8,0:0:0:0:
36,40,7056,6,0,L|217:32,1,173,4|8,0:0|0:3,0:0:0:0:
62,96,7556,2,0,L|58:190,1,86.5,8|8,0:0|0:3,0:0:0:0:
207,192,7890,2,0,L|316:198,1,86.5,0|8,0:0|0:3,0:0:0:0:
147,253,8223,1,8,0:0:0:0:
400,256,8390,6,0,P|450:234|401:152,1,173,8|8,0:3|0:3,0:0:0:0:
257,152,8890,2,0,L|256:260,1,86.5,8|0,0:0|0:0,0:0:0:0:
397,242,9223,2,0,L|292:245,1,86.5,8|0,0:3|0:0,0:0:0:0:
460,264,9556,1,8,0:0:0:0:
196,264,9723,6,0,P|203:200|317:140,1,173,4|8,0:0|0:3,0:0:0:0:
139,127,10223,2,0,L|32:123,1,86.5,8|0,0:0|0:0,0:0:0:0:
51,69,10473,1,0,0:0:0:0:
203,76,10556,2,0,L|306:72,1,86.5,8|0,0:0|0:0,0:0:0:0:
141,50,10890,1,8,0:0:0:0:
420,44,11056,6,0,P|474:89|411:152,1,173,8|8,0:3|0:3,0:0:0:0:
332,149,11556,1,0,0:0:0:0:
478,182,11723,2,0,L|483:279,1,86.5,8|8,0:0|0:3,0:0:0:0:
345,274,12056,1,8,0:0:0:0:
489,300,12223,2,0,L|402:306,1,86.5,8|0,0:3|0:0,0:0:0:0:
359,315,12473,1,0,0:0:0:0:
204,309,12556,6,0,L|124:306,1,77.8499976242066,8|8,0:3|0:3,0:0:0:0:
207,225,12890,2,0,L|297:222,2,77.8499976242066
346,190,13390,2,0,L|347:105,1,77.8499976242066,8|0,0:3|0:0,0:0:0:0:
183,104,13723,6,0,L|96:98,1,77.8499976242066,8|0,0:3|0:0,0:0:0:0:
181,165,14056,2,0,L|178:247,1,77.8499976242066
321,188,14390,2,0,L|326:275,1,77.8499976242066
177,288,14723,2,0,L|95:288,1,77.8499976242066,8|0,0:3|0:0,0:0:0:0:
248,328,15056,6,0,L|346:329,2,77.8499976242066,8|0|8,0:3|0:0|0:3,0:0:0:0:
106,297,15556,2,0,L|97:204,1,77.8499976242066
178,202,15890,1,0,0:0:0:0:
341,192,16056,2,0,L|439:187,1,77.8499976242066,8|0,0:3|0:0,0:0:0:0:
246,150,16390,6,0,P|198:133|249:65,1,155.699995248413,8|0,0:3|0:0,0:0:0:0:
315,61,16890,1,0,0:0:0:0:
174,193,17056,2,0,L|166:283,1,77.8499976242066
320,267,17390,2,0,L|411:276,1,77.8499976242066,8|0,0:3|0:0,0:0:0:0:
238,318,17723,1,0,0:0:0:0:
462,317,17890,6,0,L|465:222,1,77.8499976242066,8|8,0:3|0:3,0:0:0:0:
383,233,18223,2,0,L|302:226,2,77.8499976242066
242,182,18723,2,0,L|161:172,1,77.8499976242066,8|0,0:3|0:0,0:0:0:0:
309,147,19056,6,0,L|396:144,2,77.8499976242066,8|0|0,0:3|0:0|0:0,0:0:0:0:
231,154,19556,1,0,0:0:0:0:
378,200,19723,2,0,L|381:294,1,77.8499976242066
216,287,20056,1,8,0:3:0:0:
389,322,20223,1,8,0:0:0:0:
152,328,20390,6,0,P|117:312|169:216,1,173,4|8,0:0|0:3,0:0:0:0:
312,222,20890,2,0,L|318:128,1,86.5,8|0,0:0|0:0,0:0:0:0:
170,126,21223,2,0,L|277:119,1,86.5,8|0,0:3|0:0,0:0:0:0:
107,91,21556,1,8,0:0:0:0:
368,80,21723,6,0,P|415:100|359:186,1,173,4|8,0:0|0:3,0:0:0:0:
227,192,22223,2,0,L|223:292,1,86.5,8|0,0:0|0:0,0:0:0:0:
372,285,22556,1,8,0:3:0:0:
420,266,22640,1,0,0:0:0:0:
424,207,22723,1,8,0:3:0:0:
374,184,22806,1,0,0:0:0:0:
221,136,22890,2,0,L|117:130,1,86.5,8|8,0:0|0:3,0:0:0:0:
131,84,23140,1,0,0:0:0:0:
327,101,23223,6,0,L|330:14,1,86.5,8|8,0:3|0:3,0:0:0:0:
181,15,23556,2,0,L|67:12,1,86.5,8|0,0:0|0:0,0:0:0:0:
244,56,23890,2,0,L|246:144,1,86.5,0|8,0:0|0:3,0:0:0:0:
98,160,24223,1,8,0:0:0:0:
325,199,24390,6,0,L|424:205,1,86.5,8|0,0:3|0:0,0:0:0:0:
273,120,24723,2,0,L|359:124,1,86.5,8|8,0:3|0:0,0:0:0:0:
211,184,25056,2,0,L|209:275,1,86.5
359,270,25390,1,8,0:3:0:0:
204,298,25556,2,0,L|106:300,1,86.5,8|8,0:0|0:3,0:0:0:0:
350,186,25890,6,0,L|351:89,1,86.5,0|8,0:0|0:3,0:0:0:0:
205,100,26223,2,0,L|109:93,1,86.5,8|0,0:0|0:0,0:0:0:0:
267,67,26556,2,0,L|268:183,1,86.5,8|0,0:3|0:0,0:0:0:0:
411,154,26890,1,8,0:0:0:0:
181,193,27056,6,0,L|73:196,1,86.5,8|0,0:3|0:0,0:0:0:0:
241,222,27390,1,8,0:3:0:0:
91,238,27556,2,0,L|85:328,1,86.5,8|0,0:0|0:0,0:0:0:0:
233,328,27890,2,0,L|339:328,1,86.5,8|8,0:3|0:3,0:0:0:0:
171,304,28223,1,8,0:3:0:0:
327,287,28390,2,0,L|331:232,1,43.25
135,228,28556,6,0,L|27:224,1,86.5,4|8,0:0|0:3,0:0:0:0:
199,193,28890,2,0,L|201:101,1,86.5,8|8,0:0|0:3,0:0:0:0:
56,96,29223,2,0,L|151:93,1,86.5,0|8,0:0|0:3,0:0:0:0:
290,83,29556,1,8,0:0:0:0:
63,152,29723,6,0,L|55:247,1,86.5,8|0,0:3|0:0,0:0:0:0:
211,239,30056,2,0,L|297:239,1,86.5,8|8,0:3|0:0,0:0:0:0:
148,258,30390,2,0,L|144:352,1,86.5,0|8,0:0|0:3,0:0:0:0:
292,340,30723,1,8,0:3:0:0:
136,346,30890,1,8,0:0:0:0:
397,331,31056,6,0,P|449:308|395:233,1,173,4|8,0:0|0:3,0:0:0:0:
253,237,31556,2,0,L|109:228,1,129.75,8|8,0:0|0:3,0:0:0:0:
299,189,31890,2,0,L|412:183,1,86.5,8|8,0:3|0:3,0:0:0:0:
236,155,32223,1,8,0:0:0:0:
460,158,32390,6,0,P|451:105|338:52,1,173,4|8,0:0|0:3,0:0:0:0:
120,61,32890,2,0,L|119:153,1,86.5,8|8,0:0|0:3,0:0:0:0:
268,147,33223,2,0,L|367:154,1,86.5,8|8,0:0|0:3,0:0:0:0:
199,196,33556,1,8,0:0:0:0:
356,215,33723,1,0,0:0:0:0:
126,255,33890,6,0,L|122:351,1,95.1500029037476,4|0,0:0|0:0,0:0:0:0:
282,338,34223,1,0,0:0:0:0:
123,351,34390,2,0,L|26:353,1,95.1500029037476,0|8,0:0|0:0,0:0:0:0:
188,301,34723,2,0,L|186:200,1,95.1500029037476
435,188,35056,6,0,L|322:184,1,95.1500029037476
490,146,35390,1,8,0:0:0:0:
332,142,35556,2,0,L|432:130,1,95.1500029037476,8|8,0:3|0:3,0:0:0:0:
163,155,35890,2,0,L|159:254,1,95.1500029037476,8|0,0:0|0:0,0:0:0:0:
321,254,36223,2,0,L|425:260,1,95.1500029037476,8|0,0:3|0:0,0:0:0:0:
159,301,36556,6,0,L|54:303,2,95.1500029037476,4|8|0,0:0|0:3|0:0,0:0:0:0:
321,276,37056,2,0,L|324:166,1,95.1500029037476,8|8,0:3|0:0,0:0:0:0:
153,172,37390,2,0,L|44:166,1,95.1500029037476,0|8,0:0|0:3,0:0:0:0:
317,137,37723,6,0,L|415:134,1,95.1500029037476
249,186,38056,1,8,0:3:0:0:
414,191,38223,2,0,L|419:291,1,95.1500029037476
369,299,38473,1,0,0:0:0:0:
198,307,38556,2,0,L|82:313,1,95.1500029037476,8|8,0:0|0:3,0:0:0:0:
261,253,38890,1,0,0:0:0:0:
109,250,39056,1,8,0:3:0:0:
361,216,39223,6,0,L|367:96,1,95.1500029037476
202,114,39556,1,0,0:0:0:0:
364,99,39723,2,0,L|468:96,1,95.1500029037476,8|8,0:3|0:0,0:0:0:0:
306,155,40056,2,0,L|306:256,1,95.1500029037476,0|8,0:0|0:3,0:0:0:0:
54,245,40390,6,0,L|50:128,1,95.1500029037476,8|0,0:3|0:0,0:0:0:0:
203,140,40723,1,8,0:3:0:0:
39,114,40890,2,0,L|145:106,1,95.1500029037476
296,99,41223,2,0,L|302:220,1,95.1500029037476,8|0,0:0|0:0,0:0:0:0:
253,200,41473,1,0,0:0:0:0:
396,219,41556,2,0,L|495:225,1,95.1500029037476,8|8,0:3|0:3,0:0:0:0:
209,277,41890,6,0,L|204:166,1,95.1500029037476,8|8,0:3|0:3,0:0:0:0:
356,159,42223,1,0,0:0:0:0:
198,140,42390,2,0,L|89:135,1,95.1500029037476,8|8,0:3|0:0,0:0:0:0:
266,96,42723,2,0,L|375:93,1,95.1500029037476,8|0,0:3|0:0,0:0:0:0:
93,178,43056,6,0,L|86:274,1,95.1500029037476,8|0,0:3|0:0,0:0:0:0:
249,213,43390,2,0,L|254:310,1,95.1500029037476,8|8,0:3|0:3,0:0:0:0:
409,301,43723,1,8,0:3:0:0:
171,327,43890,2,0,L|62:326,1,95.1500029037476,8|0,0:0|0:0,0:0:0:0:
234,349,44223,2,0,L|337:346,1,95.1500029037476,8|0,0:0|0:0,0:0:0:0:
50,278,44556,6,0,P|58:219|196:166,1,190.300005807495,4|0,0:0|0:0,0:0:0:0:
327,153,45056,2,0,L|330:44,1,95.1500029037476,8|8,0:3|0:0,0:0:0:0:
170,56,45390,2,0,L|46:48,1,95.1500029037476,0|8,0:0|0:3,0:0:0:0:
346,245,45723,6,0,L|448:241,1,95.1500029037476,8|0,0:3|0:0,0:0:0:0:
279,262,46056,1,8,0:3:0:0:
451,273,46223,2,0,L|455:377,1,95.1500029037476,8|8,0:3|0:3,0:0:0:0:
199,343,46556,2,0,L|94:348,1,95.1500029037476,8|0,0:0|0:0,0:0:0:0:
264,271,46890,2,0,L|159:277,1,95.1500029037476,0|8,0:0|0:3,0:0:0:0:
418,259,47223,6,0,L|420:161,1,95.1500029037476,8|8,0:3|0:3,0:0:0:0:
257,162,47556,1,8,0:3:0:0:
419,157,47723,2,0,L|303:142,1,95.1500029037476,0|8,0:3|0:0,0:0:0:0:
485,116,48056,2,0,L|491:11,1,95.1500029037476,0|8,0:0|0:3,0:0:0:0:
252,27,48390,6,0,L|156:28,1,95.1500029037476,8|0,0:3|0:0,0:0:0:0:
309,62,48723,1,8,0:3:0:0:
153,93,48890,2,0,L|150:197,1,95.1500029037476,8|8,0:3|0:3,0:0:0:0:
312,197,49223,1,8,0:0:0:0:
151,238,49390,2,0,L|45:242,2,95.1500029037476,8|8|8,0:3|0:3|0:3,0:0:0:0:
410,237,49890,5,12,0:0:0:0:
276,218,50056,2,0,L|378:212,1,95.1500029037476,8|12,0:0|0:0,0:0:0:0:
114,201,50390,1,12,0:0:0:0:
265,182,50556,2,0,L|274:76,1,95.1500029037476,8|8,0:0|0:0,0:0:0:0:
33,82,50890,1,12,0:0:0:0:
298,73,51056,6,0,P|352:89|282:171,1,190.300005807495,0|8,0:0|0:0,0:0:0:0:
257,177,51473,1,8,0:0:0:0:
423,202,51556,2,0,L|429:315,1,95.1500029037476,8|8,0:0|0:3,0:0:0:0:
377,306,51806,1,8,0:3:0:0:
183,308,51890,2,0,L|64:304,1,95.1500029037476,8|8,0:3|0:3,0:0:0:0:
87,248,52140,1,8,0:3:0:0:
135,222,52223,1,8,0:3:0:0:
411,175,52390,6,0,L|193:159,1,190.300005807495,4|8,0:0|0:0,0:0:0:0:
366,225,52890,2,0,L|371:327,1,95.1500029037476,8|8,0:0|0:3,0:0:0:0:
217,328,53223,1,8,0:0:0:0:
373,350,53390,2,0,L|471:353,1,95.1500029037476,8|8,0:3|0:3,0:0:0:0:
191,216,53723,6,0,L|81:210,1,95.1500029037476,4|0,0:0|0:0,0:0:0:0:
348,167,54056,1,8,0:3:0:0:
86,160,54223,2,0,L|80:56,1,95.1500029037476,8|8,0:0|0:3,0:0:0:0:
130,57,54473,1,8,0:3:0:0:
296,52,54556,2,0,L|420:49,2,95.1500029037476,2|2|2,0:0|0:0|0:0,0:0:0:0:
26,125,55056,6,0,L|258:137,1,207.599993664551,12|8,0:3|0:3,0:0:0:0:
68,260,55556,2,0,L|67:142,1,103.799996832275,8|8,0:0|0:3,0:0:0:0:
218,157,55890,1,0,0:0:0:0:
61,141,56056,2,0,L|166:128,1,103.799996832275,8|8,0:3|0:0,0:0:0:0:
440,76,56390,6,0,P|436:142|326:217,1,207.599993664551,8|8,0:3|0:3,0:0:0:0:
73,191,56890,2,0,L|190:193,2,103.799996832275,8|0|8,0:0|0:0|0:3,0:0:0:0:
231,160,57390,1,8,0:3:0:0:
63,135,57556,1,8,0:0:0:0:
333,115,57723,6,0,L|112:103,1,207.599993664551,0|8,0:0|0:3,0:0:0:0:
283,170,58223,2,0,L|291:288,1,103.799996832275,8|0,0:0|0:0,0:0:0:0:
121,280,58556,2,0,L|234:284,1,103.799996832275,8|8,0:3|0:3,0:0:0:0:
48,279,58890,1,8,0:0:0:0:
317,289,59056,6,0,P|366:251|300:144,1,207.599993664551,0|8,0:0|0:3,0:0:0:0:
128,202,59556,1,8,0:0:0:0:
388,178,59723,2,0,L|454:172,1,51.8999984161377
232,132,59890,2,0,L|110:129,1,103.799996832275,8|0,0:3|0:0,0:0:0:0:
286,91,60223,1,8,0:0:0:0:
121,89,60390,2,0,L|116:23,1,51.8999984161377,8|8,0:0|0:0,0:0:0:0:
350,260,60556,6,0,L|465:255,1,103.799996832275,4|8,0:0|0:3,0:0:0:0:
282,232,60890,1,8,0:0:0:0:
450,199,61056,2,0,L|454:81,1,103.799996832275,8|0,0:3|0:0,0:0:0:0:
285,83,61390,1,8,0:3:0:0:
456,66,61556,1,8,0:0:0:0:
189,69,61723,6,0,P|121:92|72:225,1,207.599993664551,8|8,0:3|0:3,0:0:0:0:
223,217,62223,1,8,0:0:0:0:
72,263,62390,1,0,0:0:0:0:
328,297,62556,2,0,L|379:297,1,51.8999984161377,8|0,0:3|0:0,0:0:0:0:
220,317,62723,2,0,L|88:320,1,103.799996832275,8|8,0:3|0:0,0:0:0:0:
401,242,63056,6,0,P|391:173|249:120,1,207.599993664551,4|8,0:0|0:3,0:0:0:0:
24,114,63556,2,0,L|27:243,1,103.799996832275,8|0,0:0|0:0,0:0:0:0:
78,217,63806,1,0,0:0:0:0:
246,294,63890,2,0,L|377:301,1,103.799996832275,8|0,0:3|0:0,0:0:0:0:
189,278,64223,1,8,0:0:0:0:
465,285,64390,6,0,L|466:157,1,103.799996832275,4|0,0:0|0:0,0:0:0:0:
307,170,64723,1,8,0:3:0:0:
471,144,64890,2,0,L|361:135,1,103.799996832275,8|2,0:0|0:0,0:0:0:0:
195,120,65223,1,2,0:0:0:0:
450,88,65390,2,0,L|490:131,2,51.8999984161377,8|8|8,0:3|0:3|0:3,0:0:0:0:
167,283,65723,6,0,P|114:228|178:131,1,207.599993664551,12|8,0:3|0:3,0:0:0:0:
341,179,66223,2,0,L|345:65,1,103.799996832275,8|8,0:0|0:3,0:0:0:0:
196,82,66556,1,0,0:0:0:0:
354,70,66723,2,0,L|476:67,1,103.799996832275,8|8,0:3|0:0,0:0:0:0:
198,264,67056,6,0,P|200:227|339:142,1,207.599993664551,8|8,0:3|0:3,0:0:0:0:
149,119,67556,2,0,L|25:115,1,103.799996832275,8|0,0:0|0:0,0:0:0:0:
201,78,67890,1,8,0:3:0:0:
39,155,68056,2,0,L|33:265,1,103.799996832275,8|8,0:3|0:0,0:0:0:0:
306,265,68390,6,0,P|306:227|161:140,1,207.599993664551,8|8,0:3|0:3,0:0:0:0:
346,182,68890,2,0,L|346:65,1,103.799996832275,8|0,0:0|0:0,0:0:0:0:
190,72,69223,2,0,L|184:189,1,103.799996832275,8|8,0:3|0:3,0:0:0:0:
349,217,69556,1,8,0:0:0:0:
89,280,69723,5,8,0:3:0:0:
240,269,69890,2,0,L|250:146,1,103.799996832275,0|8,0:0|0:3,0:0:0:0:
16,128,70223,2,0,L|130:121,1,103.799996832275,8|0,0:0|0:0,0:0:0:0:
279,152,70556,2,0,L|290:32,1,103.799996832275,8|8,0:3|0:3,0:0:0:0:
123,49,70890,1,8,0:0:0:0:
397,183,71056,6,0,P|416:249|315:317,1,207.599993664551,4|8,0:0|0:3,0:0:0:0:
155,302,71556,1,8,0:0:0:0:
311,255,71723,2,0,P|304:206|165:134,1,207.599993664551,8|8,0:3|0:3,0:0:0:0:
335,96,72223,1,8,0:0:0:0:
91,107,72390,6,0,P|32:140|106:229,1,207.599993664551,8|8,0:3|0:3,0:0:0:0:
256,223,72890,1,8,0:0:0:0:
101,239,73056,1,0,0:0:0:0:
277,308,73223,1,8,0:3:0:0:
320,277,73306,1,0,0:0:0:0:
282,246,73390,1,8,0:3:0:0:
120,200,73556,1,8,0:0:0:0:
384,211,73723,6,0,L|387:86,1,103.799996832275,4|0,0:0|0:0,0:0:0:0:
228,94,74056,1,8,0:3:0:0:
384,83,74223,2,0,L|502:77,1,103.799996832275,8|0,0:0|0:0,0:0:0:0:
331,158,74556,2,0,L|336:289,1,103.799996832275,8|8,0:3|0:3,0:0:0:0:
187,286,74890,1,8,0:0:0:0:
345,298,75056,1,4,0:0:0:0:
84,227,75223,6,0,L|82:117,1,103.799996832275,8|4,0:3|0:0,0:0:0:0:
244,113,75556,2,0,L|355:103,1,103.799996832275,8|8,0:0|0:3,0:0:0:0:
96,279,75890,1,8,0:3:0:0:
249,279,76056,1,8,0:3:0:0:
96,279,76223,2,0,L|92:143,1,103.799996832275,8|8,0:3|0:3,0:0:0:0:
354,192,76556,6,0,L|454:188,1,86.5,4|0,0:0|0:0,0:0:0:0:
300,169,76890,2,0,L|295:63,1,86.5,8|8,0:3|0:3,0:0:0:0:
154,168,77223,2,0,L|151:62,1,86.5,8|8,0:0|0:3,0:0:0:0:
288,72,77556,1,8,0:3:0:0:
146,65,77723,1,8,0:3:0:0:
371,152,77890,6,0,L|473:155,1,86.5,0|8,0:0|0:3,0:0:0:0:
321,199,78223,2,0,L|316:319,1,86.5,8|8,0:3|0:3,0:0:0:0:
464,288,78556,1,0,0:0:0:0:
329,312,78723,2,0,L|323:358,2,43.25,8|0|0,0:3|0:0|0:0,0:0:0:0:
467,226,79056,2,0,L|472:165,1,43.25,8|0,0:3|0:0,0:0:0:0:
318,172,79223,6,0,L|208:168,2,86.5,8|0|8,0:3|0:0|0:3,0:0:0:0:
405,176,79723,1,8,0:3:0:0:
258,214,79890,2,0,L|158:215,1,86.5,8|8,0:0|0:3,0:0:0:0:
165,281,80223,1,8,0:3:0:0:
315,291,80390,1,8,0:3:0:0:
83,315,80556,6,0,L|80:211,1,86.5,0|8,0:0|0:3,0:0:0:0:
228,204,80890,1,8,0:3:0:0:
87,173,81056,2,0,L|34:167,1,43.25
218,143,81223,2,0,L|327:134,1,86.5,8|8,0:0|0:3,0:0:0:0:
162,162,81556,2,0,L|157:56,1,86.5,8|8,0:3|0:3,0:0:0:0:
201,65,81806,1,0,0:0:0:0:
355,190,81890,6,0,L|450:195,2,86.5,8|0|8,0:3|0:0|0:3,0:0:0:0:
213,191,82390,1,8,0:3:0:0:
440,236,82556,2,0,L|444:338,1,86.5,8|8,0:0|0:0,0:0:0:0:
302,326,82890,2,0,L|390:333,1,86.5,8|8,0:3|0:3,0:0:0:0:
130,318,83223,6,0,P|87:293|191:89,1,346,8|8,0:3|0:0,0:0:0:0:
222,101,83973,1,8,0:3:0:0:
267,127,84056,1,8,0:3:0:0:
223,156,84140,1,8,0:3:0:0:
179,172,84223,1,8,0:3:0:0:
415,217,84390,6,0,L|222:202,1,173,4|8,0:0|0:3,0:0:0:0:
387,167,84890,2,0,L|388:54,1,86.5,8|0,0:0|0:0,0:0:0:0:
344,76,85140,1,8,0:3:0:0:
193,78,85223,2,0,L|99:68,1,86.5,8|8,0:3|0:3,0:0:0:0:
96,126,85473,1,0,0:0:0:0:
140,157,85556,1,8,0:3:0:0:
381,234,85723,6,0,P|430:214|431:102,1,173,4|8,0:0|0:0,0:0:0:0:
296,132,86223,1,0,0:0:0:0:
443,355,86390,2,0,L|448:265,1,86.5,8|8,0:0|0:3,0:0:0:0:
290,203,86723,2,0,L|399:208,1,86.5,8|0,0:0|0:0,0:0:0:0:
114,245,87056,6,0,P|71:225|163:104,1,259.5,4|0,0:0|0:0,0:0:0:0:
