osu file format v14

[General]
AudioFilename: audio.mp3
AudioLeadIn: 0
PreviewTime: 54473
Countdown: 0
SampleSet: Soft
StackLeniency: 0.7
Mode: 2
LetterboxInBreaks: 0
WidescreenStoryboard: 1

[Editor]
Bookmarks: 6723
DistanceSpacing: 1
BeatDivisor: 4
GridSize: 32
TimelineZoom: 2

[Metadata]
Title:SPARK-AGAIN (TV Size)
TitleUnicode:SPARK-AGAIN (TV Size)
Artist:Aimer
ArtistUnicode:Aimer
Creator:Secre
Version:Conflagration
Source:炎炎ノ消防隊 弐ノ章
Tags:Fire Force enen no shouboutai brigade of flames 2nd second season japanese anime op opening 2 two jrock j-rock rock エメ chickenbible jemzuu ajamez greaper
BeatmapID:2513415
BeatmapSetID:1206887

[Difficulty]
HPDrainRate:6
CircleSize:4
OverallDifficulty:9
ApproachRate:9
SliderMultiplier:1.85
SliderTickRate:2

[Events]
//Background and Video events
0,0,"tamaki.jpg",0,0
//Break Periods
//Storyboard Layer 0 (Background)
//Storyboard Layer 1 (Fail)
//Storyboard Layer 2 (Pass)
//Storyboard Layer 3 (Foreground)
//Storyboard Layer 4 (Overlay)
//Storyboard Sound Samples

[TimingPoints]
557,324.324324324324,4,2,1,75,1,0
557,-117.647058823529,4,2,1,75,0,0
1723,333.333333333333,4,2,1,75,1,0
3056,-117.647058823529,4,2,1,75,0,0
55056,-100,4,2,1,85,0,1
76556,-117.647058823529,4,2,1,85,0,0
87556,-117.647058823529,4,2,1,50,0,0

[Colours]
Combo1 : 102,179,255
Combo2 : 255,140,140
Combo3 : 174,94,94

[HitObjects]
329,122,557,6,0,L|331:204,1,78.6250014996529,4|8,0:0|0:3,0:0:0:0:
176,217,881,1,8,0:0:0:0:
331,201,1043,1,8,0:3:0:0:
176,217,1205,1,8,0:0:0:0:
329,122,1367,2,0,P|389:94|406:25,1,117.937502249479,8|0,0:0|0:0,0:0:0:0:
190,70,1723,6,0,P|133:85|76:203,1,185,4|8,0:3|0:3,0:0:0:0:
235,196,2223,1,8,0:0:0:0:
77,161,2390,1,8,0:3:0:0:
235,196,2556,1,0,0:0:0:0:
77,161,2723,1,8,0:3:0:0:
352,129,2890,1,8,0:0:0:0:
125,161,3056,6,0,P|126:114|231:65,1,157.250002999306,8|8,0:3|0:3,0:0:0:0:
442,195,3556,1,8,0:0:0:0:
137,216,3723,1,2,0:0:0:0:
183,201,3806,1,0,0:0:0:0:
341,145,3890,1,8,0:3:0:0:
400,133,3973,1,0,0:0:0:0:
400,133,4056,1,8,0:3:0:0:
341,145,4140,1,0,0:0:0:0:
170,170,4223,2,0,L|164:111,1,39.3125007498264,8|0,0:0|0:0,0:0:0:0:
376,96,4390,6,0,P|390:142|297:204,1,157.250002999306,8|8,0:3|0:3,0:0:0:0:
151,138,4890,1,8,0:0:0:0:
302,194,5056,1,8,0:3:0:0:
151,138,5223,1,0,0:0:0:0:
302,194,5390,1,8,0:3:0:0:
44,129,5556,1,8,0:0:0:0:
318,121,5723,6,0,L|161:127,1,157.250002999306,8|8,0:3|0:3,0:0:0:0:
417,137,6223,1,8,0:0:0:0:
108,277,6390,1,2,0:0:0:0:
88,227,6473,1,0,0:0:0:0:
114,177,6556,1,0,0:0:0:0:
144,143,6639,1,0,0:0:0:0:
197,136,6723,1,4,0:0:0:0:
343,183,6890,1,8,0:0:0:0:
53,178,7056,6,0,L|229:183,1,157.250002999306,4|8,0:0|0:3,0:0:0:0:
52,116,7556,1,8,0:0:0:0:
210,182,7723,1,8,0:3:0:0:
52,116,7890,1,0,0:0:0:0:
210,182,8056,1,8,0:3:0:0:
439,151,8223,1,8,0:0:0:0:
180,258,8390,6,0,L|366:262,1,157.250002999306,8|8,0:3|0:3,0:0:0:0:
196,209,8890,2,0,L|188:116,1,78.6250014996529,8|0,0:0|0:0,0:0:0:0:
439,151,9223,1,8,0:3:0:0:
285,161,9390,1,0,0:0:0:0:
439,151,9556,1,8,0:0:0:0:
160,242,9723,6,0,P|169:185|272:146,1,157.250002999306,4|8,0:0|0:3,0:0:0:0:
407,150,10223,1,8,0:0:0:0:
251,141,10390,1,0,0:0:0:0:
88,137,10556,1,8,0:0:0:0:
251,141,10723,1,0,0:0:0:0:
88,137,10890,1,8,0:0:0:0:
342,241,11056,6,0,P|333:184|230:145,1,157.250002999306,8|8,0:3|0:3,0:0:0:0:
95,149,11556,1,0,0:0:0:0:
251,140,11723,1,8,0:0:0:0:
414,136,11890,2,0,L|317:137,1,78.6250014996529,8|8,0:3|0:0,0:0:0:0:
181,215,12223,2,0,L|242:216,1,39.3125007498264,8|0,0:3|0:0,0:0:0:0:
392,191,12390,2,0,L|464:191,1,39.3125007498264
226,106,12556,6,0,L|127:109,1,78.6250014996529,8|8,0:3|0:3,0:0:0:0:
296,175,12890,1,0,0:0:0:0:
147,108,13056,1,0,0:0:0:0:
296,175,13223,1,0,0:0:0:0:
147,108,13390,2,0,L|46:109,1,78.6250014996529,8|0,0:3|0:0,0:0:0:0:
325,78,13723,6,0,L|331:176,1,78.6250014996529,8|0,0:3|0:0,0:0:0:0:
181,214,14056,2,0,L|170:114,1,78.6250014996529
326,79,14390,2,0,L|409:78,1,78.6250014996529
255,123,14723,2,0,L|161:122,1,78.6250014996529,8|0,0:3|0:0,0:0:0:0:
326,79,15056,1,8,0:3:0:0:
183,241,15223,6,0,L|177:155,1,78.6250014996529,0|8,0:0|0:3,0:0:0:0:
417,161,15556,1,0,0:0:0:0:
273,185,15723,1,0,0:0:0:0:
417,161,15890,1,0,0:0:0:0:
273,185,16056,1,8,0:3:0:0:
417,161,16223,1,0,0:0:0:0:
170,237,16390,6,0,P|173:181|269:144,1,157.250002999306,8|0,0:3|0:0,0:0:0:0:
356,145,16890,1,0,0:0:0:0:
197,173,17056,2,0,L|370:175,1,157.250002999306,0|8,0:0|0:3,0:0:0:0:
205,255,17556,2,0,L|200:166,1,78.6250014996529
442,147,17890,5,8,0:3:0:0:
361,167,18056,2,0,L|268:166,2,78.6250014996529,8|0|0,0:3|0:0|0:0,0:0:0:0:
192,123,18556,2,0,L|94:123,2,78.6250014996529,0|8|0,0:0|0:3|0:0,0:0:0:0:
368,223,19056,6,0,P|365:164|258:128,1,157.250002999306,8|0,0:3|0:0,0:0:0:0:
136,196,19556,2,0,L|130:98,1,78.6250014996529
381,116,19890,2,0,L|474:114,2,78.6250014996529,0|8|8,0:0|0:3|0:0,0:0:0:0:
134,229,20390,6,0,P|134:179|242:124,1,157.250002999306,4|8,0:0|0:3,0:0:0:0:
463,111,20890,2,0,L|468:213,1,78.6250014996529,8|0,0:0|0:0,0:0:0:0:
312,232,21223,1,8,0:3:0:0:
466,189,21390,1,0,0:0:0:0:
146,177,21556,1,8,0:0:0:0:
388,207,21723,6,0,L|213:212,1,157.250002999306,4|8,0:0|0:3,0:0:0:0:
468,120,22223,2,0,L|473:232,1,78.6250014996529,8|0,0:0|0:0,0:0:0:0:
192,243,22556,1,8,0:3:0:0:
181,176,22640,1,0,0:0:0:0:
232,127,22723,1,8,0:3:0:0:
291,107,22806,1,0,0:0:0:0:
451,182,22890,1,8,0:0:0:0:
403,172,22973,1,0,0:0:0:0:
222,87,23056,1,8,0:3:0:0:
174,76,23140,1,0,0:0:0:0:
338,83,23223,6,0,L|431:83,1,78.6250014996529,8|8,0:3|0:3,0:0:0:0:
170,207,23556,2,0,L|161:103,1,78.6250014996529,8|0,0:0|0:0,0:0:0:0:
323,66,23890,2,0,L|336:173,1,78.6250014996529,0|8,0:0|0:3,0:0:0:0:
170,207,24223,1,8,0:0:0:0:
428,237,24390,6,0,P|427:188|336:130,1,157.250002999306,8|8,0:3|0:3,0:0:0:0:
191,140,24890,1,8,0:0:0:0:
344,216,25056,2,0,L|175:218,1,157.250002999306,0|8,0:0|0:3,0:0:0:0:
342,155,25556,1,8,0:0:0:0:
186,217,25723,1,8,0:3:0:0:
430,120,25890,6,0,L|436:229,1,78.6250014996529,0|8,0:0|0:3,0:0:0:0:
281,248,26223,1,8,0:0:0:0:
434,198,26390,1,0,0:0:0:0:
128,180,26556,1,8,0:3:0:0:
281,248,26723,1,0,0:0:0:0:
128,180,26890,1,8,0:0:0:0:
434,198,27056,6,0,P|431:132|334:87,1,157.250002999306,8|8,0:3|0:3,0:0:0:0:
205,117,27556,1,8,0:0:0:0:
355,93,27723,2,0,L|439:95,1,78.6250014996529,0|8,0:0|0:3,0:0:0:0:
205,117,28056,2,0,L|102:114,1,78.6250014996529,8|8,0:3|0:3,0:0:0:0:
368,185,28390,2,0,L|328:185,1,39.3125007498264
153,179,28556,6,0,L|41:176,2,78.6250014996529,4|8|8,0:0|0:3|0:0,0:0:0:0:
308,131,29056,2,0,L|213:130,2,78.6250014996529,8|0|8,0:3|0:0|0:3,0:0:0:0:
151,207,29556,1,8,0:0:0:0:
402,212,29723,6,0,L|406:117,1,78.6250014996529,8|0,0:3|0:0,0:0:0:0:
256,119,30056,2,0,L|170:119,1,78.6250014996529,8|8,0:3|0:0,0:0:0:0:
329,76,30390,2,0,L|413:78,1,78.6250014996529,0|8,0:0|0:3,0:0:0:0:
256,119,30723,1,8,0:3:0:0:
407,77,30890,1,8,0:0:0:0:
119,255,31056,6,0,P|122:202|218:162,1,157.250002999306,4|8,0:0|0:3,0:0:0:0:
361,149,31556,2,0,L|368:253,1,78.6250014996529,8|0,0:0|0:0,0:0:0:0:
310,260,31806,1,8,0:3:0:0:
149,164,31890,2,0,L|43:164,2,78.6250014996529,8|8|8,0:3|0:3|0:0,0:0:0:0:
423,133,32390,6,0,P|430:196|331:226,1,157.250002999306,4|8,0:0|0:3,0:0:0:0:
211,205,32890,1,8,0:0:0:0:
356,236,33056,1,8,0:3:0:0:
117,243,33223,2,0,L|105:147,1,78.6250014996529,8|8,0:0|0:3,0:0:0:0:
368,79,33556,2,0,L|381:182,1,78.6250014996529,8|0,0:0|0:0,0:0:0:0:
137,212,33890,5,4,0:0:0:0:
283,178,34056,1,0,0:0:0:0:
46,157,34223,1,0,0:0:0:0:
190,121,34390,2,0,L|288:122,1,78.6250014996529,0|8,0:0|0:0,0:0:0:0:
118,195,34723,2,0,L|113:91,1,78.6250014996529
267,111,35056,1,0,0:0:0:0:
114,116,35223,5,0,0:0:0:0:
354,175,35390,1,8,0:0:0:0:
198,228,35556,2,0,L|191:139,1,78.6250014996529,8|8,0:3|0:3,0:0:0:0:
349,117,35890,1,8,0:0:0:0:
191,149,36056,1,0,0:0:0:0:
431,90,36223,2,0,L|435:193,1,78.6250014996529,8|0,0:3|0:0,0:0:0:0:
134,233,36556,5,4,0:0:0:0:
286,208,36723,1,8,0:3:0:0:
134,233,36890,1,0,0:0:0:0:
370,156,37056,1,8,0:3:0:0:
216,163,37223,1,8,0:0:0:0:
370,156,37390,1,0,0:0:0:0:
216,163,37556,1,8,0:3:0:0:
453,223,37723,6,0,P|453:162|357:117,1,157.250002999306,0|8,0:0|0:3,0:0:0:0:
224,120,38223,2,0,L|128:125,1,78.6250014996529
298,76,38556,1,8,0:0:0:0:
145,124,38723,1,8,0:3:0:0:
298,76,38890,1,0,0:0:0:0:
456,73,39056,1,8,0:3:0:0:
145,124,39223,6,0,L|138:21,1,78.6250014996529
298,76,39556,1,0,0:0:0:0:
145,124,39723,2,0,L|46:123,1,78.6250014996529,8|8,0:3|0:0,0:0:0:0:
225,179,40056,2,0,L|317:181,1,78.6250014996529,0|8,0:0|0:3,0:0:0:0:
148,106,40390,1,8,0:3:0:0:
303,180,40556,5,0,0:0:0:0:
148,106,40723,1,8,0:3:0:0:
303,180,40890,2,0,L|411:181,1,78.6250014996529
229,123,41223,2,0,L|175:124,2,39.3125007498264,8|0|0,0:0|0:0|0:0,0:0:0:0:
387,104,41556,1,8,0:3:0:0:
229,123,41723,1,8,0:3:0:0:
470,196,41890,5,8,0:3:0:0:
316,197,42056,1,8,0:3:0:0:
470,196,42223,1,0,0:0:0:0:
225,164,42390,1,8,0:3:0:0:
374,152,42556,1,8,0:0:0:0:
225,164,42723,1,8,0:3:0:0:
374,152,42890,1,0,0:0:0:0:
134,218,43056,6,0,L|127:134,1,78.6250014996529,8|0,0:3|0:0,0:0:0:0:
281,128,43390,2,0,L|168:129,2,78.6250014996529,8|8|8,0:3|0:3|0:3,0:0:0:0:
41,232,43890,2,0,L|39:135,1,78.6250014996529,8|0,0:0|0:0,0:0:0:0:
293,101,44223,2,0,L|388:102,1,78.6250014996529,8|0,0:0|0:0,0:0:0:0:
141,247,44556,6,0,L|131:150,1,78.6250014996529,4|0,0:0|0:0,0:0:0:0:
292,102,44890,1,0,0:0:0:0:
141,246,45056,2,0,L|33:247,1,78.6250014996529,8|8,0:3|0:0,0:0:0:0:
223,166,45390,2,0,L|324:165,1,78.6250014996529,0|8,0:0|0:3,0:0:0:0:
145,105,45723,1,8,0:3:0:0:
301,165,45890,5,0,0:0:0:0:
145,105,46056,1,8,0:3:0:0:
301,165,46223,2,0,L|400:167,1,78.6250014996529,8|8,0:3|0:3,0:0:0:0:
223,243,46556,2,0,L|216:147,1,78.6250014996529,8|0,0:0|0:0,0:0:0:0:
374,111,46890,1,0,0:0:0:0:
217,164,47056,1,8,0:3:0:0:
458,128,47223,6,0,L|463:241,1,78.6250014996529,8|8,0:3|0:3,0:0:0:0:
310,234,47556,1,8,0:3:0:0:
61,182,47723,2,0,L|147:185,1,78.6250014996529,0|8,0:3|0:0,0:0:0:0:
294,108,48056,2,0,L|301:202,1,78.6250014996529,0|8,0:0|0:3,0:0:0:0:
144,230,48390,1,8,0:3:0:0:
299,186,48556,5,0,0:0:0:0:
56,143,48723,1,8,0:3:0:0:
207,132,48890,2,0,L|314:132,1,78.6250014996529,8|8,0:3|0:3,0:0:0:0:
130,75,49223,2,0,L|133:187,1,78.6250014996529,8|8,0:0|0:3,0:0:0:0:
290,184,49556,1,8,0:3:0:0:
132,153,49723,1,8,0:3:0:0:
455,187,49890,6,0,L|361:188,1,78.6250014996529,12|8,0:0|0:0,0:0:0:0:
224,109,50223,1,12,0:0:0:0:
461,125,50390,2,0,L|369:124,1,78.6250014996529,12|8,0:0|0:0,0:0:0:0:
224,109,50723,1,8,0:0:0:0:
382,124,50890,1,12,0:0:0:0:
122,233,51056,6,0,L|111:134,1,78.6250014996529
275,139,51390,1,8,0:0:0:0:
195,122,51473,1,8,0:0:0:0:
113,154,51556,1,8,0:0:0:0:
358,186,51723,2,0,L|434:187,2,39.3125007498264,8|8|8,0:3|0:3|0:3,0:0:0:0:
190,129,52056,1,8,0:3:0:0:
275,139,52140,1,8,0:3:0:0:
358,186,52223,1,8,0:3:0:0:
83,250,52390,6,0,P|81:197|186:147,1,157.250002999306,4|8,0:0|0:0,0:0:0:0:
398,149,52890,1,8,0:0:0:0:
245,168,53056,1,8,0:3:0:0:
398,149,53223,1,8,0:0:0:0:
111,138,53390,1,8,0:3:0:0:
268,122,53556,1,8,0:3:0:0:
18,219,53723,6,0,P|16:175|131:116,1,157.250002999306,4|8,0:0|0:3,0:0:0:0:
345,188,54223,2,0,L|441:188,1,78.6250014996529,8|8,0:0|0:3,0:0:0:0:
169,151,54556,1,2,0:0:0:0:
333,120,54723,1,2,0:0:0:0:
169,151,54890,1,2,0:0:0:0:
437,226,55056,6,0,L|221:227,1,185,12|8,0:3|0:3,0:0:0:0:
481,168,55556,2,0,L|487:71,1,92.5,8|8,0:0|0:3,0:0:0:0:
179,148,55890,1,0,0:0:0:0:
350,110,56056,1,8,0:3:0:0:
179,148,56223,1,8,0:0:0:0:
463,225,56390,6,0,P|463:171|334:107,1,185,8|8,0:3|0:3,0:0:0:0:
118,221,56890,2,0,L|25:221,2,92.5,8|0|8,0:0|0:0|0:3,0:0:0:0:
288,144,57390,1,8,0:3:0:0:
118,221,57556,1,8,0:0:0:0:
391,131,57723,6,0,L|397:238,1,92.5
222,231,58056,1,8,0:3:0:0:
396,223,58223,1,8,0:0:0:0:
222,231,58390,1,0,0:0:0:0:
475,191,58556,1,8,0:3:0:0:
301,183,58723,1,8,0:3:0:0:
475,191,58890,1,8,0:0:0:0:
150,139,59056,1,0,0:0:0:0:
308,112,59223,5,0,0:0:0:0:
475,97,59390,1,8,0:3:0:0:
195,199,59556,1,8,0:0:0:0:
370,158,59723,2,0,L|468:157,2,92.5,0|8|0,0:0|0:3|0:0,0:0:0:0:
195,132,60223,2,0,L|242:130,1,46.25,8|0,0:0|0:0,0:0:0:0:
431,99,60390,2,0,L|492:98,1,46.25,8|8,0:0|0:0,0:0:0:0:
226,72,60556,6,0,L|117:73,1,92.5,4|8,0:0|0:3,0:0:0:0:
411,198,60890,1,8,0:0:0:0:
144,227,61056,2,0,L|341:224,1,185,8|8,0:3|0:3,0:0:0:0:
152,151,61556,1,8,0:0:0:0:
325,125,61723,6,0,L|423:125,1,92.5,8|0,0:3|0:0,0:0:0:0:
245,110,62056,2,0,L|131:111,1,92.5,8|8,0:3|0:0,0:0:0:0:
323,63,62390,1,0,0:0:0:0:
152,110,62556,1,8,0:3:0:0:
323,63,62723,1,8,0:3:0:0:
152,110,62890,1,8,0:0:0:0:
438,106,63056,6,0,L|444:209,1,92.5,4|0,0:0|0:0,0:0:0:0:
168,219,63390,1,8,0:3:0:0:
336,184,63556,1,8,0:0:0:0:
168,219,63723,1,0,0:0:0:0:
454,173,63890,2,0,L|354:173,1,92.5,8|0,0:3|0:0,0:0:0:0:
191,147,64223,1,8,0:0:0:0:
361,173,64390,1,4,0:0:0:0:
85,229,64556,6,0,L|79:131,1,92.5,0|8,0:0|0:3,0:0:0:0:
343,112,64890,1,8,0:0:0:0:
178,119,65056,1,2,0:0:0:0:
446,172,65223,2,0,L|382:173,1,46.25,2|0,0:0|0:0,0:0:0:0:
178,119,65390,2,0,L|114:121,1,46.25,8|8,0:3|0:3,0:0:0:0:
359,73,65556,2,0,L|361:15,1,46.25,8|0,0:3|0:0,0:0:0:0:
76,223,65723,6,0,L|292:224,1,185,12|8,0:3|0:3,0:0:0:0:
31,168,66223,2,0,L|25:71,1,92.5,8|8,0:0|0:3,0:0:0:0:
333,148,66557,1,0,0:0:0:0:
162,110,66723,1,8,0:3:0:0:
333,148,66890,1,8,0:0:0:0:
49,225,67057,6,0,P|49:171|178:107,1,185,8|8,0:3|0:3,0:0:0:0:
394,221,67557,2,0,L|487:221,2,92.5,8|0|8,0:0|0:0|0:3,0:0:0:0:
224,144,68057,1,8,0:3:0:0:
394,221,68223,1,8,0:0:0:0:
121,131,68390,6,0,L|115:238,1,92.5,8|0,0:3|0:0,0:0:0:0:
290,231,68723,1,8,0:3:0:0:
116,223,68890,1,8,0:0:0:0:
290,231,69057,1,0,0:0:0:0:
37,191,69223,1,8,0:3:0:0:
211,183,69390,1,8,0:3:0:0:
37,191,69557,1,8,0:0:0:0:
362,139,69723,1,8,0:3:0:0:
203,111,69890,5,0,0:0:0:0:
38,95,70057,1,8,0:3:0:0:
317,199,70223,1,8,0:0:0:0:
144,157,70390,2,0,L|46:156,2,92.5,0|8|8,0:0|0:3|0:3,0:0:0:0:
317,132,70890,2,0,L|270:130,1,46.25,8|0,0:0|0:0,0:0:0:0:
81,99,71056,2,0,L|20:98,1,46.25,4|0,0:0|0:0,0:0:0:0:
286,72,71223,6,0,L|395:73,1,92.5,0|8,0:0|0:3,0:0:0:0:
101,198,71557,1,8,0:0:0:0:
368,227,71723,2,0,L|171:224,1,185,8|8,0:3|0:3,0:0:0:0:
360,151,72223,1,8,0:0:0:0:
187,125,72390,6,0,L|89:125,1,92.5,8|0,0:3|0:0,0:0:0:0:
267,110,72723,2,0,L|381:111,1,92.5,8|8,0:3|0:0,0:0:0:0:
189,63,73057,1,0,0:0:0:0:
360,110,73223,1,8,0:3:0:0:
189,63,73390,1,8,0:3:0:0:
360,110,73557,1,8,0:0:0:0:
74,106,73723,6,0,L|68:209,1,92.5,4|0,0:0|0:0,0:0:0:0:
344,219,74057,1,8,0:3:0:0:
176,184,74223,1,8,0:0:0:0:
344,219,74390,1,0,0:0:0:0:
58,173,74557,2,0,L|158:173,1,92.5,8|8,0:3|0:3,0:0:0:0:
321,147,74890,1,8,0:0:0:0:
151,173,75057,1,4,0:0:0:0:
427,229,75223,6,0,L|433:131,1,92.5,8|4,0:3|0:0,0:0:0:0:
169,112,75557,1,8,0:0:0:0:
334,119,75723,1,8,0:3:0:0:
70,224,75890,2,0,L|61:173,1,46.25,8|0,0:3|0:0,0:0:0:0:
226,155,76056,2,0,L|281:154,1,46.25,8|0,0:3|0:0,0:0:0:0:
107,81,76223,1,8,0:3:0:0:
50,83,76306,1,8,0:3:0:0:
50,83,76390,1,8,0:3:0:0:
107,81,76473,1,8,0:3:0:0:
321,155,76556,6,0,P|367:122|304:56,1,157.250002999306,4|8,0:0|0:3,0:0:0:0:
162,136,77056,1,8,0:3:0:0:
322,55,77223,2,0,L|431:55,2,78.6250014996529,8|8|8,0:0|0:3|0:3,0:0:0:0:
162,136,77723,1,8,0:3:0:0:
323,56,77890,6,0,L|331:159,1,78.6250014996529,0|8,0:0|0:3,0:0:0:0:
162,136,78223,1,8,0:3:0:0:
412,71,78390,2,0,P|417:145|326:174,1,157.250002999306,8|8,0:3|0:3,0:0:0:0:
200,105,78890,2,0,L|98:106,1,78.6250014996529,0|8,0:0|0:3,0:0:0:0:
356,243,79223,6,0,P|356:184|255:139,1,157.250002999306,8|8,0:3|0:3,0:0:0:0:
127,172,79723,1,8,0:3:0:0:
274,133,79890,2,0,L|366:132,2,78.6250014996529,8|8|8,0:0|0:3|0:3,0:0:0:0:
127,172,80390,1,8,0:3:0:0:
274,133,80556,6,0,L|385:133,1,78.6250014996529,0|8,0:0|0:3,0:0:0:0:
203,103,80890,1,8,0:3:0:0:
356,179,81056,2,0,L|468:180,1,78.6250014996529,0|8,0:0|0:0,0:0:0:0:
279,163,81390,2,0,L|191:164,2,78.6250014996529,8|8|8,0:3|0:3|0:3,0:0:0:0:
434,206,81890,6,0,P|432:144|330:102,1,157.250002999306,8|8,0:3|0:3,0:0:0:0:
202,138,82390,1,8,0:3:0:0:
352,107,82556,2,0,L|421:107,2,39.3125007498264,8|8|8,0:0|0:0|0:0,0:0:0:0:
202,138,82890,1,8,0:3:0:0:
352,107,83056,1,8,0:3:0:0:
83,247,83223,6,0,P|83:190|224:102,1,235.875004498959,8|0,0:3|0:0,0:0:0:0:
457,193,83890,1,8,0:0:0:0:
472,135,83973,1,8,0:3:0:0:
428,92,84056,1,8,0:3:0:0:
378,77,84140,1,8,0:3:0:0:
222,132,84223,2,0,L|165:133,1,39.3125007498264,8|0,0:3|0:0,0:0:0:0:
382,135,84390,6,0,P|393:191|307:240,1,157.250002999306,4|8,0:0|0:3,0:0:0:0:
166,227,84890,1,8,0:0:0:0:
319,242,85056,1,0,0:0:0:0:
242,174,85140,1,8,0:3:0:0:
166,227,85223,1,8,0:3:0:0:
319,242,85390,1,8,0:3:0:0:
166,227,85556,1,8,0:3:0:0:
448,204,85723,6,0,P|451:152|344:102,1,157.250002999306,4|8,0:0|0:0,0:0:0:0:
219,132,86223,1,0,0:0:0:0:
372,95,86390,1,8,0:0:0:0:
219,132,86556,1,8,0:3:0:0:
372,95,86723,1,8,0:0:0:0:
219,132,86890,1,0,0:0:0:0:
499,240,87056,6,0,P|502:174|357:99,1,235.875004498959,4|0,0:0|0:0,0:0:0:0:
