osu file format v14

[General]
AudioFilename: audio.mp3
AudioLeadIn: 0
PreviewTime: 54143
Countdown: 0
SampleSet: Soft
StackLeniency: 0.7
Mode: 0
LetterboxInBreaks: 0
WidescreenStoryboard: 0

[Editor]
DistanceSpacing: 1
BeatDivisor: 4
GridSize: 32
TimelineZoom: 1.6

[Metadata]
Title:SPARK-AGAIN (TV Size)
TitleUnicode:SPARK-AGAIN (TV Size)
Artist:Aimer
ArtistUnicode:Aimer
Creator:Nikakis
Version:Extra
Source:炎炎ノ消防隊 弐ノ章
Tags:japanese anime op opening fire force season 2 two jrock j-rock rock エメ basensorex elinor kuki1537 nymphe reform kujinn smoke browiec sotarks kiyoshi guarden [_Eli_]
BeatmapID:2512370
BeatmapSetID:1206396

[Difficulty]
HPDrainRate:5
CircleSize:3.8
OverallDifficulty:9
ApproachRate:9.2
SliderMultiplier:1.8
SliderTickRate:1

[Events]
//Background and Video events
Video,-444,"video.mp4"
0,0,"wallpaper.jpg",0,0
//Break Periods
//Storyboard Layer 0 (Background)
//Storyboard Layer 1 (Fail)
//Storyboard Layer 2 (Pass)
//Storyboard Layer 3 (Foreground)
//Storyboard Layer 4 (Overlay)
//Storyboard Sound Samples

[TimingPoints]
227,333.333333333333,4,2,1,70,1,0
227,-125,4,2,1,70,0,0
1392,-100,4,2,1,80,0,0
12225,-142.857142857143,4,2,1,60,0,0
15143,-142.857142857143,4,2,1,5,0,0
15226,-142.857142857143,4,2,1,60,0,0
17810,-142.857142857143,4,2,1,5,0,0
17893,-142.857142857143,4,2,1,60,0,0
20058,-100,4,2,1,70,0,0
26976,-100,4,2,1,5,0,0
27060,-100,4,2,1,70,0,0
33476,-100,4,2,1,5,0,0
33558,-111.111111111111,4,2,1,70,0,0
41143,-111.111111111111,4,2,1,5,0,0
41226,-111.111111111111,4,2,1,70,0,0
43558,-83.3333333333333,4,2,1,70,0,0
44225,-111.111111111111,4,2,1,70,0,0
49558,-90.9090909090908,4,2,1,80,0,0
54726,-83.3333333333333,4,2,1,90,0,1
76143,-83.3333333333333,4,2,1,5,0,0
76225,-100,4,2,1,80,0,0
81143,-100,4,2,1,5,0,0
81226,-100,4,2,1,80,0,0
82476,-100,4,2,1,5,0,0
82560,-100,4,2,1,80,0,0
82892,-142.857142857143,4,2,1,80,0,0
83476,-142.857142857143,4,2,1,5,0,0
83560,-142.857142857143,4,2,1,80,0,0
83725,-100,4,2,1,80,0,0

[Colours]
Combo1 : 106,240,255
Combo2 : 255,255,140
Combo3 : 219,88,252
Combo4 : 255,159,113

[HitObjects]
26,365,227,6,0,P|33:312|40:261,1,72,0|0,0:0|3:2,0:0:0:0:
222,148,560,5,8,0:2:0:0:
171,379,726,1,0,3:2:0:0:
40,89,893,5,8,0:2:0:0:
100,327,1060,1,0,3:2:0:0:
271,53,1393,6,0,B|324:40|373:25,1,90,6|0,3:2|0:2,0:0:0:0:
487,114,1726,1,0,3:2:0:0:
349,241,1893,2,0,P|294:230|230:217,1,90,10|0,0:2|3:2,0:0:0:0:
33,143,2226,1,2,0:2:0:0:
225,207,2393,1,2,3:2:0:0:
0,295,2560,1,10,0:2:0:0:
181,80,2726,6,0,P|196:159|211:265,1,180,2|0,3:2|3:2,0:0:0:0:
338,384,3226,1,10,0:2:0:0:
512,229,3393,2,0,P|498:168|379:163,1,180,2|0,0:2|3:2,0:0:0:0:
240,245,3893,1,8,0:2:0:0:
96,37,4060,6,0,B|192:64|181:-10|282:9,1,180,2|2,3:2|3:2,0:0:0:0:
396,180,4560,2,0,P|320:162|268:150,1,90,10|0,0:2|0:2,0:0:0:0:
125,268,4893,1,2,3:2:0:0:
311,187,5060,1,2,3:2:0:0:
251,384,5226,1,10,0:2:0:0:
60,229,5393,6,0,P|44:183|128:82,1,180,2|0,3:2|3:2,0:0:0:0:
316,0,5893,1,10,0:2:0:0:
212,184,6060,2,0,P|150:164|97:156,1,90,2|0,3:2|0:2,0:0:0:0:
370,133,6393,1,2,3:2:0:0:
187,257,6560,1,10,0:2:0:0:
464,375,6726,6,0,P|474:318|522:168,1,180,6|2,3:2|3:2,0:0:0:0:
332,73,7226,1,10,0:2:0:0:
407,218,7393,1,2,3:2:0:0:
506,57,7560,1,2,0:2:0:0:
298,162,7726,1,2,3:2:0:0:
512,237,7893,1,10,0:2:0:0:
330,40,8060,6,0,P|246:19|186:81,1,180,2|0,3:2|3:2,0:0:0:0:
20,252,8560,2,0,P|61:246|119:238,1,90,8|0,0:2|0:2,0:0:0:0:
308,185,8893,1,2,3:2:0:0:
92,131,9060,1,2,3:2:0:0:
189,322,9226,1,10,0:2:0:0:
391,100,9393,6,0,P|411:153|448:280,1,180,6|2,3:2|3:2,0:0:0:0:
358,384,9893,1,10,0:2:0:0:
225,173,10060,1,2,0:2:0:0:
225,173,10143,1,8,0:2:0:0:
225,173,10226,1,2,3:2:0:0:
158,384,10393,1,2,3:2:0:0:
320,147,10560,1,8,0:2:0:0:
74,299,10726,6,0,P|3:254|28:171,1,180,6|2,3:2|3:2,0:0:0:0:
154,35,11226,1,2,0:2:0:0:
274,236,11393,1,10,0:2:0:0:
322,0,11560,1,2,3:2:0:0:
133,196,11726,1,10,0:2:0:0:
343,96,11893,6,0,L|398:106,1,45,0|0,3:0|3:0,0:0:0:0:
484,298,12060,2,0,L|436:311,1,45,6|4,3:0|3:0,0:0:0:0:
245,127,12226,1,6,3:2:0:0:
139,336,12560,6,0,P|92:336|66:319,1,62.9999980773926,2|0,0:2|0:2,0:0:0:0:
4,228,12893,1,2,0:2:0:0:
144,165,13060,2,0,P|190:164|216:181,1,62.9999980773926,2|0,3:2|0:2,0:0:0:0:
320,267,13393,2,0,P|311:223|303:176,1,62.9999980773926,2|0,3:2|0:2,0:0:0:0:
226,98,13726,2,0,P|220:128|213:159,1,62.9999980773926,2|0,0:2|0:2,0:0:0:0:
375,57,14060,2,0,P|340:33|298:26,1,62.9999980773926,2|0,0:2|0:2,0:0:0:0:
226,98,14393,2,0,P|201:117|171:127,1,62.9999980773926,2|0,3:2|0:2,0:0:0:0:
31,60,14726,2,0,P|36:96|48:204,1,125.999996154785,2|0,3:2|3:0,0:0:0:0:
99,308,15226,6,0,P|138:294|183:300,1,62.9999980773926,2|0,0:2|0:2,0:0:0:0:
285,347,15560,1,2,0:2:0:0:
285,347,15726,1,2,3:2:0:0:
227,235,15893,1,2,0:2:0:0:
365,292,16060,2,0,P|379:247|390:210,1,62.9999980773926,2|0,3:2|0:2,0:0:0:0:
297,157,16393,2,0,P|283:112|272:75,1,62.9999980773926,2|0,0:2|0:2,0:0:0:0:
407,16,16726,2,0,P|449:3|491:15,1,62.9999980773926,2|0,0:2|0:2,0:0:0:0:
512,136,17060,2,0,P|470:149|428:137,1,62.9999980773926,2|0,3:2|0:2,0:0:0:0:
351,88,17393,1,2,0:2:0:0:
250,215,17560,6,0,P|294:199|340:186,1,94.499997116089,0|0,3:0|0:0,0:0:0:0:
380,206,17893,2,0,P|394:256|396:288,1,62.9999980773926,0|0,0:2|0:2,0:0:0:0:
308,384,18226,1,2,0:2:0:0:
252,286,18393,1,2,3:2:0:0:
381,346,18560,1,2,0:2:0:0:
224,264,18726,6,0,P|174:255|76:242,1,125.999996154785,2|0,3:2|0:2,0:0:0:0:
11,152,19226,2,0,P|6:109|18:73,1,62.9999980773926,0|0,0:2|0:2,0:0:0:0:
165,28,19560,1,2,0:2:0:0:
90,165,19726,1,2,3:2:0:0:
55,4,19893,1,10,0:2:0:0:
219,167,20060,6,0,P|281:155|408:130,1,180,6|0,3:2|3:0,0:0:0:0:
496,323,20560,2,0,P|451:324|410:306,1,90,8|0,0:2|0:2,0:0:0:0:
249,196,20893,1,0,3:2:0:0:
469,124,21060,1,0,3:2:0:0:
345,275,21226,1,10,0:2:0:0:
196,52,21393,6,0,P|168:107|141:230,1,180,6|0,3:2|3:0,0:0:0:0:
27,376,21893,2,0,P|12:330|-2:290,1,90,8|0,0:2|0:2,0:0:0:0:
134,154,22226,1,0,3:2:0:0:
154,172,22310,2,0,L|204:179,1,45,8|8,0:0|3:0,0:0:0:0:
272,257,22476,1,4,3:0:0:0:
251,275,22560,2,0,L|201:282,1,45,10|0,0:2|3:0,0:0:0:0:
91,278,22726,1,4,3:0:0:0:
278,184,22893,1,4,3:2:0:0:
278,184,23060,1,0,3:2:0:0:
123,51,23226,6,0,P|74:33|28:43,1,90,10|0,0:0|3:0,0:0:0:0:
116,207,23560,2,0,P|165:225|211:215,1,90,2|2,0:0|3:2,0:0:0:0:
316,95,23893,1,8,0:2:0:0:
430,236,24060,2,0,P|443:292|449:341,1,90,2|0,3:2|0:2,0:0:0:0:
287,261,24393,2,0,P|293:216|304:172,1,90,2|8,3:2|0:2,0:0:0:0:
425,34,24726,2,0,P|471:16|520:21,1,90,2|0,0:0|3:0,0:0:0:0:
370,159,25060,2,0,P|325:160|284:143,1,90,2|8,3:2|0:0,0:0:0:0:
142,33,25393,2,0,P|98:10|7:88,1,180,2|0,3:2|3:0,0:0:0:0:
143,198,25893,6,0,P|199:183|240:171,1,90,10|0,0:2|0:2,0:0:0:0:
357,256,26226,1,2,3:2:0:0:
237,362,26393,2,0,L|137:346,1,90,2|8,3:2|0:0,0:0:0:0:
26,180,26726,2,0,P|76:186|129:260,1,135,2|0,3:2|0:0,0:0:0:0:
151,289,27060,2,0,P|168:236|183:179,1,90,2|8,3:2|0:0,0:0:0:0:
273,76,27393,2,0,P|285:119|299:162,1,90,2|0,0:0|3:0,0:0:0:0:
331,289,27726,1,2,3:2:0:0:
464,175,27893,2,0,P|477:132|490:88,1,90,8|10,0:0|0:0,0:0:0:0:
440,24,28143,1,8,0:2:0:0:
440,24,28226,6,0,B|344:12|370:94|246:65,1,180,6|8,3:2|0:0,0:0:0:0:
94,40,28726,1,2,3:2:0:0:
163,184,28893,1,2,0:2:0:0:
272,46,29060,1,2,3:2:0:0:
120,117,29226,1,10,0:2:0:0:
319,33,29393,2,0,P|351:75|343:151,1,90,2|0,3:2|0:2,0:0:0:0:
223,209,29726,2,0,P|191:251|199:327,1,90,2|8,3:2|0:0,0:0:0:0:
333,377,30060,2,0,P|384:372|434:364,1,90,2|0,0:0|3:0,0:0:0:0:
512,199,30393,1,2,3:2:0:0:
439,352,30560,1,8,0:2:0:0:
304,184,30726,6,0,P|275:133|363:52,1,180,6|0,3:2|3:0,0:0:0:0:
174,239,31226,2,0,P|128:251|83:232,1,90,8|0,0:0|0:0,0:0:0:0:
54,210,31476,1,8,0:2:0:0:
54,210,31560,1,0,3:2:0:0:
239,126,31726,1,0,3:2:0:0:
32,9,31893,1,8,0:2:0:0:
152,217,32060,6,0,P|238:204|334:189,1,180,6|0,3:2|3:0,0:0:0:0:
509,17,32560,2,0,P|456:6|406:-3,1,90,8|0,0:0|3:0,0:0:0:0:
254,173,32893,2,0,P|268:215|282:258,1,90,14|4,0:0|3:0,0:0:0:0:
495,349,33226,2,0,P|467:275|390:260,1,135,10|0,0:2|0:0,0:0:0:0:
384,292,33560,6,0,P|326:303|279:317,1,80.9999975280763,6|0,3:2|3:0,0:0:0:0:
181,270,33893,1,10,3:0:0:0:
181,270,34060,1,6,3:0:0:0:
320,185,34226,2,0,P|340:144|335:92,1,80.9999975280763,8|2,0:0|3:2,0:0:0:0:
194,13,34560,1,4,3:0:0:0:
150,144,34726,1,2,3:0:0:0:
276,77,34893,1,0,3:0:0:0:
127,55,35060,1,10,3:0:0:0:
239,180,35226,2,0,P|288:173|336:169,1,80.9999975280763,2|4,3:2|3:0,0:0:0:0:
436,328,35560,6,0,P|387:321|339:317,1,80.9999975280763,8|4,0:0|3:0,0:0:0:0:
428,157,35893,2,0,P|465:193|478:240,1,80.9999975280763,2|8,3:2|3:0,0:0:0:0:
450,362,36226,5,2,3:2:0:0:
317,289,36393,1,8,3:0:0:0:
445,253,36560,1,10,3:0:0:0:
367,374,36726,1,6,3:0:0:0:
293,220,36893,2,0,P|286:166|276:118,1,80.9999975280763,8|6,0:0|3:0,0:0:0:0:
200,52,37226,1,0,3:0:0:0:
74,161,37393,2,0,P|29:180|-12:165,1,80.9999975280763,6|0,3:0|3:0,0:0:0:0:
146,42,37726,1,10,3:0:0:0:
211,171,37893,2,0,P|230:216|215:257,1,80.9999975280763,2|4,3:2|3:0,0:0:0:0:
202,286,38143,1,0,3:0:0:0:
202,286,38226,5,8,0:0:0:0:
89,228,38393,1,4,3:0:0:0:
50,341,38560,1,2,3:2:0:0:
97,196,38726,1,8,3:0:0:0:
221,353,38893,6,0,P|293:339|337:329,1,80.9999975280763,2|8,3:2|3:0,0:0:0:0:
416,256,39226,1,10,3:0:0:0:
416,256,39393,1,6,3:0:0:0:
301,154,39560,2,0,P|241:135|212:148,1,80.9999975280763,8|10,0:0|3:0,0:0:0:0:
70,191,39893,1,4,3:0:0:0:
144,64,40060,1,6,3:0:0:0:
202,167,40226,1,0,3:0:0:0:
45,130,40393,1,10,3:0:0:0:
185,76,40560,1,2,3:2:0:0:
130,210,40726,1,8,3:0:0:0:
314,160,40893,6,0,P|303:102|290:20,1,121.499996292114,8|0,0:0|0:0,0:0:0:0:
334,19,41226,2,0,P|386:7|427:17,1,80.9999975280763,2|10,3:0|3:0,0:0:0:0:
512,152,41560,1,2,3:2:0:0:
343,109,41726,1,6,3:0:0:0:
472,55,41893,1,10,3:0:0:0:
438,195,42060,1,2,3:2:0:0:
292,102,42226,6,0,P|279:150|264:207,1,80.9999975280763,8|6,0:0|3:0,0:0:0:0:
224,288,42560,1,2,3:2:0:0:
91,163,42726,2,0,P|101:202|112:241,1,80.9999975280763,4|4,3:0|3:0,0:0:0:0:
170,345,43060,1,0,3:0:0:0:
293,237,43226,2,0,P|331:214|386:220,1,80.9999975280763,0|0,3:0|3:0,0:0:0:0:
157,373,43560,6,0,P|75:357|17:343,1,107.999996704102,14|0,0:0|3:0,0:0:0:0:
252,155,43893,2,0,P|268:237|282:295,1,107.999996704102,10|0,0:0|0:0,0:0:0:0:
13,56,44226,6,0,P|57:26|110:21,1,80.9999975280763,6|0,3:2|3:0,0:0:0:0:
214,65,44560,1,10,3:0:0:0:
214,65,44726,1,2,3:2:0:0:
108,190,44893,2,0,P|53:183|28:177,1,80.9999975280763,8|6,0:0|3:0,0:0:0:0:
214,282,45226,1,0,3:0:0:0:
83,219,45393,1,10,3:0:0:0:
219,187,45560,1,0,3:0:0:0:
115,296,45726,1,10,3:0:0:0:
271,367,45893,2,0,P|320:360|368:356,1,80.9999975280763,2|4,3:2|3:0,0:0:0:0:
467,237,46226,6,0,P|418:230|370:226,1,80.9999975280763,8|4,0:0|3:0,0:0:0:0:
247,111,46560,2,0,P|237:69|250:24,1,80.9999975280763,2|10,3:0|3:0,0:0:0:0:
435,6,46893,1,2,3:2:0:0:
378,134,47060,1,8,3:0:0:0:
326,15,47226,1,6,3:0:0:0:
464,89,47393,1,2,3:0:0:0:
283,107,47560,6,0,P|229:114|181:124,1,80.9999975280763,8|6,0:0|3:0,0:0:0:0:
90,202,47893,1,0,3:0:0:0:
209,312,48060,2,0,P|254:331|295:316,1,80.9999975280763,10|4,3:0|3:0,0:0:0:0:
398,278,48393,1,2,3:0:0:0:
271,166,48560,2,0,P|226:147|185:162,1,80.9999975280763,6|8,3:0|3:0,0:0:0:0:
165,180,48810,1,0,3:0:0:0:
165,180,48893,6,0,P|160:235|152:296,1,80.9999975280763,8|0,0:0|0:0,0:0:0:0:
36,384,49226,1,2,3:2:0:0:
0,214,49393,1,6,3:0:0:0:
157,370,49560,6,0,P|229:356|280:345,1,99.0000030212403,6|8,3:2|0:0,0:0:0:0:
421,296,49893,1,10,0:2:0:0:
227,210,50060,2,0,P|155:196|106:185,1,99.0000030212403,2|8,3:2|0:0,0:0:0:0:
296,304,50393,1,10,0:2:0:0:
102,168,50560,1,0,3:2:0:0:
363,100,50726,6,0,P|415:86|465:111,1,99.0000030212403,2|0,0:0|0:0,0:0:0:0:
332,278,51060,2,0,L|284:270,2,49.5000015106202,10|8|8,3:0|0:0|0:0,0:0:0:0:
129,63,51393,2,0,P|78:42|3:64,1,99.0000030212403,6|8,3:0|0:0,0:0:0:0:
191,257,51726,1,6,3:0:0:0:
191,257,51810,1,8,0:2:0:0:
191,257,51893,1,10,0:2:0:0:
393,0,52060,6,0,P|420:60|437:166,1,148.50000453186,6|0,3:2|0:0,0:0:0:0:
437,185,52393,1,8,0:2:0:0:
251,0,52560,1,8,0:2:0:0:
155,234,52726,1,0,3:2:0:0:
414,93,52893,5,8,0:2:0:0:
113,37,53060,1,10,0:2:0:0:
242,265,53226,1,0,3:2:0:0:
371,0,53393,5,10,0:2:0:0:
464,287,53560,1,0,3:2:0:0:
223,66,53726,1,8,3:0:0:0:
66,361,53893,1,8,3:0:0:0:
66,361,53976,1,4,3:0:0:0:
66,361,54060,2,0,L|121:353,1,49.5000015106202,0|0,3:0|3:0,0:0:0:0:
346,250,54226,5,10,0:2:0:0:
104,175,54393,1,2,3:2:0:0:
224,353,54560,1,2,0:2:0:0:
419,130,54726,6,0,P|484:137|490:286,1,215.999993408203,6|0,3:2|3:0,0:0:0:0:
216,116,55226,2,0,P|231:26|241:-19,1,107.999996704102,10|0,0:2|3:2,0:0:0:0:
360,220,55560,1,2,0:2:0:0:
131,113,55726,1,2,3:2:0:0:
390,0,55893,1,10,0:2:0:0:
203,251,56060,6,0,B|108:209|85:329|-13:271,1,215.999993408203,2|0,3:2|3:2,0:0:0:0:
312,380,56560,2,0,P|382:370|420:339,1,107.999996704102,10|0,0:2|0:0,0:0:0:0:
501,187,56893,1,0,3:2:0:0:
263,151,57060,1,2,3:2:0:0:
462,338,57226,1,10,0:2:0:0:
201,246,57393,6,0,P|215:169|241:18,1,215.999993408203,6|2,3:2|3:2,0:0:0:0:
358,177,57893,1,10,0:2:0:0:
179,98,58060,1,0,0:2:0:0:
394,56,58226,1,2,3:2:0:0:
288,247,58393,1,0,3:2:0:0:
164,54,58560,1,10,0:2:0:0:
398,146,58726,1,0,3:2:0:0:
151,224,58893,5,2,0:2:0:0:
318,0,59060,1,0,3:2:0:0:
449,252,59226,1,10,0:2:0:0:
142,150,59393,1,2,0:2:0:0:
142,150,59476,1,8,0:2:0:0:
142,150,59560,2,0,P|162:59|178:3,1,107.999996704102,0|0,3:2|3:2,0:0:0:0:
335,0,59893,1,10,0:2:0:0:
181,242,60060,1,10,0:2:0:0:
181,242,60143,1,8,0:2:0:0:
181,242,60226,6,0,P|128:252|79:227,1,107.999996704102,6|0,3:2|3:2,0:0:0:0:
386,133,60560,1,10,0:2:0:0:
252,319,60726,1,2,3:2:0:0:
509,288,60893,2,0,P|496:212|484:156,1,107.999996704102,2|0,0:2|3:2,0:0:0:0:
345,20,61226,1,10,0:2:0:0:
146,216,61393,6,0,P|86:250|4:152,1,215.999993408203,2|2,3:2|3:2,0:0:0:0:
89,12,61893,1,8,0:2:0:0:
264,158,62060,2,0,P|289:217|272:262,1,107.999996704102,2|0,0:2|3:2,0:0:0:0:
99,383,62393,2,0,P|74:324|91:279,1,107.999996704102,2|8,3:2|0:2,0:0:0:0:
290,134,62726,6,0,B|411:97|378:204|514:159,1,215.999993408203,6|2,3:2|3:2,0:0:0:0:
272,256,63226,1,10,0:2:0:0:
502,300,63393,1,2,0:2:0:0:
379,87,63560,2,0,P|360:154|347:216,1,107.999996704102,2|0,3:2|3:2,0:0:0:0:
259,371,63893,1,10,0:2:0:0:
138,180,64060,1,6,3:2:0:0:
372,240,64226,1,0,0:2:0:0:
92,275,64393,1,0,0:2:0:0:
239,36,64560,2,0,P|258:103|271:165,1,107.999996704102,10|0,0:2|0:2,0:0:0:0:
125,358,64893,5,10,0:2:0:0:
71,361,64976,1,8,0:2:0:0:
26,335,65060,1,6,3:0:0:0:
3,287,65143,1,8,0:2:0:0:
12,234,65226,1,10,0:0:0:0:
49,196,65310,1,8,0:0:0:0:
87,187,65393,6,0,B|205:152|169:271|332:194,1,215.999993408203,6|0,3:2|3:0,0:0:0:0:
129,21,65893,2,0,P|72:-7|10:10,1,107.999996704102,10|0,0:2|3:2,0:0:0:0:
92,233,66226,1,2,0:2:0:0:
277,123,66393,1,2,3:2:0:0:
37,72,66560,1,10,0:2:0:0:
217,301,66726,6,0,P|322:279|429:260,1,215.999993408203,2|0,3:2|3:2,0:0:0:0:
273,23,67226,2,0,P|253:87|239:154,1,107.999996704102,10|0,0:2|0:0,0:0:0:0:
161,318,67560,1,0,3:2:0:0:
52,115,67726,1,2,3:2:0:0:
295,204,67893,1,10,0:2:0:0:
77,352,68060,6,0,P|7:321|27:192,1,215.999993408203,6|2,3:2|3:2,0:0:0:0:
209,138,68560,1,10,0:2:0:0:
137,312,68726,1,0,0:2:0:0:
40,128,68893,1,2,3:2:0:0:
235,229,69060,1,0,3:2:0:0:
26,302,69226,1,10,0:2:0:0:
209,138,69393,1,0,3:2:0:0:
289,375,69560,5,2,0:2:0:0:
42,250,69726,1,0,3:2:0:0:
296,94,69893,1,10,0:2:0:0:
202,350,70060,2,0,P|144:334|87:320,1,107.999996704102,2|0,0:0|3:0,0:0:0:0:
5,84,70393,1,0,3:2:0:0:
139,252,70560,1,10,0:2:0:0:
318,39,70726,6,0,P|384:23|444:139,1,215.999993408203,14|0,0:2|3:2,0:0:0:0:
376,277,71226,1,10,0:2:0:0:
204,85,71393,2,0,B|88:123|103:20|-1:64,1,215.999993408203,2|0,3:2|3:2,0:0:0:0:
138,278,71893,1,10,0:2:0:0:
402,91,72060,6,0,P|421:151|460:318,1,215.999993408203,2|2,3:2|3:2,0:0:0:0:
286,384,72560,1,8,0:2:0:0:
148,190,72726,2,0,P|93:162|37:168,1,107.999996704102,2|4,0:2|3:0,0:0:0:0:
0,383,73060,2,0,P|53:383|99:357,1,107.999996704102,2|8,3:2|0:2,0:0:0:0:
321,129,73393,6,0,P|245:197|151:158,1,215.999993408203,6|2,3:2|3:2,0:0:0:0:
39,34,73893,1,10,0:2:0:0:
136,246,74060,1,2,0:2:0:0:
282,33,74226,2,0,P|344:12|414:33,1,107.999996704102,2|0,3:2|3:2,0:0:0:0:
512,241,74560,1,10,0:2:0:0:
425,29,74726,1,6,3:2:0:0:
300,225,74893,2,0,P|228:254|165:229,1,107.999996704102,2|0,0:2|3:2,0:0:0:0:
0,73,75226,6,0,P|19:146|25:199,1,107.999996704102,10|0,0:2|3:2,0:0:0:0:
178,380,75560,2,0,P|186:326|201:274,1,107.999996704102,10|0,3:0|3:0,0:0:0:0:
447,139,75893,2,0,B|363:174|361:89|282:124,1,161.999995056153,12|0,3:0|0:0,0:0:0:0:
257,139,76226,5,6,3:2:0:0:
355,291,76393,1,0,3:2:0:0:
394,143,76560,1,8,3:0:0:0:
237,238,76726,1,6,3:0:0:0:
473,83,76893,2,0,P|495:171|511:258,1,180,10|4,0:0|3:0,0:0:0:0:
333,359,77393,5,2,3:2:0:0:
231,192,77560,1,2,3:2:0:0:
383,285,77726,1,8,3:0:0:0:
208,357,77893,1,2,3:2:0:0:
312,204,78060,1,6,3:0:0:0:
105,303,78226,6,0,P|25:255|58:153,1,180,8|0,0:0|3:0,0:0:0:0:
134,74,78726,1,8,3:0:0:0:
245,229,78893,1,2,3:2:0:0:
346,71,79060,1,4,3:0:0:0:
170,190,79226,1,8,3:0:0:0:
363,213,79393,1,2,3:2:0:0:
176,72,79560,6,0,P|128:56|-5:22,1,180,10|0,0:0|3:0,0:0:0:0:
171,227,80060,1,6,3:0:0:0:
289,77,80226,1,2,3:2:0:0:
355,286,80393,1,8,3:0:0:0:
216,165,80560,1,6,3:0:0:0:
294,345,80726,1,10,3:0:0:0:
294,345,80810,1,4,3:0:0:0:
294,345,80893,6,0,P|350:368|438:315,1,135,8|0,0:0|0:0,0:0:0:0:
445,323,81226,2,0,P|432:272|421:218,1,90,0|8,3:0|3:0,0:0:0:0:
307,107,81560,1,2,3:2:0:0:
232,256,81726,1,8,3:0:0:0:
392,166,81893,1,0,3:0:0:0:
212,88,82060,1,6,3:0:0:0:
458,13,82226,2,0,P|469:85|483:182,1,135,10|0,0:0|0:0,0:0:0:0:
449,180,82560,2,0,P|402:201|350:189,1,90,8|4,3:0|3:0,0:0:0:0:
216,69,82893,6,0,P|195:27|113:116,1,220.499993270874,6|0,3:2|0:2,0:0:0:0:
122,148,83560,1,8,0:2:0:0:
122,148,83643,1,8,3:0:0:0:
122,148,83726,2,0,L|192:137,1,45,4|0,3:0|3:0,0:0:0:0:
352,209,83893,1,10,0:0:0:0:
127,378,84060,6,0,P|60:355|78:239,1,180,6|2,3:2|3:2,0:0:0:0:
195,121,84560,1,10,0:2:0:0:
318,347,84726,1,2,0:2:0:0:
370,81,84893,1,2,3:2:0:0:
214,283,85060,1,10,0:2:0:0:
214,283,85143,1,8,3:0:0:0:
214,283,85226,1,8,0:2:0:0:
475,160,85393,2,0,P|464:90|458:32,1,90,6|0,3:2|0:0,0:0:0:0:
177,0,85726,5,10,0:2:0:0:
434,116,85893,1,2,0:2:0:0:
112,183,86060,5,10,0:2:0:0:
363,62,86226,1,2,3:2:0:0:
84,4,86393,2,0,P|42:-7|0:6,1,90,14|0,3:0|0:0,0:0:0:0:
236,255,86726,5,14,0:2:0:0:
