osu file format v14

[General]
AudioFilename: audio.mp3
AudioLeadIn: 0
PreviewTime: 54224
Countdown: 0
SampleSet: Soft
StackLeniency: 0.5
Mode: 0
LetterboxInBreaks: 0
WidescreenStoryboard: 1

[Editor]
DistanceSpacing: 1
BeatDivisor: 4
GridSize: 4
TimelineZoom: 1

[Metadata]
Title:SPARK-AGAIN (TV Size)
TitleUnicode:SPARK-AGAIN (TV Size)
Artist:Aimer
ArtistUnicode:Aimer
Creator:NexusQI
Version:Normal
Source:炎炎ノ消防隊 弐ノ章
Tags:エメ enen no shouboutai ni shou enn fire force brigade of flames 2nd second season op opening anime japanese nexus j-rock jrock rock
BeatmapID:2514753
BeatmapSetID:1207597

[Difficulty]
HPDrainRate:3
CircleSize:3.4
OverallDifficulty:4
ApproachRate:5
SliderMultiplier:1
SliderTickRate:1

[Events]
//Background and Video events
0,0,"fire force bg.jpg",0,0
//Break Periods
//Storyboard Layer 0 (Background)
//Storyboard Layer 1 (Fail)
//Storyboard Layer 2 (Pass)
//Storyboard Layer 3 (Foreground)
//Storyboard Layer 4 (Overlay)
//Storyboard Sound Samples

[TimingPoints]
223,333.333333333333,4,2,2,60,1,0
223,-100,4,2,2,60,0,0
389,-100,4,2,1,60,0,0
540,340.909090909091,4,2,1,60,1,0
863,348.837209302325,4,2,1,60,1,0
1037,355.029585798816,4,2,1,60,1,0
1392,333.333333333333,4,2,1,60,1,0
1392,-100,4,2,1,70,0,0
1558,333.333333333333,4,2,1,70,1,0
12224,-100,4,2,1,50,0,0
20057,-100,4,2,1,60,0,0
22891,-100,4,2,1,50,0,0
30724,-100,4,2,1,70,0,0
33557,-100,4,2,1,70,0,0
54724,-100,4,2,1,80,0,1
76224,-100,4,2,1,60,0,0
83559,-100,4,2,1,70,0,0

[Colours]
Combo1 : 250,133,69
Combo2 : 255,74,74
Combo3 : 223,202,53
Combo4 : 249,13,0

[HitObjects]
48,80,1392,6,0,P|93:52|153:73,1,100,6|0,3:2|3:2,0:0:0:0:
169,98,1891,1,10,0:0:0:0:
109,178,2224,2,0,B|85:168|85:168|52:178,2,50,2|2|10,0:2|3:2|0:2,0:0:0:0:
135,220,2724,2,0,L|247:220,1,100,2|0,3:2|3:0,0:0:0:0:
281,197,3224,1,10,0:2:0:0:
281,197,3391,2,0,B|261:141|261:141|281:81,1,100,2|2,3:2|3:2,0:0:0:0:
371,80,4057,6,0,L|482:81,1,100,6|0,3:2|3:0,0:0:0:0:
505,118,4557,1,10,0:2:0:0:
444,197,4891,2,0,L|380:196,2,50,2|2|8,3:2|3:2|0:0,0:0:0:0:
476,234,5391,2,0,B|496:273|496:273|477:347,1,100,2|0,3:2|3:0,0:0:0:0:
445,360,5891,1,10,0:2:0:0:
445,360,6057,2,0,B|379:354|379:354|344:375|344:375|279:372,1,150,2|10,3:2|0:2,0:0:0:0:
262,340,6724,5,6,3:2:0:0:
300,249,7057,1,2,3:2:0:0:
300,249,7224,2,0,B|306:219|306:219|297:189,1,50,10|2,0:2|3:2,0:0:0:0:
264,165,7557,2,0,L|203:165,2,50,2|2|10,0:2|3:2|0:2,0:0:0:0:
288,121,8057,2,0,B|338:104|338:104|394:126,1,100,2|2,3:2|3:2,0:0:0:0:
474,236,8891,2,0,L|477:305,2,50,2|2|10,3:2|3:2|0:2,0:0:0:0:
512,206,9391,6,0,L|512:89,1,100,6|2,3:2|3:2,0:0:0:0:
493,59,9891,2,0,B|467:49|467:49|424:60,1,50,8|2,0:3|3:2,0:0:0:0:
409,89,10224,1,2,3:2:0:0:
409,89,10391,1,2,3:2:0:0:
352,171,10724,6,0,P|311:191|257:165,1,100,6|2,3:2|3:2,0:0:0:0:
214,160,11224,2,0,L|215:233,1,50,2|10,0:0|0:2,0:0:0:0:
244,256,11557,1,2,3:2:0:0:
244,256,11724,1,10,0:2:0:0:
206,353,12057,1,8,0:3:0:0:
90,261,12557,6,0,L|17:261,2,50,2|2|2,0:2|0:2|0:2,0:0:0:0:
125,226,13057,1,2,3:2:0:0:
60,151,13391,2,0,B|40:109|40:109|59:42,1,100,2|2,3:2|0:0,0:0:0:0:
148,93,14057,2,0,L|270:91,1,100,2|2,0:0|3:2,0:0:0:0:
327,31,14724,5,2,3:2:0:0:
384,169,15224,2,0,B|411:178|411:178|446:170,2,50,2|2|2,0:2|0:2|0:2,0:0:0:0:
346,201,15724,2,0,L|347:258,1,50,2|2,3:2|0:2,0:0:0:0:
329,297,16057,6,0,B|281:314|281:314|218:293,1,100,2|2,3:2|0:2,0:0:0:0:
201,203,16724,2,0,L|201:81,1,100,2|2,0:2|3:2,0:0:0:0:
137,25,17391,2,0,L|83:25,2,50,2|0|0,0:0|3:0|3:0,0:0:0:0:
97,169,18224,2,0,L|96:231,2,50,2|2|2,0:2|3:2|0:2,0:0:0:0:
129,130,18724,6,0,B|202:107|202:107|273:133,1,150,2|0,3:2|0:0,0:0:0:0:
370,162,19557,2,0,L|370:108,2,50,2|2|10,0:2|3:2|0:2,0:0:0:0:
404,198,20057,6,0,P|447:183|498:218,1,100,6|0,3:2|3:0,0:0:0:0:
509,254,20557,1,8,0:0:0:0:
456,333,20891,2,0,L|386:334,1,50,0|0,3:0|3:0,0:0:0:0:
366,363,21224,1,10,0:2:0:0:
366,363,21391,2,0,B|316:333|279:358|279:358|204:358,1,150,6|8,3:2|0:0,0:0:0:0:
146,292,22224,2,0,B|126:250|126:250|148:184,1,100,2|10,3:2|0:2,0:0:0:0:
105,106,22891,5,4,3:2:0:0:
156,20,23224,1,10,0:2:0:0:
255,27,23557,1,2,0:2:0:0:
255,27,23724,2,0,L|324:28,1,50,2|8,3:2|0:0,0:0:0:0:
350,49,24057,6,0,B|326:90|326:90|341:149,1,100,2|2,3:2|3:2,0:0:0:0:
358,238,24724,2,0,B|310:224|310:224|254:238,1,100,2|2,0:2|3:2,0:0:0:0:
189,166,25391,2,0,P|134:146|89:171,1,100,2|0,3:2|3:0,0:0:0:0:
67,201,25891,1,10,0:2:0:0:
143,265,26224,2,0,L|204:262,2,50,2|2|10,3:2|3:2|0:2,0:0:0:0:
100,291,26724,6,0,B|80:332|80:332|100:398,1,100,2|2,3:2|3:2,0:0:0:0:
195,377,27391,2,0,L|306:375,1,100,2|2,0:2|3:2,0:0:0:0:
394,369,28057,2,0,B|363:306|363:306|396:214,1,150,10|8,0:2|0:0,0:0:0:0:
440,144,28891,2,0,L|505:142,2,50,2|2|10,0:2|3:2|0:2,0:0:0:0:
398,115,29391,6,0,L|281:113,1,100,2|2,3:2|3:2,0:0:0:0:
257,204,30057,2,0,P|207:219|149:191,1,100,2|2,0:0|3:2,0:0:0:0:
118,197,30557,1,10,0:2:0:0:
118,197,30724,6,0,B|96:155|96:155|114:83,1,100,6|0,3:2|3:0,0:0:0:0:
121,55,31224,1,10,0:0:0:0:
216,84,31557,2,0,L|217:144,2,50,2|0|10,3:2|3:0|0:2,0:0:0:0:
256,54,32057,2,0,B|298:36|298:36|366:59,1,100,6|0,3:2|3:0,0:0:0:0:
394,31,32557,1,8,0:0:0:0:
458,100,32891,1,10,0:2:0:0:
393,176,33224,1,10,0:2:0:0:
467,242,33557,6,0,B|483:279|483:279|461:354,1,100,6|10,3:2|0:3,0:0:0:0:
430,371,34057,1,6,0:3:0:0:
351,309,34391,1,2,3:0:0:0:
266,362,34724,2,0,L|149:362,1,100,2|10,3:0|0:3,0:0:0:0:
120,382,35224,1,2,3:3:0:0:
43,317,35557,1,8,0:0:0:0:
86,227,35891,1,2,3:0:0:0:
184,245,36224,6,0,B|236:232|236:232|293:249,1,100,2|10,3:0|0:3,0:0:0:0:
316,280,36724,1,6,0:3:0:0:
390,213,37057,1,2,0:3:0:0:
323,138,37391,2,0,L|323:38,1,100,6|6,0:3|0:3,0:0:0:0:
283,6,37891,1,2,3:0:0:0:
190,44,38224,1,8,0:0:0:0:
93,18,38557,1,2,3:0:0:0:
16,89,38891,6,0,B|-3:126|-3:126|19:202,1,100,2|2,3:0|3:0,0:0:0:0:
49,216,39391,1,6,0:3:0:0:
4,305,39724,1,2,0:3:0:0:
87,362,40057,2,0,B|130:359|130:359|146:372|146:372|188:370,1,100,10|2,0:3|0:3,0:0:0:0:
226,355,40557,1,2,3:0:0:0:
181,265,40891,1,8,0:0:0:0:
254,196,41224,2,0,L|255:127,1,50,2|10,3:0|0:3,0:0:0:0:
224,106,41557,6,0,L|152:110,2,50,2|6|2,3:3|0:3|0:3,0:0:0:0:
253,65,42057,2,0,B|298:50|298:50|352:64,1,100,2|6,3:3|0:3,0:0:0:0:
396,46,42557,1,2,3:0:0:0:
432,231,43557,1,10,0:0:0:0:
482,317,43891,1,10,0:0:0:0:
399,370,44224,6,0,L|285:368,1,100,6|10,3:2|0:3,0:0:0:0:
267,329,44724,1,2,3:0:0:0:
321,245,45057,1,6,0:3:0:0:
235,193,45391,2,0,P|218:142|242:86,1,100,10|10,0:3|0:3,0:0:0:0:
270,68,45891,1,2,3:0:0:0:
191,4,46224,1,8,0:0:0:0:
127,81,46557,2,0,B|103:72|103:72|67:84,1,50,2|6,3:0|0:3,0:0:0:0:
44,115,46891,6,0,L|47:236,1,100,2|6,3:0|0:3,0:0:0:0:
24,260,47391,1,2,3:0:0:0:
113,305,47724,1,2,0:3:0:0:
195,248,48057,2,0,P|236:230|298:255,1,100,6|10,0:3|0:3,0:0:0:0:
324,277,48557,1,10,0:3:0:0:
356,182,48891,1,8,0:0:0:0:
282,114,49224,2,0,B|273:88|273:88|286:51,1,50,2|8,3:0|0:3,0:0:0:0:
321,38,49557,6,0,L|436:37,1,100,6|10,3:2|0:0,0:0:0:0:
465,60,50057,1,6,3:2:0:0:
460,160,50391,2,0,L|462:215,1,50,10|0,0:0|3:0,0:0:0:0:
499,235,50724,2,0,L|502:349,1,100,2|2,0:0|3:2,0:0:0:0:
463,365,51224,1,10,0:0:0:0:
463,365,51391,1,2,3:2:0:0:
391,295,51724,2,0,B|365:287|365:287|322:299,1,50,10|10,0:3|0:0,0:0:0:0:
318,337,52057,6,0,L|202:335,1,100,6|8,3:2|0:0,0:0:0:0:
180,367,52557,1,8,0:0:0:0:
109,295,52891,2,0,L|105:232,1,50,8|10,0:0|0:3,0:0:0:0:
75,212,53224,1,2,3:2:0:0:
75,212,53391,2,0,B|46:156|46:156|72:57,1,150,14|8,0:2|0:0,0:0:0:0:
165,48,54224,2,0,L|163:116,2,50,10|2|2,0:0|3:2|0:0,0:0:0:0:
207,21,54724,6,0,B|276:5|276:5|321:25,1,100,6|0,3:2|3:2,0:0:0:0:
332,57,55224,1,10,0:2:0:0:
421,102,55557,2,0,L|422:171,1,50,2|2,0:2|3:2,0:0:0:0:
395,195,55891,1,10,0:2:0:0:
395,195,56057,2,0,B|345:180|345:180|282:195,1,100,2|0,3:2|3:0,0:0:0:0:
252,210,56557,1,10,0:0:0:0:
122,134,57057,2,0,P|95:125|64:133,1,50,2|10,3:2|0:2,0:0:0:0:
39,164,57391,6,0,B|21:198|21:198|44:277,1,100,6|2,3:2|3:2,0:0:0:0:
64,298,57891,2,0,L|117:297,1,50,10|2,0:2|0:2,0:0:0:0:
158,274,58224,1,2,3:2:0:0:
254,314,58557,1,10,0:2:0:0:
254,314,58724,2,0,L|255:252,2,50,2|2|2,3:2|0:2|3:2,0:0:0:0:
227,356,59224,2,0,B|200:364|200:364|164:351,1,50,10|2,0:2|3:2,0:0:0:0:
48,292,59891,1,10,0:2:0:0:
48,292,60057,6,0,B|20:236|20:236|45:142,1,150,10|10,0:2|0:2,0:0:0:0:
79,117,60724,2,0,B|138:111|138:111|169:128|169:128|229:124,1,150,2|10,3:2|0:2,0:0:0:0:
264,90,61391,1,2,3:2:0:0:
309,181,61724,1,2,3:2:0:0:
236,249,62057,1,2,0:2:0:0:
290,332,62391,1,2,3:2:0:0:
385,302,62724,6,0,B|429:288|429:288|499:302,1,100,6|2,3:2|3:2,0:0:0:0:
510,257,63224,2,0,L|510:196,1,50,10|2,0:2|3:2,0:0:0:0:
486,162,63557,1,2,3:2:0:0:
415,88,63891,2,0,L|416:34,1,50,10|6,0:2|3:2,0:0:0:0:
372,13,64224,2,0,B|345:1|345:1|312:13,1,50,2|2,0:2|3:2,0:0:0:0:
294,47,64557,1,10,0:2:0:0:
237,129,64891,2,0,L|186:131,2,50,10|2|10,0:2|3:2|0:2,0:0:0:0:
281,152,65391,6,0,B|298:189|298:189|281:268,1,100,6|0,3:2|3:2,0:0:0:0:
266,293,65891,1,10,0:2:0:0:
186,353,66224,2,0,L|115:350,1,50,2|2,0:2|3:2,0:0:0:0:
91,366,66557,1,10,0:2:0:0:
91,366,66724,2,0,B|70:317|70:317|92:250,1,100,2|0,3:2|3:0,0:0:0:0:
118,236,67224,1,10,0:0:0:0:
46,103,67724,2,0,B|37:74|37:74|48:36,1,50,2|10,3:2|0:2,0:0:0:0:
77,19,68057,5,6,3:2:0:0:
155,80,68391,2,0,L|152:150,2,50,2|10|2,3:2|0:2|0:2,0:0:0:0:
199,56,68891,2,0,B|249:43|249:43|308:66,1,100,2|10,3:2|0:2,0:0:0:0:
337,84,69391,2,0,L|336:12,2,50,2|2|2,3:2|0:2|3:2,0:0:0:0:
378,112,69891,2,0,L|375:167,1,50,10|2,0:2|0:0,0:0:0:0:
235,207,70557,1,10,0:2:0:0:
235,207,70724,6,0,P|171:178|91:200,1,150,14|10,0:2|0:2,0:0:0:0:
58,230,71391,2,0,B|30:278|30:278|70:378,1,150,2|10,3:2|0:2,0:0:0:0:
112,380,72057,1,2,3:2:0:0:
195,312,72391,1,2,3:2:0:0:
272,375,72724,1,2,3:2:0:0:
354,318,73057,1,2,3:2:0:0:
311,227,73391,6,0,P|294:178|316:124,1,100,6|2,3:2|3:2,0:0:0:0:
351,109,73891,2,0,B|378:101|378:101|404:110,1,50,10|2,0:0|0:0,0:0:0:0:
440,136,74224,1,2,3:2:0:0:
466,232,74557,2,0,L|466:284,1,50,10|2,0:2|3:2,0:0:0:0:
438,324,74891,2,0,P|412:333|381:324,1,50,2|0,0:2|3:0,0:0:0:0:
358,290,75224,1,10,0:3:0:0:
266,333,75557,1,6,0:3:0:0:
112,205,76224,6,0,B|86:148|86:148|114:52,1,150,6|4,3:2|0:3,0:0:0:0:
148,31,76891,1,10,0:2:0:0:
277,117,77391,1,2,3:0:0:0:
277,117,77557,2,0,L|381:114,1,100,2|2,0:3|3:3,0:0:0:0:
422,93,78057,2,0,B|447:144|447:144|419:252,1,150,6|0,0:3|3:0,0:0:0:0:
360,311,78891,6,0,B|316:284|276:309|276:309|200:311,1,150,2|4,3:0|0:3,0:0:0:0:
169,290,79557,1,10,0:0:0:0:
61,193,80057,1,6,0:3:0:0:
61,193,80224,2,0,L|-8:190,2,50,2|8|2,0:3|0:3|3:0,0:0:0:0:
102,164,80724,2,0,B|79:61|79:61|106:15,1,150,6|0,0:3|3:0,0:0:0:0:
194,59,81557,6,0,B|269:49|269:49|318:75|318:75|399:66,1,200,2|10,3:0|0:0,0:0:0:0:
500,231,82891,1,6,3:2:0:0:
226,374,84057,6,0,L|215:268,1,100,6|2,3:2|3:2,0:0:0:0:
257,246,84557,2,0,L|252:182,1,50,8|2,0:0|3:2,0:0:0:0:
279,155,84891,1,2,3:2:0:0:
279,155,85057,1,2,3:2:0:0:
242,61,85391,6,0,B|204:42|204:42|128:54,1,100,6|10,3:2|0:2,0:0:0:0:
107,81,85891,2,0,L|109:152,1,50,2|10,0:2|0:2,0:0:0:0:
96,182,86224,1,2,3:2:0:0:
96,182,86391,1,10,0:2:0:0:
132,275,86724,5,6,3:2:0:0:
