osu file format v14

[General]
AudioFilename: audio.mp3
AudioLeadIn: 0
PreviewTime: 54224
Countdown: 0
SampleSet: Soft
StackLeniency: 0.5
Mode: 0
LetterboxInBreaks: 0
WidescreenStoryboard: 1

[Editor]
DistanceSpacing: 0.6
BeatDivisor: 4
GridSize: 4
TimelineZoom: 1.4

[Metadata]
Title:SPARK-AGAIN (TV Size)
TitleUnicode:SPARK-AGAIN (TV Size)
Artist:Aimer
ArtistUnicode:Aimer
Creator:NexusQI
Version:Insane
Source:炎炎ノ消防隊 弐ノ章
Tags:エメ enen no shouboutai ni shou enn fire force brigade of flames 2nd second season op opening anime japanese nexus j-rock jrock rock
BeatmapID:2514752
BeatmapSetID:1207597

[Difficulty]
HPDrainRate:5
CircleSize:4
OverallDifficulty:8
ApproachRate:9
SliderMultiplier:1.6
SliderTickRate:1

[Events]
//Background and Video events
0,0,"fire force bg.jpg",0,0
//Break Periods
//Storyboard Layer 0 (Background)
//Storyboard Layer 1 (Fail)
//Storyboard Layer 2 (Pass)
//Storyboard Layer 3 (Foreground)
//Storyboard Layer 4 (Overlay)
//Storyboard Sound Samples

[TimingPoints]
223,333.333333333333,4,2,2,60,1,0
223,-111.111111111111,4,2,2,60,0,0
389,-111.111111111111,4,2,1,60,0,0
540,340.909090909091,4,2,1,60,1,0
863,348.837209302325,4,2,1,60,1,0
1037,355.029585798816,4,2,1,60,1,0
1392,333.333333333333,4,2,1,60,1,0
1392,-100,4,2,1,70,0,0
1558,333.333333333333,4,2,1,70,1,0
8307,-100,4,2,1,5,0,0
8391,-100,4,2,1,70,0,0
12224,-133.333333333333,4,2,1,50,0,0
20057,-111.111111111111,4,2,1,60,0,0
22891,-117.647058823529,4,2,1,50,0,0
30724,-111.111111111111,4,2,1,70,0,0
33557,-111.111111111111,4,2,1,70,0,0
53641,-111.111111111111,4,2,1,5,0,0
53724,-111.111111111111,4,2,1,70,0,0
54724,-90.9090909090909,4,2,1,80,0,1
61641,-90.9090909090909,4,2,1,5,0,1
61724,-90.9090909090909,4,2,1,80,0,1
76224,-111.111111111111,4,2,1,60,0,0
83557,-99.9999999999999,4,2,1,70,0,0

[Colours]
Combo1 : 250,133,69
Combo2 : 255,74,74
Combo3 : 223,202,53
Combo4 : 249,13,0

[HitObjects]
304,54,223,6,0,P|333:40|380:46,1,71.9999978027344,2|0,0:3|3:0,0:0:0:0:
398,203,540,1,8,0:0:0:0:
350,123,710,1,0,3:0:0:0:
483,190,863,1,8,0:0:0:0:
365,286,1037,1,0,3:0:0:0:
365,286,1392,6,0,B|300:280|300:280|267:306|267:306|194:301,1,160,6|0,3:2|3:2,0:0:0:0:
144,207,1891,2,0,L|223:212,1,80,10|0,0:0|3:2,0:0:0:0:
332,138,2224,1,2,0:2:0:0:
223,212,2391,1,2,3:2:0:0:
266,78,2557,1,10,0:2:0:0:
396,207,2724,6,0,B|424:151|424:151|394:58,1,160,2|0,3:2|3:0,0:0:0:0:
253,0,3224,1,10,0:2:0:0:
394,58,3391,1,2,3:2:0:0:
394,58,3474,1,8,0:0:0:0:
394,58,3557,1,0,3:0:0:0:
266,78,3724,2,0,P|226:73|192:49,1,80,2|8,3:2|0:0,0:0:0:0:
113,196,4057,6,0,B|100:85|100:85|107:110|139:139,1,160,6|0,3:2|3:0,0:0:0:0:
34,208,4557,2,0,L|51:297,1,80,10|0,0:2|3:0,0:0:0:0:
70,318,4807,1,8,0:0:0:0:
70,318,4891,1,2,3:2:0:0:
182,247,5057,1,2,3:2:0:0:
123,384,5224,1,8,0:0:0:0:
332,323,5391,6,0,B|246:297|246:297|216:337|151:327,1,160,2|0,3:2|3:0,0:0:0:0:
70,318,5891,1,10,0:2:0:0:
175,136,6057,2,0,B|205:167|185:242|185:242|164:199,1,160,2|0,3:2|3:0,0:0:0:0:
94,83,6557,1,10,0:2:0:0:
271,183,6724,6,0,B|337:176|337:176|364:195|364:195|433:191,1,160,6|2,3:2|3:2,0:0:0:0:
360,80,7224,1,10,0:2:0:0:
424,191,7391,1,2,3:2:0:0:
413,19,7557,2,0,P|378:0|339:0,1,80,2|2,0:2|3:2,0:0:0:0:
457,97,7891,1,10,0:2:0:0:
272,51,8057,6,0,L|142:60,1,120,2|0,3:2|0:0,0:0:0:0:
86,14,8391,2,0,B|121:63|121:63|94:162,1,160,2|0,3:2|3:0,0:0:0:0:
77,211,8807,1,8,0:0:0:0:
77,211,8891,2,0,L|85:253,2,40,2|8|2,3:2|0:0|3:2,0:0:0:0:
9,332,9224,1,10,0:2:0:0:
163,215,9391,6,0,L|336:194,1,160,6|2,3:2|3:2,0:0:0:0:
413,278,9891,2,0,L|306:291,1,80,8|2,0:3|3:2,0:0:0:0:
302,316,10141,1,8,0:0:0:0:
302,316,10224,1,2,3:2:0:0:
479,355,10391,2,0,L|373:369,1,80,2|8,3:2|0:3,0:0:0:0:
496,148,10724,6,0,B|490:259|490:259|485:225|455:198,1,160,6|2,3:2|3:2,0:0:0:0:
322,175,11224,2,0,P|364:154|411:160,1,80,2|10,0:0|0:2,0:0:0:0:
470,214,11557,1,2,3:2:0:0:
266,242,11724,2,0,P|238:208|235:169,1,80,10|0,0:2|3:0,0:0:0:0:
274,69,12057,1,8,0:3:0:0:
274,69,12141,1,8,0:3:0:0:
274,69,12224,5,4,3:2:0:0:
196,105,12391,1,2,3:2:0:0:
132,23,12557,2,0,P|159:16|192:24,1,60.0000022888184,2|2,0:2|0:2,0:0:0:0:
58,57,12891,2,0,P|49:12|67:-22,2,60.0000022888184,2|2|0,0:2|3:2|0:0,0:0:0:0:
35,149,13391,6,0,B|75:153|104:129|104:129|133:134|145:160,1,120.000004577637,2|2,3:2|0:0,0:0:0:0:
263,267,14057,2,0,B|222:246|222:246|139:273,1,120.000004577637,2|2,0:0|3:2,0:0:0:0:
151,268,14557,1,8,0:1:0:0:
259,350,14724,6,0,B|308:343|308:343|332:357|332:357|390:350,1,120.000004577637,2|0,3:2|3:2,0:0:0:0:
344,217,15224,2,0,L|357:278,1,60.0000022888184,2|2,0:2|0:2,0:0:0:0:
415,158,15557,2,0,L|428:219,2,60.0000022888184,2|2|2,0:2|3:2|0:2,0:0:0:0:
331,111,16057,6,0,B|400:75|400:75|457:87,1,120.000004577637,2|2,3:2|0:2,0:0:0:0:
237,46,16724,2,0,B|208:22|173:26|173:26|153:56|113:59,1,120.000004577637,2|2,0:2|3:2,0:0:0:0:
132,55,17224,1,8,0:1:0:0:
310,133,17391,6,0,B|315:58,2,60.0000022888184,2|0|0,0:0|3:0|3:0,0:0:0:0:
314,74,17891,1,0,0:0:0:0:
172,219,18224,2,0,L|182:302,2,60.0000022888184,2|2|2,0:2|3:2|0:2,0:0:0:0:
332,339,18724,6,0,B|253:317|253:317|218:369|153:361,1,180.000006866455,2|0,3:2|0:0,0:0:0:0:
387,253,19557,2,0,L|464:243,1,60.0000022888184,2|2,0:2|3:2,0:0:0:0:
446,245,19891,1,10,0:2:0:0:
293,143,20057,6,0,B|280:184|307:240|307:240|313:206|338:184,1,143.999995605469,6|0,3:2|3:0,0:0:0:0:
346,86,20557,2,0,P|321:65|269:67,1,71.9999978027344,8|0,0:0|0:0,0:0:0:0:
182,115,20891,1,0,3:0:0:0:
182,115,21057,1,0,3:0:0:0:
293,143,21224,1,10,0:2:0:0:
112,44,21391,6,0,B|86:121|86:121|118:174,1,143.999995605469,6|0,3:2|3:0,0:0:0:0:
58,287,21891,2,0,L|139:276,1,71.9999978027344,8|0,0:0|0:0,0:0:0:0:
230,344,22224,1,2,3:2:0:0:
230,344,22307,1,8,0:0:0:0:
230,344,22391,2,0,L|172:337,1,35.9999989013672,8|0,0:3|3:0,0:0:0:0:
299,310,22557,2,0,L|351:305,3,35.9999989013672,10|8|8|8,0:2|0:3|0:3|0:3,0:0:0:0:
232,253,22891,5,4,3:2:0:0:
311,181,23057,1,0,3:0:0:0:
225,89,23224,2,0,L|230:164,1,68.0000012969971,10|0,0:2|3:0,0:0:0:0:
271,16,23557,1,2,0:2:0:0:
381,99,23724,2,0,L|310:88,1,68.0000012969971,2|8,3:2|0:0,0:0:0:0:
450,45,24057,6,0,B|475:93|475:93|453:181,1,136.000002593994,2|2,3:2|3:2,0:0:0:0:
373,229,24557,1,8,0:0:0:0:
497,301,24724,2,0,L|517:214,1,68.0000012969971,2|0,0:2|3:0,0:0:0:0:
313,359,25057,1,2,3:2:0:0:
409,311,25224,1,8,0:0:0:0:
232,358,25391,6,0,B|229:315|257:296|257:296|262:255|231:226,1,136.000002593994,2|0,3:2|3:0,0:0:0:0:
93,288,25891,2,0,L|165:278,1,68.0000012969971,10|0,0:2|0:0,0:0:0:0:
21,217,26224,2,0,L|103:206,1,68.0000012969971,2|2,3:2|3:2,0:0:0:0:
210,158,26557,1,10,0:2:0:0:
129,26,26724,6,0,B|140:122|140:122|149:100|165:91,1,136.000002593994,2|2,3:2|3:2,0:0:0:0:
58,108,27224,1,8,0:0:0:0:
210,158,27391,2,0,P|259:168|315:120,1,102.000001945496,2|0,0:2|0:0,0:0:0:0:
332,116,27724,1,2,3:2:0:0:
264,49,27891,1,8,0:0:0:0:
425,105,28057,1,10,0:2:0:0:
425,105,28141,1,8,0:0:0:0:
425,105,28224,6,0,L|414:180,1,68.0000012969971,4|0,3:2|3:0,0:0:0:0:
330,246,28557,1,8,0:0:0:0:
415,172,28724,1,2,3:2:0:0:
376,315,28891,2,0,P|345:329|311:329,1,68.0000012969971,2|2,0:2|3:2,0:0:0:0:
240,273,29224,1,10,0:2:0:0:
436,374,29391,6,0,P|460:302|412:242,1,136.000002593994,2|2,3:2|3:2,0:0:0:0:
330,246,29891,1,8,0:0:0:0:
416,173,30057,2,0,P|446:173|490:200,1,68.0000012969971,2|0,0:0|3:0,0:0:0:0:
340,132,30391,1,2,3:2:0:0:
431,253,30557,1,10,0:2:0:0:
272,186,30724,6,0,B|246:133|246:133|275:48,1,143.999995605469,6|0,3:2|3:0,0:0:0:0:
91,63,31224,2,0,P|128:43|179:53,1,71.9999978027344,10|0,0:0|3:0,0:0:0:0:
185,72,31474,1,8,0:0:0:0:
185,72,31557,1,2,3:2:0:0:
126,200,31724,1,0,3:0:0:0:
249,135,31891,1,10,0:2:0:0:
106,282,32057,6,0,B|152:295|187:259|187:259|225:267|239:293,1,143.999995605469,6|0,3:2|3:0,0:0:0:0:
350,345,32557,1,8,0:0:0:0:
234,285,32724,1,0,3:0:0:0:
422,384,32891,2,0,P|432:355|414:296,1,71.9999978027344,10|8,0:2|0:3,0:0:0:0:
306,213,33224,2,0,P|326:236|386:250,1,71.9999978027344,10|8,0:2|0:3,0:0:0:0:
509,185,33557,6,0,B|427:150|427:150|362:177,1,143.999995605469,6|10,3:2|0:3,0:0:0:0:
476,2,34057,2,0,L|465:73,1,71.9999978027344,6|8,0:3|0:0,0:0:0:0:
392,12,34391,2,0,L|379:82,1,71.9999978027344,2|8,3:0|0:3,0:0:0:0:
175,114,34724,6,0,B|211:78|276:94|276:94|229:127,1,143.999995605469,2|10,3:0|0:3,0:0:0:0:
107,75,35224,2,0,P|97:118|121:172,1,71.9999978027344,2|4,3:3|0:3,0:0:0:0:
141,261,35557,1,8,0:0:0:0:
155,239,35724,1,4,0:3:0:0:
219,354,35891,1,2,3:0:0:0:
208,328,36057,1,4,0:3:0:0:
33,341,36224,6,0,L|104:335,1,71.9999978027344,2|8,3:0|0:3,0:0:0:0:
226,247,36557,1,10,0:3:0:0:
226,247,36641,1,2,0:0:0:0:
226,247,36724,2,0,L|144:237,1,71.9999978027344,6|8,0:3|0:0,0:0:0:0:
291,169,37057,2,0,L|209:156,1,71.9999978027344,2|0,0:3|3:0,0:0:0:0:
109,96,37391,6,0,P|155:45|238:66,1,143.999995605469,6|6,0:3|0:3,0:0:0:0:
148,186,37891,2,0,L|63:183,1,71.9999978027344,2|4,3:0|0:3,0:0:0:0:
45,217,38141,1,4,0:3:0:0:
45,217,38224,1,8,0:0:0:0:
0,129,38391,1,4,0:3:0:0:
125,69,38557,1,2,3:0:0:0:
109,96,38724,1,8,0:3:0:0:
284,91,38891,6,0,B|341:84|341:84|374:105|374:105|436:98,1,143.999995605469,2|2,3:0|3:0,0:0:0:0:
303,173,39391,2,0,L|228:169,1,71.9999978027344,6|8,0:3|0:0,0:0:0:0:
361,261,39724,2,0,L|289:257,1,71.9999978027344,2|0,0:3|3:0,0:0:0:0:
424,353,40057,6,0,B|452:260|452:260|424:195,1,143.999995605469,10|2,0:3|0:3,0:0:0:0:
512,107,40557,2,0,L|499:198,1,71.9999978027344,2|8,3:0|0:3,0:0:0:0:
418,91,40891,1,8,0:0:0:0:
512,189,41057,1,8,0:3:0:0:
512,189,41141,1,8,0:3:0:0:
512,189,41224,1,2,3:0:0:0:
480,34,41391,1,10,0:3:0:0:
346,144,41557,6,0,P|325:92|335:60,1,71.9999978027344,2|6,3:3|0:3,0:0:0:0:
382,17,41891,1,2,0:3:0:0:
420,171,42057,2,0,P|385:215|352:222,1,71.9999978027344,2|10,3:3|0:0,0:0:0:0:
274,186,42391,1,6,0:3:0:0:
372,220,42557,1,2,3:0:0:0:
219,326,42724,6,0,B|200:218|200:218|216:245|244:260,1,143.999995605469,4|0,0:3|3:0,0:0:0:0:
366,301,43224,2,0,L|287:295,1,71.9999978027344,0|0,3:0|0:0,0:0:0:0:
147,384,43557,5,10,0:0:0:0:
219,326,43724,1,0,3:0:0:0:
48,270,43891,1,10,0:0:0:0:
131,299,44057,1,0,0:0:0:0:
99,145,44224,6,0,L|108:229,1,71.9999978027344,6|0,3:2|0:0,0:0:0:0:
42,81,44557,1,10,0:3:0:0:
173,98,44724,2,0,L|182:179,1,71.9999978027344,2|8,3:0|0:0,0:0:0:0:
264,206,45057,2,0,L|257:121,1,71.9999978027344,6|0,0:3|3:0,0:0:0:0:
396,276,45391,6,0,B|321:262|321:262|289:294|247:283,1,143.999995605469,10|10,0:3|0:3,0:0:0:0:
414,364,45891,2,0,L|337:352,1,71.9999978027344,2|4,3:0|0:3,0:0:0:0:
456,222,46224,1,8,0:0:0:0:
482,308,46391,1,8,0:3:0:0:
370,192,46557,1,2,3:0:0:0:
396,276,46724,1,6,0:3:0:0:
301,125,46891,6,0,P|335:104|376:107,1,71.9999978027344,2|8,3:0|0:3,0:0:0:0:
269,220,47224,1,6,0:3:0:0:
205,77,47391,2,0,L|219:174,1,71.9999978027344,2|8,3:0|0:0,0:0:0:0:
113,27,47724,2,0,L|128:103,1,71.9999978027344,2|0,0:3|3:0,0:0:0:0:
326,4,48057,6,0,B|226:1|226:1|254:9|275:31,1,143.999995605469,6|10,0:3|0:3,0:0:0:0:
388,84,48557,2,0,L|292:82,1,71.9999978027344,10|0,0:3|3:0,0:0:0:0:
471,59,48891,2,0,L|460:150,1,71.9999978027344,8|0,0:0|0:0,0:0:0:0:
441,235,49224,1,2,3:0:0:0:
378,168,49391,1,8,0:3:0:0:
376,295,49557,6,0,P|403:318|463:325,1,71.9999978027344,6|8,3:2|0:0,0:0:0:0:
510,285,49891,1,10,0:0:0:0:
308,344,50057,2,0,P|293:300|299:267,1,71.9999978027344,6|8,3:2|0:0,0:0:0:0:
378,168,50391,1,10,0:0:0:0:
297,276,50557,1,0,3:0:0:0:
313,109,50724,6,0,B|362:80|362:80|464:108,1,143.999995605469,2|2,0:0|3:2,0:0:0:0:
472,137,51141,1,8,0:0:0:0:
472,137,51224,1,10,0:0:0:0:
382,6,51391,1,2,3:2:0:0:
382,6,51474,1,0,3:0:0:0:
382,6,51557,2,0,L|437:21,1,35.9999989013672,8|8,0:2|0:0,0:0:0:0:
512,56,51724,1,10,0:3:0:0:
512,56,51807,1,8,0:0:0:0:
512,56,51891,1,10,0:0:0:0:
302,53,52057,6,0,B|244:44|244:44|211:60|211:60|144:53,1,143.999995605469,6|8,3:2|0:0,0:0:0:0:
25,10,52557,1,8,0:0:0:0:
89,183,52724,1,0,3:0:0:0:
89,183,52891,2,0,L|81:91,1,71.9999978027344,8|10,0:0|0:3,0:0:0:0:
162,54,53224,1,2,3:2:0:0:
6,133,53391,6,0,L|14:240,1,107.999996704102,14|0,0:2|0:0,0:0:0:0:
9,280,53724,1,8,0:0:0:0:
157,223,53891,1,8,0:0:0:0:
72,346,54057,1,0,3:0:0:0:
72,346,54141,1,0,3:0:0:0:
72,346,54224,5,10,0:0:0:0:
150,312,54391,1,2,3:2:0:0:
228,276,54557,1,2,0:0:0:0:
298,357,54724,6,0,B|332:292|332:292|292:178,1,176.000005371094,6|0,3:2|3:2,0:0:0:0:
406,73,55224,2,0,L|393:174,1,88.000002685547,10|0,0:2|3:0,0:0:0:0:
330,35,55557,1,2,0:2:0:0:
394,160,55724,1,2,3:2:0:0:
455,1,55891,1,10,0:2:0:0:
280,113,56057,6,0,B|210:101|210:101|168:123|168:123|89:114,1,176.000005371094,2|0,3:2|3:0,0:0:0:0:
226,189,56557,2,0,L|321:207,1,88.000002685547,10|0,0:0|0:0,0:0:0:0:
177,276,56891,1,0,3:2:0:0:
312,205,57057,1,2,3:2:0:0:
239,359,57224,1,10,0:2:0:0:
378,312,57391,6,0,B|322:278|268:283|268:283|298:293|320:329,1,176.000005371094,6|2,3:2|3:2,0:0:0:0:
481,253,57891,1,10,0:2:0:0:
378,312,58057,1,2,0:2:0:0:
399,138,58224,2,0,L|409:256,1,88.000002685547,2|0,3:2|3:0,0:0:0:0:
343,56,58557,1,10,0:2:0:0:
478,105,58724,5,2,3:2:0:0:
293,120,58891,2,0,P|263:79|272:22,1,88.000002685547,2|2,0:2|3:2,0:0:0:0:
428,27,59224,1,10,0:2:0:0:
297,206,59391,1,2,3:2:0:0:
297,206,59474,1,8,0:0:0:0:
297,206,59557,2,0,P|247:195|219:155,1,88.000002685547,0|0,3:0|3:0,0:0:0:0:
184,55,59891,1,10,0:2:0:0:
24,145,60057,1,10,0:2:0:0:
24,145,60141,1,8,0:0:0:0:
24,145,60224,6,0,B|144:122|144:122|112:143|97:169,1,176.000005371094,4|10,3:2|0:2,0:0:0:0:
229,242,60724,2,0,B|156:232|156:232|119:254|119:254|41:247,1,176.000005371094,2|0,3:2|3:0,0:0:0:0:
229,242,61224,1,10,0:2:0:0:
119,358,61391,6,0,P|169:319|244:354,1,132.00000402832,2|0,3:2|0:0,0:0:0:0:
265,366,61724,1,2,3:2:0:0:
229,242,61891,1,8,0:0:0:0:
341,312,62057,2,0,L|458:308,1,88.000002685547,2|0,0:2|3:0,0:0:0:0:
465,345,62307,1,8,0:0:0:0:
465,345,62391,1,2,3:2:0:0:
341,312,62557,1,8,0:0:0:0:
496,145,62724,6,0,B|525:192|497:269|497:269|488:239|453:221,1,176.000005371094,6|2,3:2|3:2,0:0:0:0:
436,86,63224,1,10,0:2:0:0:
313,176,63391,1,2,3:2:0:0:
313,176,63474,1,8,0:0:0:0:
313,176,63557,2,0,L|406:162,1,88.000002685547,2|0,3:2|3:0,0:0:0:0:
469,231,63891,1,10,0:2:0:0:
336,84,64057,6,0,L|230:99,1,88.000002685547,6|2,3:2|0:2,0:0:0:0:
382,19,64391,1,2,3:2:0:0:
187,50,64557,2,0,B|164:91|164:91|197:174,1,132.00000402832,10|0,0:2|0:0,0:0:0:0:
271,229,64891,1,10,0:2:0:0:
271,229,64974,1,8,0:0:0:0:
271,229,65057,2,0,L|269:284,1,44.0000013427735,2|8,3:2|0:0,0:0:0:0:
251,348,65224,1,10,0:2:0:0:
79,285,65391,6,0,B|119:250|193:258|193:258|161:272|149:295,1,176.000005371094,6|0,3:2|3:2,0:0:0:0:
22,344,65891,2,0,P|-3:290|10:238,1,88.000002685547,10|0,0:2|3:0,0:0:0:0:
134,181,66224,1,2,0:2:0:0:
0,262,66391,1,2,3:2:0:0:
70,114,66557,1,10,0:2:0:0:
192,258,66724,6,0,B|228:187|228:187|189:91,1,176.000005371094,2|0,3:2|3:0,0:0:0:0:
368,124,67224,2,0,P|320:98|280:106,1,88.000002685547,10|0,0:0|0:0,0:0:0:0:
448,89,67557,1,0,3:2:0:0:
309,186,67724,1,2,3:2:0:0:
381,39,67891,1,10,0:2:0:0:
451,263,68057,6,0,B|416:229|377:232|377:232|343:275|298:267,1,176.000005371094,6|2,3:2|3:2,0:0:0:0:
173,251,68557,1,10,0:2:0:0:
257,353,68724,1,2,0:2:0:0:
108,310,68891,2,0,P|82:252|95:205,1,88.000002685547,2|2,3:2|3:2,0:0:0:0:
187,135,69224,1,10,0:2:0:0:
84,229,69391,5,2,3:2:0:0:
129,72,69557,2,0,P|172:50|220:58,1,88.000002685547,2|2,0:2|3:2,0:0:0:0:
67,18,69891,1,10,0:2:0:0:
271,108,70057,2,0,P|289:56|277:12,1,88.000002685547,2|0,0:0|3:2,0:0:0:0:
187,135,70391,1,0,3:0:0:0:
283,24,70557,1,10,0:2:0:0:
270,192,70724,6,0,B|311:199|350:146|350:146|395:146|423:180,1,176.000005371094,14|0,0:2|3:0,0:0:0:0:
270,192,71224,1,10,0:2:0:0:
498,217,71391,2,0,B|515:93|515:93|504:129|481:144,1,176.000005371094,2|0,3:2|3:0,0:0:0:0:
498,217,71891,1,10,0:2:0:0:
512,12,72057,6,0,B|470:4|434:54|434:54|385:8|335:23,1,176.000005371094,2|2,3:2|3:2,0:0:0:0:
512,12,72557,1,8,0:0:0:0:
307,76,72724,1,2,3:2:0:0:
307,76,72807,1,8,0:0:0:0:
307,76,72891,2,0,P|276:26|282:12,2,44.0000013427735,0|8|2,3:0|0:0|3:2,0:0:0:0:
429,48,73224,1,8,0:0:0:0:
324,162,73391,6,0,B|266:176|228:126|228:126|177:132|163:171,1,176.000005371094,6|2,3:2|3:2,0:0:0:0:
96,307,73891,1,10,0:0:0:0:
170,155,74057,1,2,0:0:0:0:
17,236,74224,2,0,L|113:223,1,88.000002685547,2|0,3:2|3:0,0:0:0:0:
217,301,74557,5,10,0:2:0:0:
104,224,74724,1,2,3:2:0:0:
288,360,74891,2,0,P|305:321|301:278,1,88.000002685547,2|0,0:2|3:0,0:0:0:0:
230,203,75224,1,10,0:3:0:0:
230,203,75391,1,0,3:0:0:0:
301,278,75557,1,6,0:3:0:0:
301,278,75724,1,0,3:0:0:0:
251,115,75891,1,8,0:3:0:0:
251,115,76224,6,0,B|341:108|341:108|357:135|394:141,1,143.999995605469,6|8,3:2|0:3,0:0:0:0:
412,61,76724,1,4,0:3:0:0:
450,191,76891,2,0,P|469:146|456:105,1,71.9999978027344,10|0,0:2|3:0,0:0:0:0:
371,217,77224,1,8,0:3:0:0:
465,124,77391,1,2,3:0:0:0:
420,286,77557,6,0,P|391:300|335:290,1,71.9999978027344,2|8,0:3|0:3,0:0:0:0:
471,349,77891,1,2,3:3:0:0:
298,352,78057,2,0,P|275:317|277:280,1,71.9999978027344,6|8,0:3|0:0,0:0:0:0:
286,183,78391,1,4,0:3:0:0:
132,249,78557,2,0,L|229:234,1,71.9999978027344,0|4,3:0|0:3,0:0:0:0:
34,122,78891,6,0,B|52:231|52:231|59:202|87:181,1,143.999995605469,2|8,3:0|0:3,0:0:0:0:
132,249,79391,1,4,0:3:0:0:
106,54,79557,2,0,L|119:140,1,71.9999978027344,10|0,0:0|3:0,0:0:0:0:
141,148,79807,1,4,0:3:0:0:
141,148,79891,1,0,3:0:0:0:
33,15,80057,1,6,0:3:0:0:
186,70,80224,6,0,L|263:61,1,71.9999978027344,2|8,0:3|0:3,0:0:0:0:
387,120,80557,2,0,L|306:131,1,71.9999978027344,2|6,3:0|0:3,0:0:0:0:
277,155,80807,1,4,0:3:0:0:
277,155,80891,2,0,L|292:248,1,71.9999978027344,8|4,0:0|0:3,0:0:0:0:
200,292,81224,1,0,3:0:0:0:
288,226,81391,1,12,0:3:0:0:
143,383,81557,6,0,B|113:290|113:290|140:235,1,143.999995605469,2|0,3:0|3:0,0:0:0:0:
200,292,82057,1,0,3:0:0:0:
151,165,82224,2,0,P|117:164|76:191,1,71.9999978027344,10|8,0:0|0:0,0:0:0:0:
234,158,82557,1,4,0:3:0:0:
133,248,82724,1,4,0:3:0:0:
182,87,82891,5,6,3:2:0:0:
466,66,83557,5,10,0:2:0:0:
445,27,83641,1,8,0:3:0:0:
406,8,83724,1,4,0:3:0:0:
362,16,83807,1,0,3:0:0:0:
332,49,83891,1,10,0:2:0:0:
387,243,84057,6,0,B|421:188|421:188|393:93,1,160,6|2,3:2|3:2,0:0:0:0:
297,227,84557,2,0,L|308:321,1,80,8|2,0:0|3:2,0:0:0:0:
267,348,84807,1,8,0:0:0:0:
267,348,84891,1,2,3:2:0:0:
387,243,85057,1,2,3:2:0:0:
387,243,85141,1,0,3:0:0:0:
387,243,85224,1,4,0:3:0:0:
202,276,85391,6,0,B|109:264|109:264|84:299|39:295,1,160,6|10,3:2|0:2,0:0:0:0:
98,137,85891,1,2,0:2:0:0:
42,225,86057,1,10,0:2:0:0:
120,52,86224,1,2,3:2:0:0:
181,172,86391,1,10,0:2:0:0:
405,18,86724,5,6,3:2:0:0:
