osu file format v14

[General]
AudioFilename: audio.mp3
AudioLeadIn: 0
PreviewTime: 54224
Countdown: 0
SampleSet: Soft
StackLeniency: 0.5
Mode: 0
LetterboxInBreaks: 0
WidescreenStoryboard: 0

[Editor]
DistanceSpacing: 0.6
BeatDivisor: 4
GridSize: 8
TimelineZoom: 1.6

[Metadata]
Title:SPARK-AGAIN (TV Size)
TitleUnicode:SPARK-AGAIN (TV Size)
Artist:Aimer
ArtistUnicode:Aimer
Creator:NexusQI
Version:Blaze
Source:炎炎ノ消防隊 弐ノ章
Tags:エメ enen no shouboutai ni shou enn fire force brigade of flames 2nd second season op opening anime japanese nexus j-rock jrock rock
BeatmapID:2514750
BeatmapSetID:1207597

[Difficulty]
HPDrainRate:6
CircleSize:4
OverallDifficulty:8.8
ApproachRate:9.3
SliderMultiplier:1.8
SliderTickRate:1

[Events]
//Background and Video events
0,0,"fire force bg.jpg",0,0
//Break Periods
//Storyboard Layer 0 (Background)
//Storyboard Layer 1 (Fail)
//Storyboard Layer 2 (Pass)
//Storyboard Layer 3 (Foreground)
//Storyboard Layer 4 (Overlay)
//Storyboard Sound Samples

[TimingPoints]
223,333.333333333333,4,2,2,60,1,0
223,-111.111111111111,4,2,2,60,0,0
392,-111.111111111111,4,2,1,60,0,0
540,340.909090909091,4,2,1,60,1,0
863,348.837209302325,4,2,1,60,1,0
1037,355.029585798816,4,2,1,60,1,0
1392,333.333333333333,4,2,1,60,1,0
1392,-100,4,2,1,70,0,0
1558,333.333333333333,4,2,1,70,1,0
6974,-100,4,2,1,5,0,0
7057,-100,4,2,1,70,0,0
8307,-100,4,2,1,5,0,0
8391,-100,4,2,1,70,0,0
9641,-100,4,2,1,5,0,0
9724,-100,4,2,1,70,0,0
10974,-100,4,2,1,5,0,0
11057,-100,4,2,1,70,0,0
12224,-133.333333333333,4,2,1,50,0,0
20057,-111.111111111111,4,2,1,60,0,0
22891,-117.647058823529,4,2,1,50,0,0
24307,-117.647058823529,4,2,1,5,0,0
24391,-117.647058823529,4,2,1,50,0,0
26974,-117.647058823529,4,2,1,5,0,0
27057,-117.647058823529,4,2,1,50,0,0
29641,-117.647058823529,4,2,1,5,0,0
29724,-117.647058823529,4,2,1,50,0,0
30724,-111.111111111111,4,2,1,70,0,0
45641,-111.111111111111,4,2,1,5,0,0
45724,-111.111111111111,4,2,1,70,0,0
48307,-111.111111111111,4,2,1,5,0,0
48390,-111.111111111111,4,2,1,70,0,0
52307,-111.111111111111,4,2,1,5,0,0
52391,-111.111111111111,4,2,1,70,0,0
54724,-90.9090909090909,4,2,1,80,0,1
57641,-90.9090909090909,4,2,1,5,0,1
57724,-90.9090909090909,4,2,1,80,0,1
60474,-90.9090909090909,4,2,1,5,0,1
60557,-90.9090909090909,4,2,1,80,0,1
61641,-90.9090909090909,4,2,1,5,0,1
61724,-90.9090909090909,4,2,1,80,0,1
68307,-90.9090909090909,4,2,1,5,0,1
68391,-90.9090909090909,4,2,1,80,0,1
73641,-90.9090909090909,4,2,1,5,0,1
73724,-90.9090909090909,4,2,1,80,0,1
76224,-111.111111111111,4,2,1,60,0,0
83557,-99.9999999999999,4,2,1,70,0,0
84307,-99.9999999999999,4,2,1,5,0,0
84391,-99.9999999999999,4,2,1,70,0,0
85641,-99.9999999999999,4,2,1,5,0,0
85724,-99.9999999999999,4,2,1,70,0,0

[Colours]
Combo1 : 250,133,69
Combo2 : 255,74,74
Combo3 : 223,202,53
Combo4 : 249,13,0

[HitObjects]
108,125,223,6,0,L|98:44,1,80.9999975280763,2|0,0:3|3:0,0:0:0:0:
219,221,540,1,8,0:0:0:0:
98,44,710,1,0,3:0:0:0:
245,133,863,1,8,0:0:0:0:
58,274,1037,1,0,3:0:0:0:
58,274,1392,6,0,B|148:264|148:264|181:311|238:301,1,180,6|0,3:2|3:2,0:0:0:0:
362,219,1891,2,0,L|240:211,1,90,10|0,0:0|3:2,0:0:0:0:
443,167,2224,1,2,0:2:0:0:
380,303,2391,1,2,3:2:0:0:
305,112,2557,1,10,0:2:0:0:
502,232,2724,6,0,B|531:169|531:169|487:52,1,180,2|0,3:2|3:0,0:0:0:0:
305,112,3224,1,10,0:2:0:0:
443,167,3391,1,2,3:2:0:0:
443,167,3474,1,8,0:0:0:0:
443,167,3557,1,0,3:0:0:0:
250,50,3724,2,0,P|225:78|227:150,1,90,2|8,3:2|0:0,0:0:0:0:
417,289,4057,6,0,B|375:254|326:262|326:262|295:309|237:301,1,180,6|0,3:2|3:0,0:0:0:0:
475,356,4557,2,0,P|500:314|496:252,1,90,10|0,0:2|3:0,0:0:0:0:
484,241,4807,1,8,0:0:0:0:
484,241,4891,1,2,3:2:0:0:
352,350,5057,1,2,3:2:0:0:
443,167,5224,1,8,0:0:0:0:
262,383,5391,6,0,B|257:337|253:246|253:246|289:288,1,180,2|0,3:2|3:0,0:0:0:0:
262,383,5891,1,10,0:2:0:0:
164,230,6057,2,0,P|217:167|337:203,1,180,2|0,3:2|3:0,0:0:0:0:
164,230,6557,1,10,0:2:0:0:
376,231,6724,6,0,B|396:182|396:182|366:77,1,135,6|0,3:2|0:0,0:0:0:0:
341,69,7057,1,2,3:2:0:0:
478,191,7224,1,10,0:2:0:0:
398,10,7391,1,2,3:2:0:0:
307,173,7557,1,2,0:2:0:0:
483,38,7724,1,2,3:2:0:0:
376,231,7891,1,10,0:2:0:0:
264,40,8057,6,0,B|214:15|167:27|167:27|194:37|196:44,1,135,2|0,3:2|0:0,0:0:0:0:
93,48,8391,2,0,B|66:97|66:97|110:243,1,180,2|0,3:2|3:0,0:0:0:0:
133,244,8807,1,8,0:0:0:0:
133,244,8891,2,0,L|127:291,2,45,2|8|2,3:2|0:0|3:2,0:0:0:0:
32,383,9224,1,10,0:2:0:0:
273,235,9391,6,0,B|301:327|301:327|274:386,1,135,6|0,3:2|0:0,0:0:0:0:
258,384,9724,1,2,3:2:0:0:
349,217,9891,1,8,0:3:0:0:
198,332,10057,1,2,3:2:0:0:
198,332,10141,1,8,0:0:0:0:
198,332,10224,1,2,3:2:0:0:
413,166,10391,2,0,P|431:219|411:269,1,90,2|8,3:2|0:3,0:0:0:0:
111,228,10724,6,0,B|175:199|175:199|255:214,1,135,6|0,3:2|0:0,0:0:0:0:
273,235,11057,1,2,3:2:0:0:
128,127,11224,1,2,0:0:0:0:
324,172,11391,1,10,0:2:0:0:
156,311,11557,1,2,3:2:0:0:
254,118,11724,2,0,P|285:95|357:98,1,90,10|0,0:2|3:0,0:0:0:0:
496,230,12057,1,8,0:3:0:0:
496,230,12141,1,8,0:3:0:0:
496,230,12224,5,4,3:2:0:0:
414,160,12391,1,2,3:2:0:0:
402,309,12557,2,0,L|412:214,1,67.5000025749208,2|2,0:2|0:2,0:0:0:0:
476,384,12891,2,0,L|486:289,2,67.5000025749208,2|2|0,0:2|3:2|0:0,0:0:0:0:
320,345,13391,6,0,B|281:318|246:343|246:343|185:344,1,135.000005149842,2|2,3:2|0:0,0:0:0:0:
210,136,14057,2,0,B|183:176|183:176|207:269,1,135.000005149842,2|2,0:0|3:2,0:0:0:0:
204,259,14557,1,8,0:1:0:0:
285,95,14724,6,0,P|201:56|158:76,1,135.000005149842,2|0,3:2|3:2,0:0:0:0:
88,42,15224,2,0,L|99:123,1,67.5000025749208,2|2,0:2|0:2,0:0:0:0:
0,12,15557,2,0,L|11:93,2,67.5000025749208,2|2|2,0:2|3:2|0:2,0:0:0:0:
0,243,16057,6,0,P|42:205|122:216,1,135.000005149842,2|2,3:2|0:2,0:0:0:0:
263,325,16724,2,0,B|207:316|207:316|174:334|174:334|113:329,1,135.000005149842,2|2,0:2|3:2,0:0:0:0:
133,330,17224,1,8,0:1:0:0:
333,366,17391,6,0,P|344:332|335:289,2,67.5000025749208,2|0|0,0:0|3:0|3:0,0:0:0:0:
340,301,17891,1,0,0:0:0:0:
437,51,18224,2,0,L|428:142,1,67.5000025749208,2|2,0:2|3:2,0:0:0:0:
473,187,18557,1,2,0:2:0:0:
351,92,18724,6,0,B|304:44|250:48|250:48|213:102|148:84,1,202.500007724762,2|0,3:2|0:0,0:0:0:0:
331,257,19557,1,2,0:2:0:0:
266,329,19724,1,2,3:2:0:0:
380,374,19891,1,10,0:2:0:0:
202,177,20057,6,0,B|215:267|215:267|183:293|182:338,1,161.999995056153,6|0,3:2|3:0,0:0:0:0:
264,130,20557,2,0,P|234:103|194:98,1,80.9999975280763,8|0,0:0|0:0,0:0:0:0:
91,166,20891,1,0,3:0:0:0:
91,166,21057,1,0,3:0:0:0:
180,21,21224,1,10,0:2:0:0:
34,231,21391,6,0,B|2:178|2:178|31:82,1,161.999995056153,6|0,3:2|3:0,0:0:0:0:
171,174,21891,2,0,L|88:165,1,80.9999975280763,8|0,0:0|0:0,0:0:0:0:
218,288,22224,2,0,L|213:236,1,40.4999987640381,2|8,3:2|0:0,0:0:0:0:
299,152,22391,2,0,L|293:206,1,40.4999987640381,8|0,0:3|3:0,0:0:0:0:
157,346,22557,1,10,0:2:0:0:
191,367,22641,1,8,0:3:0:0:
231,370,22724,1,8,0:3:0:0:
267,353,22807,1,8,0:3:0:0:
292,322,22891,5,4,3:2:0:0:
435,384,23057,1,0,3:0:0:0:
365,222,23224,2,0,L|371:314,1,76.5000014591217,10|0,0:2|3:0,0:0:0:0:
292,322,23557,1,2,0:2:0:0:
420,163,23724,2,0,P|387:143|349:142,1,76.5000014591217,2|8,3:2|0:0,0:0:0:0:
163,214,24057,6,0,B|216:195|216:195|296:208,1,114.750002188683,2|0,3:2|0:0,0:0:0:0:
284,180,24391,2,0,L|294:99,1,76.5000014591217,2|8,3:2|0:0,0:0:0:0:
175,11,24724,2,0,L|185:92,1,76.5000014591217,2|0,0:2|3:0,0:0:0:0:
62,60,25057,1,2,3:2:0:0:
185,87,25224,1,8,0:0:0:0:
5,191,25391,6,0,B|-12:87|-12:87|3:119|29:131,1,153.000002918243,2|0,3:2|3:0,0:0:0:0:
79,238,25891,2,0,L|68:343,1,76.5000014591217,10|0,0:2|0:0,0:0:0:0:
170,175,26224,2,0,L|161:251,1,76.5000014591217,2|2,3:2|3:2,0:0:0:0:
102,112,26557,1,10,0:2:0:0:
245,228,26724,6,0,B|278:207|309:223|309:223|376:218,1,114.750002188683,2|0,3:2|0:0,0:0:0:0:
372,186,27057,2,0,P|399:170|456:176,1,76.5000014591217,2|8,3:2|0:0,0:0:0:0:
436,381,27391,2,0,B|456:333|456:333|437:252,1,114.750002188683,2|0,0:2|0:0,0:0:0:0:
424,246,27724,1,2,3:2:0:0:
343,339,27891,1,8,0:0:0:0:
512,250,28057,1,10,0:2:0:0:
512,250,28141,1,8,0:0:0:0:
512,250,28224,6,0,L|493:156,1,76.5000014591217,4|0,3:2|3:0,0:0:0:0:
399,88,28557,1,8,0:0:0:0:
496,175,28724,1,2,3:2:0:0:
445,19,28891,2,0,P|402:3|361:10,1,76.5000014591217,2|2,0:2|3:2,0:0:0:0:
499,85,29224,1,10,0:2:0:0:
322,60,29391,6,0,B|300:49|292:35|292:35|304:123,1,114.750002188683,2|0,3:2|0:0,0:0:0:0:
280,146,29724,2,0,L|291:227,1,76.5000014591217,2|8,3:2|0:0,0:0:0:0:
387,323,30057,2,0,L|393:246,1,76.5000014591217,2|0,0:0|3:0,0:0:0:0:
293,384,30391,1,2,3:2:0:0:
392,246,30557,1,10,0:2:0:0:
230,337,30724,6,0,B|179:342|145:304|145:304|105:311|84:350,1,161.999995056153,6|0,3:2|3:0,0:0:0:0:
215,165,31224,2,0,P|232:199|219:260,1,80.9999975280763,10|0,0:0|3:0,0:0:0:0:
213,261,31474,1,8,0:0:0:0:
213,261,31557,1,2,3:2:0:0:
266,97,31724,1,0,3:0:0:0:
140,206,31891,1,10,0:2:0:0:
186,48,32057,6,0,P|250:3|341:35,1,161.999995056153,6|0,3:2|3:0,0:0:0:0:
378,184,32557,1,8,0:0:0:0:
266,97,32724,1,0,3:0:0:0:
471,35,32891,1,10,0:2:0:0:
354,99,33057,1,8,0:3:0:0:
440,246,33224,1,10,0:2:0:0:
448,117,33391,1,8,0:3:0:0:
496,322,33557,6,0,L|386:340,1,80.9999975280763,6|0,3:2|0:0,0:0:0:0:
241,295,33891,1,10,0:3:0:0:
322,369,34057,2,0,L|340:271,1,80.9999975280763,6|8,0:3|0:0,0:0:0:0:
227,215,34391,2,0,L|244:317,1,80.9999975280763,2|8,3:0|0:3,0:0:0:0:
67,172,34724,6,0,B|144:164|144:164|172:117|238:129,1,161.999995056153,2|10,3:0|0:3,0:0:0:0:
301,72,35224,2,0,L|296:157,1,80.9999975280763,2|4,3:3|0:3,0:0:0:0:
456,46,35557,1,8,0:0:0:0:
385,89,35724,1,4,0:3:0:0:
237,18,35891,1,2,3:0:0:0:
165,58,36057,1,4,0:3:0:0:
10,24,36224,6,0,L|105:12,1,80.9999975280763,2|8,3:0|0:3,0:0:0:0:
60,163,36557,2,0,L|62:105,1,40.4999987640381,10|2,0:3|0:0,0:0:0:0:
24,234,36724,2,0,P|61:245|121:222,1,80.9999975280763,6|8,0:3|0:0,0:0:0:0:
193,180,37057,2,0,L|188:260,1,80.9999975280763,2|0,0:3|3:0,0:0:0:0:
290,68,37391,6,0,L|308:255,1,161.999995056153,6|6,0:3|0:3,0:0:0:0:
387,349,37891,2,0,L|380:260,1,80.9999975280763,2|4,3:0|0:3,0:0:0:0:
397,234,38141,1,4,0:3:0:0:
397,234,38224,1,8,0:0:0:0:
434,165,38391,1,4,0:3:0:0:
367,60,38557,1,2,3:0:0:0:
423,0,38724,1,8,0:3:0:0:
507,125,38891,6,0,P|517:166|494:225,1,80.9999975280763,2|8,3:0|0:3,0:0:0:0:
456,303,39224,1,2,3:0:0:0:
353,169,39391,2,0,L|453:164,1,80.9999975280763,6|8,0:3|0:0,0:0:0:0:
247,253,39724,2,0,L|331:248,1,80.9999975280763,2|0,0:3|3:0,0:0:0:0:
120,367,40057,6,0,L|106:181,1,161.999995056153,10|2,0:3|0:3,0:0:0:0:
29,109,40557,2,0,L|37:209,1,80.9999975280763,2|8,3:0|0:3,0:0:0:0:
96,55,40891,1,8,0:0:0:0:
198,111,41057,1,8,0:3:0:0:
198,111,41141,1,8,0:3:0:0:
198,111,41224,1,2,3:0:0:0:
265,60,41391,1,10,0:3:0:0:
240,264,41557,6,0,L|245:179,1,80.9999975280763,2|6,3:3|0:3,0:0:0:0:
175,330,41891,1,2,0:3:0:0:
323,242,42057,2,0,L|318:323,1,80.9999975280763,2|10,3:3|0:0,0:0:0:0:
420,226,42391,1,6,0:3:0:0:
318,322,42557,1,2,3:0:0:0:
484,163,42724,6,0,B|508:219|508:219|475:336,1,161.999995056153,4|0,0:3|3:0,0:0:0:0:
390,384,43224,2,0,L|405:302,1,80.9999975280763,0|0,3:0|0:0,0:0:0:0:
257,258,43557,5,10,0:0:0:0:
318,322,43724,1,0,3:0:0:0:
91,376,43891,1,10,0:0:0:0:
163,335,44057,1,0,0:0:0:0:
167,171,44224,6,0,L|179:276,1,80.9999975280763,6|0,3:2|0:0,0:0:0:0:
224,106,44557,1,10,0:3:0:0:
334,181,44724,2,0,L|241:178,1,80.9999975280763,2|8,3:0|0:0,0:0:0:0:
109,113,45057,1,6,0:3:0:0:
43,177,45224,1,0,3:0:0:0:
77,18,45391,6,0,P|132:5|196:50,1,121.499996292114,10|0,0:3|0:0,0:0:0:0:
224,106,45724,1,10,0:3:0:0:
378,26,45891,2,0,L|287:14,1,80.9999975280763,2|4,3:0|0:3,0:0:0:0:
385,185,46224,1,8,0:0:0:0:
422,98,46391,1,8,0:3:0:0:
332,276,46557,1,2,3:0:0:0:
295,189,46724,1,6,0:3:0:0:
404,348,46891,6,0,L|422:241,1,80.9999975280763,2|8,3:0|0:3,0:0:0:0:
482,215,47224,1,6,0:3:0:0:
332,276,47391,2,0,L|218:261,1,80.9999975280763,2|8,3:0|0:0,0:0:0:0:
148,345,47724,2,0,L|235:358,1,80.9999975280763,2|0,0:3|3:0,0:0:0:0:
77,164,48057,6,0,P|177:204|180:225,1,121.499996292114,6|0,0:3|0:0,0:0:0:0:
206,277,48391,1,10,0:3:0:0:
267,111,48557,2,0,L|255:199,1,80.9999975280763,10|0,0:3|3:0,0:0:0:0:
194,1,48891,2,0,L|182:89,1,80.9999975280763,8|0,0:0|0:0,0:0:0:0:
256,191,49224,1,2,3:0:0:0:
183,81,49391,1,8,0:3:0:0:
467,12,49557,5,6,3:2:0:0:
267,111,49724,1,8,0:0:0:0:
267,111,49891,1,10,0:0:0:0:
393,274,50057,5,6,3:2:0:0:
295,27,50224,1,8,0:0:0:0:
295,27,50391,1,10,0:0:0:0:
441,129,50557,1,0,3:0:0:0:
190,228,50724,6,0,B|170:114|170:114|185:134|206:141,1,161.999995056153,2|2,0:0|3:2,0:0:0:0:
248,162,51141,1,8,0:0:0:0:
248,162,51224,1,10,0:0:0:0:
82,84,51391,1,2,3:2:0:0:
82,84,51474,1,0,3:0:0:0:
82,84,51557,2,0,L|88:135,1,40.4999987640381,8|8,0:2|0:0,0:0:0:0:
190,228,51724,1,10,0:3:0:0:
190,228,51807,1,8,0:0:0:0:
190,228,51891,1,10,0:0:0:0:
8,129,52057,6,0,B|-5:55|-5:55|22:17,1,121.499996292114,6|0,3:2|0:0,0:0:0:0:
53,2,52391,1,8,0:0:0:0:
290,166,52557,1,8,0:0:0:0:
98,72,52724,1,0,3:0:0:0:
98,72,52891,1,8,0:0:0:0:
364,42,53057,1,10,0:3:0:0:
147,149,53224,1,2,3:2:0:0:
432,0,53391,6,0,P|448:38|436:89,1,80.9999975280763,14|0,0:2|3:0,0:0:0:0:
200,223,53724,1,8,0:0:0:0:
364,42,53891,1,8,0:0:0:0:
292,276,54057,1,0,3:0:0:0:
292,276,54141,1,0,3:0:0:0:
292,276,54224,5,10,0:0:0:0:
337,195,54391,1,2,3:2:0:0:
308,114,54557,1,2,0:0:0:0:
512,357,54724,6,0,B|400:339|400:339|371:380|313:379,1,198.000006042481,6|0,3:2|3:2,0:0:0:0:
193,283,55224,2,0,L|302:275,1,99.0000030212403,10|0,0:2|3:0,0:0:0:0:
482,270,55557,1,2,0:2:0:0:
308,192,55724,1,2,3:2:0:0:
399,343,55891,1,10,0:2:0:0:
397,68,56057,6,0,B|384:146|384:146|407:183|407:183|395:283,1,198.000006042481,2|0,3:2|3:0,0:0:0:0:
317,16,56557,2,0,L|300:122,1,99.0000030212403,10|0,0:0|0:0,0:0:0:0:
272,297,56891,1,0,3:2:0:0:
206,144,57057,1,2,3:2:0:0:
346,346,57224,1,10,0:2:0:0:
102,250,57391,6,0,B|198:251|198:251|215:222|256:217,1,148.50000453186,6|0,3:2|0:0,0:0:0:0:
272,297,57724,1,2,3:2:0:0:
102,250,57891,1,10,0:2:0:0:
203,344,58057,1,2,0:2:0:0:
37,193,58224,2,0,P|15:237|23:285,1,99.0000030212403,2|0,3:2|3:0,0:0:0:0:
99,375,58557,1,10,0:2:0:0:
213,130,58724,5,2,3:2:0:0:
102,250,58891,1,2,0:2:0:0:
320,233,59057,1,2,3:2:0:0:
132,162,59224,1,10,0:2:0:0:
391,289,59391,1,2,3:2:0:0:
391,289,59474,1,8,0:0:0:0:
391,289,59557,2,0,P|407:234|383:172,1,99.0000030212403,0|0,3:0|3:0,0:0:0:0:
319,124,59891,1,10,0:2:0:0:
319,335,60057,1,10,0:2:0:0:
319,335,60141,1,8,0:0:0:0:
319,335,60224,6,0,P|379:375|465:336,1,148.50000453186,4|0,3:2|0:0,0:0:0:0:
502,299,60557,1,10,0:2:0:0:
245,384,60724,2,0,B|208:316|208:316|249:192,1,198.000006042481,2|0,3:2|3:0,0:0:0:0:
243,384,61224,1,10,0:2:0:0:
173,159,61391,6,0,P|228:116|316:149,1,148.50000453186,2|0,3:2|0:0,0:0:0:0:
352,184,61724,1,2,3:2:0:0:
173,159,61891,1,8,0:0:0:0:
428,238,62057,2,0,L|439:140,1,99.0000030212403,2|0,0:2|3:0,0:0:0:0:
454,109,62307,1,8,0:0:0:0:
454,109,62391,1,2,3:2:0:0:
508,270,62557,1,8,0:0:0:0:
479,20,62724,6,0,B|419:5|382:48|382:48|326:58|281:26,1,198.000006042481,6|2,3:2|3:2,0:0:0:0:
96,0,63224,1,10,0:2:0:0:
202,162,63391,1,2,3:2:0:0:
202,162,63474,1,8,0:0:0:0:
202,162,63557,2,0,L|192:53,1,99.0000030212403,2|0,3:2|3:0,0:0:0:0:
99,250,63891,1,10,0:2:0:0:
298,126,64057,6,0,L|292:242,1,99.0000030212403,6|2,3:2|0:2,0:0:0:0:
192,63,64391,1,2,3:2:0:0:
217,265,64557,2,0,P|275:310|358:286,1,148.50000453186,10|0,0:2|0:0,0:0:0:0:
429,215,64891,1,10,0:2:0:0:
429,215,64974,1,8,0:0:0:0:
429,215,65057,2,0,L|425:265,1,49.5000015106202,2|8,3:2|0:0,0:0:0:0:
495,351,65224,2,0,L|500:302,1,49.5000015106202,10|0,0:2|0:0,0:0:0:0:
487,108,65391,6,0,L|290:134,1,198.000006042481,6|0,3:2|3:2,0:0:0:0:
122,68,65891,2,0,L|245:56,1,99.0000030212403,10|0,0:2|3:0,0:0:0:0:
291,134,66224,1,2,0:2:0:0:
122,68,66391,1,2,3:2:0:0:
225,263,66557,1,10,0:2:0:0:
58,10,66724,6,0,B|28:64|28:64|70:199,1,198.000006042481,2|0,3:2|3:0,0:0:0:0:
294,216,67224,2,0,P|242:183|172:200,1,99.0000030212403,10|0,0:0|0:0,0:0:0:0:
97,328,67557,1,0,3:2:0:0:
206,183,67724,1,2,3:2:0:0:
287,382,67891,1,10,0:2:0:0:
44,242,68057,6,0,B|128:229|128:229|150:265|193:261,1,148.50000453186,6|0,3:2|0:0,0:0:0:0:
206,183,68391,1,2,3:2:0:0:
97,328,68557,1,10,0:2:0:0:
45,111,68724,1,2,0:2:0:0:
275,237,68891,2,0,P|291:190|271:130,1,99.0000030212403,2|2,3:2|3:2,0:0:0:0:
128,89,69224,1,10,0:2:0:0:
345,37,69391,5,2,3:2:0:0:
206,183,69557,1,2,0:2:0:0:
442,215,69724,1,2,3:2:0:0:
279,143,69891,1,10,0:2:0:0:
503,165,70057,2,0,P|523:217|503:271,1,99.0000030212403,2|0,0:0|3:2,0:0:0:0:
344,266,70391,1,0,3:0:0:0:
465,90,70557,1,10,0:2:0:0:
509,362,70724,6,0,B|364:345|364:345|403:339|422:303,1,198.000006042481,14|0,0:2|3:0,0:0:0:0:
509,362,71224,1,10,0:2:0:0:
344,266,71391,2,0,B|296:225|248:234|248:234|210:276|154:265,1,198.000006042481,2|0,3:2|3:0,0:0:0:0:
344,266,71891,1,10,0:2:0:0:
91,82,72057,6,0,B|117:201|117:201|77:240|81:291,1,198.000006042481,2|2,3:2|3:2,0:0:0:0:
201,171,72557,1,8,0:0:0:0:
11,96,72724,1,2,3:2:0:0:
11,96,72807,1,8,0:0:0:0:
11,96,72891,2,0,L|24:175,2,49.5000015106202,0|8|2,3:0|0:0|3:2,0:0:0:0:
53,0,73224,1,8,0:0:0:0:
234,78,73391,6,0,B|178:68|178:68|132:87|132:87|81:80,1,148.50000453186,6|0,3:2|0:0,0:0:0:0:
53,0,73724,1,2,3:2:0:0:
149,203,73891,1,10,0:0:0:0:
11,96,74057,1,2,0:0:0:0:
225,262,74224,2,0,L|236:147,1,99.0000030212403,2|0,3:2|3:0,0:0:0:0:
133,333,74557,5,10,0:2:0:0:
334,255,74724,1,2,3:2:0:0:
62,383,74891,2,0,P|46:337|54:289,1,99.0000030212403,2|0,0:2|3:0,0:0:0:0:
285,334,75224,1,10,0:3:0:0:
209,384,75391,1,0,3:0:0:0:
377,349,75557,1,6,0:3:0:0:
334,255,75724,1,0,3:0:0:0:
363,131,75891,1,8,0:3:0:0:
363,131,76224,6,0,B|298:123|298:123|262:146|262:146|192:139,1,161.999995056153,6|8,3:2|0:3,0:0:0:0:
208,140,76724,1,4,0:3:0:0:
329,208,76891,2,0,L|419:222,1,80.9999975280763,10|0,0:2|3:0,0:0:0:0:
409,220,77224,1,8,0:3:0:0:
259,255,77391,1,2,3:0:0:0:
452,321,77557,6,0,L|354:325,1,80.9999975280763,2|8,0:3|0:3,0:0:0:0:
372,325,77891,1,2,3:3:0:0:
506,162,78057,2,0,L|495:271,1,80.9999975280763,6|8,0:3|0:0,0:0:0:0:
497,242,78391,1,4,0:3:0:0:
388,55,78557,2,0,L|397:151,1,80.9999975280763,0|4,3:0|0:3,0:0:0:0:
134,158,78891,6,0,B|236:143|236:143|259:177|306:180,1,161.999995056153,2|8,3:0|0:3,0:0:0:0:
283,176,79391,1,4,0:3:0:0:
76,214,79557,2,0,P|51:171|62:123,1,80.9999975280763,10|0,0:0|3:0,0:0:0:0:
72,104,79807,1,4,0:3:0:0:
72,104,79891,1,0,3:0:0:0:
155,238,80057,1,6,0:3:0:0:
129,40,80224,6,0,P|81:18|36:27,1,80.9999975280763,2|8,0:3|0:3,0:0:0:0:
209,9,80557,1,2,3:0:0:0:
72,104,80724,1,6,0:3:0:0:
72,104,80807,1,4,0:3:0:0:
72,104,80891,1,8,0:0:0:0:
129,40,81057,1,4,0:3:0:0:
200,125,81224,2,0,P|237:144|287:131,1,80.9999975280763,0|12,3:0|0:3,0:0:0:0:
141,311,81557,6,0,B|132:184|132:184|152:205|170:203,1,161.999995056153,2|0,3:0|3:0,0:0:0:0:
160,202,82057,1,0,3:0:0:0:
72,372,82224,2,0,L|64:273,1,80.9999975280763,10|8,0:0|0:0,0:0:0:0:
55,185,82557,1,4,0:3:0:0:
65,291,82724,1,4,0:3:0:0:
39,62,82891,5,6,3:2:0:0:
442,350,83557,5,10,0:2:0:0:
481,329,83641,1,8,0:3:0:0:
500,290,83724,1,4,0:3:0:0:
492,246,83807,1,0,3:0:0:0:
459,216,83891,1,10,0:2:0:0:
252,283,84057,6,0,B|302:278|302:278|334:302|334:302|398:297,1,135,6|0,3:2|0:0,0:0:0:0:
416,281,84391,1,2,3:2:0:0:
163,320,84557,1,8,0:0:0:0:
360,213,84724,1,2,3:2:0:0:
360,213,84807,1,8,0:0:0:0:
360,213,84891,1,2,3:2:0:0:
238,380,85057,1,2,3:2:0:0:
238,380,85141,1,0,3:0:0:0:
238,380,85224,1,4,0:3:0:0:
288,146,85391,6,0,P|332:115|425:135,1,135,6|0,3:2|0:0,0:0:0:0:
432,162,85724,1,10,0:2:0:0:
277,53,85891,1,2,0:2:0:0:
491,12,86057,1,10,0:2:0:0:
360,213,86224,1,2,3:2:0:0:
212,0,86391,1,10,0:2:0:0:
405,317,86724,5,6,3:2:0:0:
