osu file format v14

[General]
AudioFilename: audio.mp3
AudioLeadIn: 0
PreviewTime: 211607
Countdown: 0
SampleSet: Soft
StackLeniency: 0.5
Mode: 0
LetterboxInBreaks: 0
WidescreenStoryboard: 1

[Editor]
Bookmarks: 53410,75735,128759,151084,190154,234805
DistanceSpacing: 2.5
BeatDivisor: 4
GridSize: 16
TimelineZoom: 2

[Metadata]
Title:Run Riot
TitleUnicode:Run Riot
Artist:Aimer
ArtistUnicode:Aimer
Creator:Sylvarus
Version:Hard
Source:
Tags:owc o!wc 2020 ro8 qf dt3 春はゆく haru wa yuku marie japanese pop jpop エメ osu! world cup quarterfinals
BeatmapID:2577469
BeatmapSetID:1227818

[Difficulty]
HPDrainRate:4.7
CircleSize:3.6
OverallDifficulty:7
ApproachRate:8
SliderMultiplier:1.2
SliderTickRate:1

[Events]
//Background and Video events
0,0,"75961171_p0.jpg",0,0
//Break Periods
//Storyboard Layer 0 (Background)
//Storyboard Layer 1 (Fail)
//Storyboard Layer 2 (Pass)
//Storyboard Layer 3 (Foreground)
//Storyboard Layer 4 (Overlay)
//Storyboard Sound Samples

[TimingPoints]
212,348.837209302326,4,2,1,70,1,0
387,348.837209302326,4,2,1,70,1,0
387,-90.9090909090909,4,2,1,70,0,0
3090,-90.9090909090909,4,2,1,5,0,0
3177,-90.9090909090909,4,2,1,70,0,0
5881,-90.9090909090909,4,2,1,5,0,0
5968,-90.9090909090909,4,2,1,70,0,0
8759,-90.9090909090909,4,2,1,30,0,0
10154,-125,4,2,1,30,0,0
11549,-125,4,2,1,40,0,0
15735,-125,4,2,1,30,0,0
17131,-125,4,2,1,45,0,0
19921,-111.111111111111,4,2,1,55,0,0
22625,-111.111111111111,4,2,1,5,0,0
22712,-111.111111111111,4,2,1,55,0,0
25416,-111.111111111111,4,2,1,5,0,0
25503,-111.111111111111,4,2,1,55,0,0
31084,-83.3333333333333,4,2,1,55,0,0
35096,-100,4,2,1,55,0,0
42247,-83.3333333333333,4,2,1,55,0,0
43991,-100,4,2,1,55,0,0
45038,-83.3333333333333,4,2,1,55,0,0
46607,-100,4,2,1,55,0,0
53323,-100,4,2,1,5,0,0
53410,-83.3333333333333,4,2,1,80,0,0
70067,-83.3333333333333,4,2,1,5,0,0
70154,-83.3333333333333,4,2,1,80,0,0
75735,-90.9090909090909,4,2,1,70,0,0
84107,-111.111111111111,4,2,1,55,0,0
100764,-111.111111111111,4,2,1,5,0,0
100852,-111.111111111111,4,2,1,55,0,0
106433,-83.3333333333333,4,2,1,55,0,0
108526,-100,4,2,1,55,0,0
109224,-83.3333333333333,4,2,1,55,0,0
110793,-100,4,2,1,55,0,0
117596,-83.3333333333333,4,2,1,55,0,0
119166,-100,4,2,1,55,0,0
120387,-83.3333333333333,4,2,1,55,0,0
121956,-100,4,2,1,55,0,0
123090,-100,4,2,1,5,0,0
123177,-100,4,2,1,55,0,0
128671,-100,4,2,1,5,0,0
128759,-83.3333333333333,4,2,1,80,0,0
145416,-83.3333333333333,4,2,1,5,0,0
145503,-83.3333333333333,4,2,1,80,0,0
151084,-90.9090909090909,4,2,1,75,0,0
153788,-90.9090909090909,4,2,1,5,0,0
153875,-90.9090909090909,4,2,1,75,0,0
157974,-90.9090909090909,4,2,1,5,0,0
158061,-90.9090909090909,4,2,1,75,0,0
159369,-90.9090909090909,4,2,1,5,0,0
159456,-90.9090909090909,4,2,1,75,0,0
165038,-111.111111111111,4,2,1,75,0,0
167131,-111.111111111111,4,2,1,55,0,0
167828,-111.111111111111,4,2,1,45,0,0
169049,-142.857142857143,4,2,1,45,0,0
184224,-142.857142857143,4,2,1,55,0,0
187363,-142.857142857143,4,2,1,60,0,0
190067,-142.857142857143,4,2,1,5,0,0
190154,-83.3333333333333,4,2,1,80,0,0
206811,-83.3333333333333,4,2,1,5,0,0
206898,-83.3333333333333,4,2,1,80,0,0
232363,-83.3333333333333,4,2,1,60,0,0
232712,-83.3333333333333,4,2,1,65,0,0
233061,-83.3333333333333,4,2,1,70,0,0
233410,-83.3333333333333,4,2,1,80,0,0
234805,-90.9090909090909,4,2,1,70,0,0
241782,-90.9090909090909,4,2,1,40,0,0
242131,-90.9090909090909,4,2,1,50,0,0
242480,-90.9090909090909,4,2,1,60,0,0

[Colours]
Combo1 : 164,253,159
Combo2 : 24,141,7
Combo3 : 117,166,255

[HitObjects]
233,252,211,5,0,3:0:0:0:
233,252,298,1,0,3:0:0:0:
233,252,387,2,0,P|287:255|337:189,1,132.00000402832,14|8,0:1|0:2,0:0:0:0:
293,125,910,2,0,P|239:122|189:188,1,132.00000402832,10|8,0:1|0:2,0:0:0:0:
83,222,1433,2,0,L|97:78,1,132.00000402832,14|0,0:1|0:0,0:0:0:0:
66,14,1956,2,0,L|-3:-2,1,66.0000020141602,8|8,0:1|0:2,0:0:0:0:
209,25,2480,2,0,B|232:61|285:61|311:25|311:25|333:-5|384:-5|408:25,1,231.000007049561,10|0,0:1|0:0,0:0:0:0:
420,65,3177,6,0,P|364:94|347:166,1,132.00000402832,14|8,0:1|0:2,0:0:0:0:
419,213,3700,2,0,P|474:183|491:111,1,132.00000402832,10|8,0:1|0:2,0:0:0:0:
486,10,4224,2,0,L|354:0,1,132.00000402832,14|0,0:1|0:0,0:0:0:0:
281,29,4747,2,0,L|205:55,1,66.0000020141602,8|8,0:1|0:2,0:0:0:0:
314,215,5270,2,0,B|320:170|280:142|226:174|249:226|249:226|274:274|253:330,1,231.000007049561,10|0,0:1|0:0,0:0:0:0:
241,346,5968,6,0,P|308:314|377:337,1,132.00000402832,14|8,0:1|0:2,0:0:0:0:
437,368,6491,1,10,0:3:0:0:
509,212,6840,1,6,0:3:0:0:
430,246,7014,2,0,L|281:234,2,132.00000402832,14|0|0,0:1|0:0|0:0,0:0:0:0:
509,212,7887,6,0,L|504:172,3,33.0000010070801,8|2|2|2,0:3|0:0|0:0|0:0,0:0:0:0:
478,145,8235,2,0,L|482:106,3,33.0000010070801,8|2|2|2,0:3|0:0|0:2|0:0,0:0:0:0:
505,76,8584,2,0,L|501:37,2,33.0000010070801,10|2|14,0:1|0:0|0:1,0:0:0:0:
138,184,10154,5,2,0:0:0:0:
317,129,10677,1,2,0:0:0:0:
276,312,11200,1,2,0:0:0:0:
248,205,11549,6,0,L|231:154,2,48
314,235,12073,2,0,P|362:241|414:214,1,96
480,123,12770,1,0,0:0:0:0:
368,5,13468,5,0,0:0:0:0:
306,45,13642,2,0,L|202:29,1,96
55,103,14340,5,8,0:1:0:0:
240,125,14863,1,0,0:0:0:0:
240,125,15038,2,0,P|273:144|298:197,1,96
269,316,15735,5,2,0:0:0:0:
448,371,16258,1,2,0:0:0:0:
407,188,16781,1,2,0:0:0:0:
297,194,17131,5,8,0:1:0:0:
122,261,17654,1,0,0:0:0:0:
5,114,18177,1,0,3:0:0:0:
120,161,18526,6,0,P|156:160|186:165,1,48,2|2,0:0|0:0,0:0:0:0:
234,128,18875,2,0,P|270:129|300:124,1,48,2|2,0:0|0:0,0:0:0:0:
349,165,19224,2,0,L|379:167,4,24,2|2|2|2|2,0:3|0:3|0:3|0:3|0:3,0:0:0:0:
257,17,19921,5,10,0:1:0:0:
371,97,20270,1,8,0:2:0:0:
488,20,20619,1,0,0:0:0:0:
488,20,20793,2,0,L|425:11,1,53.9999983520508,10|0,0:1|0:0,0:0:0:0:
499,100,21142,2,0,L|439:123,1,53.9999983520508,10|0,0:2|0:0,0:0:0:0:
403,182,21491,2,0,L|376:204,2,26.9999991760254,8|0|8,0:1|3:0|0:2,0:0:0:0:
495,288,22014,5,8,0:1:0:0:
435,339,22189,1,8,0:1:0:0:
363,315,22363,2,0,P|322:301|276:303,1,80.9999975280762,8|0,0:2|0:0,0:0:0:0:
255,320,22712,6,0,L|287:206,1,107.999996704102,10|8,0:1|0:2,0:0:0:0:
263,142,23235,1,0,3:0:0:0:
263,142,23323,1,0,3:0:0:0:
263,142,23410,1,0,3:0:0:0:
204,77,23584,2,0,L|160:30,1,53.9999983520508,10|0,0:1|0:0,0:0:0:0:
167,149,23933,2,0,L|105:130,1,53.9999983520508,10|0,0:2|0:0,0:0:0:0:
52,181,24282,2,0,L|16:188,2,26.9999991760254,8|0|8,0:1|3:0|0:2,0:0:0:0:
194,275,24805,5,8,0:1:0:0:
129,232,24980,1,8,0:1:0:0:
69,284,25154,2,0,P|49:327|44:371,1,80.9999975280762,8|0,0:2|0:0,0:0:0:0:
74,377,25503,5,10,0:1:0:0:
150,353,25677,1,2,0:0:0:0:
228,371,25852,1,8,0:2:0:0:
228,371,26026,2,0,P|238:329|234:302,1,53.9999983520508
291,246,26375,2,0,L|353:230,1,53.9999983520508,10|0,0:1|0:0,0:0:0:0:
315,327,26724,2,0,L|376:344,1,53.9999983520508,10|0,0:2|0:0,0:0:0:0:
434,378,27073,2,0,L|474:373,2,26.9999991760254,8|0|8,0:1|3:0|0:2,0:0:0:0:
498,253,27596,5,8,0:1:0:0:
508,176,27770,1,8,0:1:0:0:
440,137,27945,2,0,L|374:152,1,53.9999983520508,8|0,0:2|0:0,0:0:0:0:
271,193,28293,5,10,0:1:0:0:
264,112,28468,2,0,P|265:79|273:48,1,53.9999983520508,2|8,0:0|0:2,0:0:0:0:
335,17,28817,2,0,P|363:34|385:56,1,53.9999983520508
460,91,29166,2,0,L|522:78,1,53.9999983520508,10|0,0:1|0:0,0:0:0:0:
434,168,29514,2,0,B|471:190|471:190|485:269,1,107.999996704102,10|8,0:2|0:1,0:0:0:0:
490,331,30038,1,8,0:2:0:0:
415,306,30212,1,0,3:0:0:0:
415,306,30299,1,0,3:0:0:0:
415,306,30387,2,0,L|357:318,1,53.9999983520508,8|8,0:1|0:1,0:0:0:0:
298,270,30735,2,0,L|240:258,1,53.9999983520508,8|0,0:2|0:0,0:0:0:0:
175,189,31084,6,0,B|172:148|172:148|198:131,1,71.9999978027344,14|2,0:1|0:0,0:0:0:0:
0,116,31607,2,0,B|26:99|26:99|23:58,1,71.9999978027344,2|2,0:0|0:0,0:0:0:0:
58,219,32131,2,0,L|26:290,1,71.9999978027344,2|10,0:0|0:2,0:0:0:0:
121,81,32654,2,0,L|150:15,1,71.9999978027344,10|10,0:1|0:2,0:0:0:0:
327,77,33177,1,8,0:1:0:0:
501,9,33526,1,8,0:2:0:0:
466,193,33875,6,0,B|431:178|431:178|388:198,1,71.9999978027344,10|2,0:1|0:0,0:0:0:0:
473,369,34398,2,0,B|438:384|438:384|395:364,1,71.9999978027344,2|2,0:0|0:0,0:0:0:0:
235,294,34921,1,2,0:0:0:0:
312,284,35096,2,0,L|447:288,1,120,10|8,0:2|0:1,0:0:0:0:
491,234,35619,2,0,P|498:200|502:167,1,60,8|0,0:2|0:0,0:0:0:0:
454,112,35968,1,8,0:1:0:0:
325,200,36317,1,8,0:2:0:0:
381,345,36666,5,10,0:1:0:0:
307,370,36840,1,2,0:0:0:0:
246,321,37014,1,8,0:2:0:0:
246,321,37189,2,0,B|178:328|208:362|118:371,1,120,0|8,0:0|0:1,0:0:0:0:
0,293,37887,1,8,0:2:0:0:
155,253,38235,1,8,0:1:0:0:
155,253,38323,1,0,3:0:0:0:
155,253,38410,1,8,0:2:0:0:
33,154,38759,6,0,P|37:72|28:25,1,120,8|8,0:1|0:2,0:0:0:0:
184,11,39456,1,10,0:1:0:0:
238,73,39631,2,0,P|277:80|316:72,1,60,2|8,0:0|0:2,0:0:0:0:
368,128,39980,2,0,P|414:154|452:226,1,120,0|8,0:0|0:1,0:0:0:0:
404,274,40503,1,0,0:0:0:0:
309,242,40677,2,0,L|336:368,1,120,10|8,0:2|0:1,0:0:0:0:
410,384,41200,1,8,0:2:0:0:
481,337,41375,1,0,3:0:0:0:
481,337,41462,1,0,3:0:0:0:
481,337,41549,2,0,L|488:275,2,60,8|8|8,0:1|0:1|0:2,0:0:0:0:
409,86,42247,6,0,B|370:77|370:77|335:25,1,71.9999978027344,14|2,0:1|0:0,0:0:0:0:
318,256,42770,2,0,B|344:226|344:226|407:222,1,71.9999978027344,2|2,0:0|0:0,0:0:0:0:
216,92,43293,2,0,B|228:129|228:129|200:185,1,71.9999978027344,2|10,0:0|0:2,0:0:0:0:
331,334,43817,1,10,0:1:0:0:
318,256,43991,2,0,P|315:220|320:184,1,60,10|0,0:2|0:0,0:0:0:0:
364,133,44340,1,8,0:1:0:0:
212,0,44689,1,8,0:2:0:0:
43,138,45038,6,0,L|2:222,1,71.9999978027344,10|2,0:1|0:0,0:0:0:0:
232,175,45561,2,0,L|240:267,1,71.9999978027344,2|2,0:0|0:0,0:0:0:0:
100,384,46084,2,0,L|116:292,1,71.9999978027344,2|10,0:0|0:2,0:0:0:0:
172,113,46607,6,0,P|240:89|298:120,1,120,10|0,0:1|0:0,0:0:0:0:
360,96,47131,1,8,0:1:0:0:
440,221,47480,1,8,0:2:0:0:
501,154,47654,1,0,3:0:0:0:
501,154,47741,1,0,3:0:0:0:
501,154,47828,6,0,L|512:23,1,120,10|8,0:1|0:2,0:0:0:0:
421,15,48352,2,0,B|350:14|377:54|297:48,1,120,0|8,0:0|0:1,0:0:0:0:
267,198,49049,1,8,0:2:0:0:
303,359,49398,1,8,0:1:0:0:
303,359,49485,1,0,3:0:0:0:
303,359,49573,1,8,0:2:0:0:
162,293,49921,6,0,L|74:280,1,60,8|8,0:1|0:1,0:0:0:0:
44,232,50270,1,8,0:2:0:0:
44,232,50357,1,8,0:2:0:0:
44,232,50445,2,0,L|51:184,1,30,8|4,0:3|0:3,0:0:0:0:
74,173,50619,6,0,P|70:133|57:96,2,60,14|2|2,0:1|0:0|0:0,0:0:0:0:
147,144,51142,2,0,P|163:108|170:68,2,60,2|2|2,0:0|0:0|0:0,0:0:0:0:
232,149,51666,2,0,P|264:126|290:95,1,60,2|2,0:0|0:0,0:0:0:0:
304,38,52014,5,2,0:0:0:0:
464,256,53061,6,0,P|440:228|382:224,1,90,2|0,0:0|0:0,0:0:0:0:
362,239,53410,6,0,L|203:214,1,143.999995605469,12|8,0:1|0:2,0:0:0:0:
145,152,53933,1,2,0:0:0:0:
67,204,54107,2,0,L|-9:184,1,71.9999978027344,2|8,0:0|0:1,0:0:0:0:
52,319,54456,1,10,0:2:0:0:
140,260,54631,2,0,P|185:253|268:315,1,143.999995605469,10|8,0:1|0:1,0:0:0:0:
292,384,55154,1,8,0:2:0:0:
292,384,55503,2,0,L|305:300,1,71.9999978027344,0|8,0:0|0:1,0:0:0:0:
395,241,55852,2,0,L|408:325,1,71.9999978027344,8|0,0:2|0:0,0:0:0:0:
487,182,56200,6,0,P|445:145|339:149,2,143.999995605469,10|8|0,0:1|0:2|0:0,0:0:0:0:
297,270,57247,1,10,0:2:0:0:
224,203,57421,2,0,L|242:46,1,143.999995605469,10|8,0:1|0:1,0:0:0:0:
159,11,57945,2,0,L|149:101,1,71.9999978027344,8|8,0:2|0:1,0:0:0:0:
90,153,58293,1,2,0:0:0:0:
13,98,58468,1,10,0:1:0:0:
72,25,58642,1,10,0:2:0:0:
151,82,58817,1,2,0:0:0:0:
231,9,58991,6,0,B|310:-6|290:38|396:23,1,143.999995605469,12|8,0:1|0:2,0:0:0:0:
487,34,59514,2,0,P|478:79|473:121,1,71.9999978027344,2|0,0:0|0:0,0:0:0:0:
387,140,59863,2,0,P|394:175|399:210,1,71.9999978027344,10|8,0:1|0:2,0:0:0:0:
480,258,60212,2,0,L|322:233,1,143.999995605469,10|8,0:1|0:1,0:0:0:0:
278,169,60735,1,8,0:2:0:0:
278,169,61084,1,2,0:0:0:0:
202,224,61259,1,10,0:1:0:0:
276,280,61433,1,10,0:2:0:0:
199,332,61607,1,2,0:0:0:0:
108,273,61782,6,0,B|64:267|64:267|-10:355,1,143.999995605469,8|8,0:1|0:2,0:0:0:0:
27,253,62305,2,0,P|34:207|29:160,1,71.9999978027344,2|0,0:0|0:0,0:0:0:0:
124,161,62654,2,0,P|117:115|122:68,1,71.9999978027344,10|8,0:1|0:2,0:0:0:0:
27,66,63003,2,0,L|179:36,1,143.999995605469,10|8,0:1|0:1,0:0:0:0:
226,111,63526,2,0,L|127:130,1,71.9999978027344,8|8,0:2|0:1,0:0:0:0:
81,182,63875,5,8,0:2:0:0:
81,182,63962,1,0,3:0:0:0:
81,182,64049,1,8,0:1:0:0:
151,259,64224,1,8,0:2:0:0:
151,259,64311,1,8,0:2:0:0:
151,259,64398,1,8,0:3:0:0:
44,292,64573,6,0,B|132:299|93:359|184:366,1,143.999995605469,14|8,0:1|0:2,0:0:0:0:
270,384,65096,2,0,P|263:343|254:304,1,71.9999978027344,2|0,0:0|0:0,0:0:0:0:
368,260,65445,2,0,P|360:295|354:330,1,71.9999978027344,10|8,0:1|0:2,0:0:0:0:
266,230,65793,2,0,B|98:193,1,143.999995605469,10|8,0:1|0:1,0:0:0:0:
39,238,66317,1,8,0:2:0:0:
39,238,66666,2,0,L|25:327,1,71.9999978027344,0|8,0:0|0:1,0:0:0:0:
133,352,67014,2,0,L|119:263,1,71.9999978027344,8|0,0:2|0:0,0:0:0:0:
104,148,67363,6,0,P|161:124|257:165,1,143.999995605469,10|8,0:1|0:2,0:0:0:0:
327,117,67887,2,0,P|335:157|350:195,1,71.9999978027344,2|0,0:0|0:0,0:0:0:0:
415,248,68235,2,0,P|427:214|433:178,1,71.9999978027344,10|8,0:1|0:2,0:0:0:0:
512,98,68584,2,0,B|435:84|467:44|385:24,1,143.999995605469,10|8,0:1|0:1,0:0:0:0:
303,50,69107,2,0,P|256:53|206:38,1,71.9999978027344,8|8,0:2|0:1,0:0:0:0:
195,30,69369,1,0,3:0:0:0:
195,30,69456,1,2,3:2:0:0:
133,100,69631,1,10,0:1:0:0:
43,74,69805,2,0,P|88:102|116:166,1,107.999996704102,10|0,0:2|0:0,0:0:0:0:
150,179,70154,6,0,B|115:222|115:222|131:335,1,143.999995605469,12|8,0:1|0:2,0:0:0:0:
206,360,70677,1,2,0:0:0:0:
282,305,70852,1,2,0:0:0:0:
202,256,71026,1,10,0:1:0:0:
127,309,71200,2,0,L|50:291,1,71.9999978027344,10|0,0:2|0:0,0:0:0:0:
13,185,71549,6,0,L|174:166,1,143.999995605469,8|8,0:1|0:2,0:0:0:0:
341,252,72247,2,0,P|329:215|310:184,1,71.9999978027344,2|8,0:0|0:1,0:0:0:0:
243,122,72596,2,0,P|255:85|274:54,1,71.9999978027344,10|0,0:2|0:0,0:0:0:0:
356,16,72945,6,0,P|437:51|510:9,1,143.999995605469,10|8,0:1|0:2,0:0:0:0:
489,127,73468,2,0,L|506:201,1,71.9999978027344,2|0,0:0|0:0,0:0:0:0:
397,248,73817,2,0,L|414:174,1,71.9999978027344,10|8,0:1|0:2,0:0:0:0:
332,110,74166,1,2,0:0:0:0:
240,172,74340,6,0,L|66:145,1,143.999995605469,12|0,0:1|0:0,0:0:0:0:
12,317,75038,1,10,0:2:0:0:
95,256,75212,1,8,0:2:0:0:
95,256,75299,1,8,0:2:0:0:
95,256,75387,1,8,0:2:0:0:
27,191,75561,1,8,0:3:0:0:
27,191,75648,1,4,0:3:0:0:
27,191,75735,6,0,P|50:135|133:134,1,132.00000402832,14|8,0:1|0:2,0:0:0:0:
199,107,76259,2,0,P|139:115|96:43,1,132.00000402832,10|8,0:1|0:2,0:0:0:0:
246,28,76782,2,0,L|230:180,1,132.00000402832,14|0,0:1|0:0,0:0:0:0:
284,227,77305,2,0,L|373:215,1,66.0000020141602,8|8,0:1|0:2,0:0:0:0:
484,323,77828,1,10,0:1:0:0:
398,317,78003,1,8,0:1:0:0:
312,308,78177,2,0,P|263:321|248:345,1,66.0000020141602,8|0,0:2|3:0,0:0:0:0:
244,361,78439,1,0,3:0:0:0:
244,361,78526,6,0,P|179:333|171:271,1,132.00000402832,14|8,0:1|0:2,0:0:0:0:
136,198,79049,2,0,P|144:268|94:306,1,132.00000402832,10|8,0:1|0:2,0:0:0:0:
0,384,79573,2,0,L|19:246,1,132.00000402832,14|0,0:1|0:0,0:0:0:0:
53,183,80096,2,0,L|36:109,1,66.0000020141602,8|8,0:1|0:2,0:0:0:0:
175,16,80619,1,10,0:1:0:0:
158,99,80793,1,8,0:1:0:0:
141,183,80968,1,8,0:2:0:0:
269,297,81317,6,0,P|300:225|262:178,1,132.00000402832,14|8,0:1|0:2,0:0:0:0:
236,107,81840,2,0,P|271:104|309:81,1,66.0000020141602,10|0,0:3|0:0,0:0:0:0:
372,34,82189,1,10,0:2:0:0:
372,34,82276,1,8,0:2:0:0:
372,34,82363,2,0,P|439:43|500:-4,1,132.00000402832,14|0,0:1|0:0,0:0:0:0:
465,113,82887,5,8,0:2:0:0:
358,247,83235,6,0,L|318:252,3,33.0000010070801,8|2|2|2,0:3|0:0|0:0|0:0,0:0:0:0:
291,278,83584,2,0,L|252:274,3,33.0000010070801,8|2|2|2,0:3|0:0|0:0|0:0,0:0:0:0:
222,251,83932,2,0,L|183:255,1,33.0000010070801,10|2,0:1|0:0,0:0:0:0:
139,260,84107,5,14,0:1:0:0:
43,358,84456,2,0,P|38:324|24:292,1,53.9999983520508,2|8,0:0|0:2,0:0:0:0:
0,239,84805,1,2,0:0:0:0:
100,141,85154,2,0,L|87:201,2,53.9999983520508,10|10|0,0:1|0:1|0:0,0:0:0:0:
55,67,85677,1,8,0:2:0:0:
190,28,86026,1,8,0:1:0:0:
172,103,86200,1,8,0:2:0:0:
277,196,86549,2,0,P|266:255|273:312,1,107.999996704102,2|10,0:0|0:1,0:0:0:0:
139,353,87247,5,2,0:0:0:0:
126,278,87421,2,0,P|95:253|21:291,2,107.999996704102,10|2|10,0:2|0:0|0:1,0:0:0:0:
230,372,88468,1,8,0:2:0:0:
350,300,88817,1,10,0:1:0:0:
403,356,88991,2,0,L|530:370,1,107.999996704102,10|0,0:2|0:0,0:0:0:0:
503,227,89689,6,0,L|485:176,2,53.9999983520508,8|0|0,0:1|0:0|0:0,0:0:0:0:
430,269,90212,1,10,0:2:0:0:
371,215,90387,2,0,P|363:182|386:98,1,107.999996704102,2|8,0:0|0:1,0:0:0:0:
312,70,90910,2,0,L|248:57,1,53.9999983520508,8|0,0:1|0:0,0:0:0:0:
198,3,91259,1,8,0:2:0:0:
125,122,91607,1,8,0:1:0:0:
199,105,91782,1,10,0:2:0:0:
277,221,92131,1,2,0:0:0:0:
206,342,92480,6,0,P|168:299|110:285,1,107.999996704102,10|0,0:1|0:0,0:0:0:0:
65,232,93003,2,0,P|39:213|7:138,1,107.999996704102,10|0,0:2|0:0,0:0:0:0:
15,64,93526,2,0,P|34:39|69:28,1,53.9999983520508,10|8,0:1|0:1,0:0:0:0:
137,73,93875,1,0,0:0:0:0:
196,17,94049,2,0,L|316:32,1,107.999996704102,8|8,0:2|0:1,0:0:0:0:
383,89,94573,1,8,0:2:0:0:
463,74,94747,1,8,0:3:0:0:
490,0,94921,1,4,0:3:0:0:
433,158,95270,5,14,0:1:0:0:
300,111,95619,1,8,0:2:0:0:
191,199,95968,1,0,0:0:0:0:
191,199,96142,2,0,L|249:175,1,53.9999983520508,10|0,0:1|0:0,0:0:0:0:
165,272,96491,2,0,L|115:251,1,53.9999983520508,10|0,0:2|0:0,0:0:0:0:
39,250,96840,2,0,L|-6:262,2,26.9999991760254,8|0|8,0:1|3:0|0:2,0:0:0:0:
105,373,97363,5,8,0:1:0:0:
177,348,97538,1,8,0:1:0:0:
252,376,97712,2,0,P|283:371|311:361,1,53.9999983520508,8|0,0:2|3:0,0:0:0:0:
339,370,97974,1,0,3:0:0:0:
339,370,98061,6,0,L|354:251,1,107.999996704102,10|8,0:1|0:2,0:0:0:0:
317,185,98584,1,0,3:0:0:0:
317,185,98671,1,0,3:0:0:0:
317,185,98759,1,0,3:0:0:0:
370,128,98933,2,0,L|442:116,1,53.9999983520508,10|0,0:1|0:0,0:0:0:0:
310,75,99282,2,0,L|252:59,1,53.9999983520508,10|0,0:2|0:0,0:0:0:0:
180,26,99631,2,0,L|174:-7,2,26.9999991760254,8|0|8,0:1|3:0|0:2,0:0:0:0:
96,116,100154,5,8,0:1:0:0:
177,107,100328,1,8,0:1:0:0:
220,176,100503,2,0,P|219:213|197:268,1,80.9999975280763,8|0,0:2|0:0,0:0:0:0:
178,277,100852,6,0,L|296:258,1,107.999996704102,10|8,0:1|0:2,0:0:0:0:
359,286,101375,2,0,P|386:296|415:318,1,53.9999983520508
482,331,101724,2,0,L|468:402,1,53.9999983520508,10|0,0:1|0:0,0:0:0:0:
512,256,102073,2,0,L|498:185,1,53.9999983520508,10|0,0:2|0:0,0:0:0:0:
445,153,102421,2,0,L|406:147,2,26.9999991760254,8|0|8,0:1|3:0|0:2,0:0:0:0:
499,23,102945,5,8,0:1:0:0:
433,65,103119,1,8,0:1:0:0:
370,16,103293,2,0,P|343:12|306:17,1,53.9999983520508,8|0,0:2|3:0,0:0:0:0:
288,36,103555,1,0,3:0:0:0:
288,36,103642,6,0,B|232:36|242:68|174:54,1,107.999996704102,10|8,0:1|0:2,0:0:0:0:
125,104,104166,2,0,P|127:135|136:167,1,53.9999983520508
66,208,104514,2,0,L|74:271,1,53.9999983520508,10|0,0:1|0:0,0:0:0:0:
9,149,104863,2,0,B|17:87|17:87|-2:29,1,107.999996704102,10|8,0:2|0:1,0:0:0:0:
72,6,105387,1,8,0:2:0:0:
151,39,105561,1,0,3:0:0:0:
151,39,105648,1,0,3:0:0:0:
151,39,105735,2,0,L|213:31,2,53.9999983520508,8|8|8,0:1|0:1|0:2,0:0:0:0:
162,226,106433,6,0,L|65:217,1,71.9999978027344,10|2,0:1|0:0,0:0:0:0:
335,236,106956,2,0,L|406:242,1,71.9999978027344,2|2,0:0|0:0,0:0:0:0:
219,342,107480,2,0,B|248:315|248:315|277:357,1,71.9999978027344,2|10,0:0|0:2,0:0:0:0:
283,135,108003,2,0,B|254:162|254:162|225:120,1,71.9999978027344,10|10,0:1|0:2,0:0:0:0:
356,36,108526,6,0,P|398:34|422:41,1,60,8|8,0:1|0:1,0:0:0:0:
483,76,108875,1,8,0:2:0:0:
455,153,109049,1,0,3:0:0:0:
455,153,109137,1,0,3:0:0:0:
455,153,109224,6,0,L|468:225,1,71.9999978027344,10|2,0:1|0:0,0:0:0:0:
283,135,109747,2,0,L|270:207,1,71.9999978027344,2|2,0:0|0:0,0:0:0:0:
361,384,110270,2,0,L|365:290,1,71.9999978027344,2|10,0:0|0:2,0:0:0:0:
368,121,110793,1,10,0:1:0:0:
315,63,110968,2,0,P|273:55|245:63,1,60,10|0,0:2|0:0,0:0:0:0:
186,93,111317,2,0,L|110:76,1,60,8|8,0:1|0:1,0:0:0:0:
49,86,111666,2,0,L|37:27,1,60,8|0,0:2|0:0,0:0:0:0:
100,164,112014,6,0,P|110:217|69:289,1,120,10|8,0:1|0:2,0:0:0:0:
16,315,112538,2,0,L|100:332,1,60
151,340,112887,1,8,0:1:0:0:
17,205,113235,1,8,0:2:0:0:
198,145,113584,1,8,0:1:0:0:
198,145,113671,1,0,3:0:0:0:
198,145,113759,1,8,0:2:0:0:
310,252,114107,5,8,0:1:0:0:
381,219,114282,1,8,0:1:0:0:
412,147,114456,1,8,0:2:0:0:
502,274,114805,2,0,P|454:288|407:363,1,120,10|8,0:1|0:2,0:0:0:0:
344,381,115328,2,0,L|216:374,1,120,0|8,0:0|0:1,0:0:0:0:
127,314,115852,1,0,0:0:0:0:
203,269,116026,2,0,P|223:215|205:133,1,120,10|8,0:2|0:1,0:0:0:0:
149,98,116549,2,0,L|66:109,1,60,8|0,0:2|3:0,0:0:0:0:
54,123,116811,1,0,3:0:0:0:
54,123,116898,2,0,L|39:201,2,60,8|8|8,0:1|0:1|0:2,0:0:0:0:
293,26,117596,6,0,B|318:21|318:21|304:65,1,71.9999978027344,10|2,0:1|0:0,0:0:0:0:
393,245,118119,2,0,B|384:269|384:269|353:235,1,71.9999978027344,2|2,0:0|0:0,0:0:0:0:
149,190,118642,2,0,B|132:170|132:170|177:160,1,71.9999978027344,2|10,0:0|0:2,0:0:0:0:
332,142,119166,1,8,0:1:0:0:
279,199,119340,2,0,P|270:235|270:285,1,60,8|0,0:2|0:0,0:0:0:0:
304,326,119689,2,0,L|386:316,1,60,8|8,0:1|0:1,0:0:0:0:
433,353,120038,1,8,0:2:0:0:
487,297,120212,1,0,3:0:0:0:
487,297,120299,1,0,3:0:0:0:
487,297,120387,6,0,L|435:239,1,71.9999978027344,10|2,0:1|0:0,0:0:0:0:
479,13,120910,2,0,L|421:65,1,71.9999978027344,2|2,0:0|0:0,0:0:0:0:
218,154,121433,2,0,L|315:153,1,71.9999978027344,2|10,0:0|0:2,0:0:0:0:
131,53,121956,1,10,0:1:0:0:
82,114,122131,1,10,0:2:0:0:
118,182,122305,1,2,0:0:0:0:
55,261,122480,2,0,P|46:223|26:185,1,60,10|8,0:1|0:1,0:0:0:0:
138,281,122828,2,0,B|192:283|173:319|229:325,1,90,10|0,0:2|0:0,0:0:0:0:
234,356,123177,6,0,L|255:219,1,120,10|8,0:1|0:2,0:0:0:0:
313,188,123700,1,0,3:0:0:0:
313,188,123788,1,0,3:0:0:0:
313,188,123875,2,0,P|352:193|392:171,1,60,0|8,0:0|0:1,0:0:0:0:
479,74,124398,1,8,0:2:0:0:
343,19,124747,1,8,0:1:0:0:
343,19,124834,1,0,3:0:0:0:
343,19,124921,1,8,0:2:0:0:
439,141,125270,5,8,0:1:0:0:
490,199,125445,1,8,0:1:0:0:
443,261,125619,1,8,0:2:0:0:
443,261,125706,1,8,0:2:0:0:
443,261,125793,2,0,L|436:319,1,30,8|4,0:3|0:3,0:0:0:0:
417,323,125968,6,0,P|384:346|358:376,2,60,14|2|2,0:1|0:0|0:0,0:0:0:0:
355,274,126491,2,0,P|315:278|277:292,2,60,2|2|2,0:0|0:0|0:0,0:0:0:0:
329,200,127014,1,2,0:0:0:0:
256,163,127189,1,2,0:0:0:0:
173,202,127363,5,2,0:0:0:0:
61,16,128410,6,0,P|66:59|42:97,1,90,2|0,0:0|0:0,0:0:0:0:
5,88,128759,6,0,L|27:255,1,143.999995605469,12|8,0:1|0:2,0:0:0:0:
104,277,129282,1,2,0:0:0:0:
70,364,129456,2,0,L|-24:350,1,71.9999978027344,2|8,0:0|0:1,0:0:0:0:
172,383,129805,1,10,0:2:0:0:
221,303,129980,2,0,P|253:276|356:306,1,143.999995605469,10|8,0:1|0:1,0:0:0:0:
418,377,130503,1,8,0:2:0:0:
418,377,130852,2,0,P|422:323|427:288,1,71.9999978027344,0|8,0:0|0:1,0:0:0:0:
485,234,131200,2,0,P|481:180|476:145,1,71.9999978027344,8|0,0:2|0:0,0:0:0:0:
372,53,131549,6,0,B|461:37|437:86|537:66,2,143.999995605469,10|8|0,0:1|0:2|0:0,0:0:0:0:
194,207,132596,1,10,0:2:0:0:
242,277,132770,2,0,L|215:116,1,143.999995605469,10|8,0:1|0:1,0:0:0:0:
290,75,133293,2,0,L|305:155,1,71.9999978027344,8|8,0:2|0:1,0:0:0:0:
371,210,133642,1,2,0:0:0:0:
463,194,133817,1,10,0:1:0:0:
404,124,133991,1,10,0:2:0:0:
371,210,134166,1,2,0:0:0:0:
303,145,134340,6,0,P|230:134|160:79,1,143.999995605469,12|8,0:1|0:2,0:0:0:0:
126,13,134863,2,0,P|81:0|36:6,1,71.9999978027344,2|0,0:0|0:0,0:0:0:0:
74,93,135212,2,0,P|40:125|22:167,1,71.9999978027344,10|8,0:1|0:2,0:0:0:0:
134,190,135561,2,0,L|155:346,1,143.999995605469,10|8,0:1|0:1,0:0:0:0:
69,376,136084,1,8,0:2:0:0:
69,376,136433,1,2,0:0:0:0:
17,298,136607,1,10,0:1:0:0:
100,256,136782,1,10,0:2:0:0:
153,332,136956,1,2,0:0:0:0:
237,241,137131,6,0,B|322:246|290:289|378:286,1,143.999995605469,8|8,0:1|0:2,0:0:0:0:
454,243,137654,2,0,L|472:333,1,71.9999978027344,2|0,0:0|0:0,0:0:0:0:
359,384,138003,2,0,L|377:294,1,71.9999978027344,10|8,0:1|0:2,0:0:0:0:
364,208,138352,2,0,P|316:193|237:248,1,143.999995605469,10|8,0:1|0:1,0:0:0:0:
230,332,138875,2,0,P|176:309|159:284,1,71.9999978027344,8|8,0:2|0:1,0:0:0:0:
144,209,139224,1,8,0:3:0:0:
144,209,139311,1,8,0:3:0:0:
144,209,139398,1,4,0:3:0:0:
221,155,139573,1,8,0:2:0:0:
221,155,139660,1,8,0:2:0:0:
221,155,139747,2,0,L|206:113,1,35.9999989013672,8|4,0:3|0:3,0:0:0:0:
227,78,139921,6,0,L|379:44,1,143.999995605469,14|8,0:1|0:2,0:0:0:0:
455,11,140445,2,0,P|477:49|502:82,1,71.9999978027344,2|0,0:0|0:0,0:0:0:0:
386,167,140793,2,0,P|408:128|424:90,1,71.9999978027344,10|8,0:1|0:2,0:0:0:0:
502,222,141142,2,0,P|445:230|358:280,1,143.999995605469,10|8,0:1|0:1,0:0:0:0:
309,344,141666,1,8,0:2:0:0:
309,344,142014,2,0,L|213:326,1,71.9999978027344,0|8,0:0|0:1,0:0:0:0:
177,258,142363,2,0,L|81:276,1,71.9999978027344,8|0,0:2|0:0,0:0:0:0:
1,351,142712,6,0,L|18:256,1,71.9999978027344,10|0,0:1|0:0,0:0:0:0:
53,160,143061,1,10,0:2:0:0:
138,192,143235,2,0,P|145:147|136:112,1,71.9999978027344,2|0,0:0|0:0,0:0:0:0:
215,66,143584,2,0,P|179:37|144:27,1,71.9999978027344,10|8,0:1|0:2,0:0:0:0:
71,81,143933,2,0,L|244:62,1,143.999995605469,10|8,0:1|0:1,0:0:0:0:
271,139,144456,2,0,L|346:151,1,71.9999978027344,8|8,0:2|0:1,0:0:0:0:
381,184,144718,1,0,3:0:0:0:
381,184,144805,1,2,3:2:0:0:
403,92,144980,1,10,0:1:0:0:
492,65,145154,2,0,P|438:59|390:20,1,107.999996704102,10|0,0:2|0:0,0:0:0:0:
351,12,145503,6,0,L|196:39,1,143.999995605469,12|8,0:1|0:2,0:0:0:0:
150,110,146026,1,2,0:0:0:0:
66,68,146200,1,2,0:0:0:0:
137,6,146375,1,10,0:1:0:0:
66,68,146549,2,0,L|50:150,1,71.9999978027344,10|0,0:2|3:0,0:0:0:0:
73,180,146811,1,0,3:0:0:0:
73,180,146898,6,0,P|102:230|70:323,1,143.999995605469,8|8,0:1|0:2,0:0:0:0:
262,365,147596,2,0,P|252:319|250:287,1,71.9999978027344,2|8,0:0|0:1,0:0:0:0:
324,216,147945,2,0,P|334:170|336:138,1,71.9999978027344,10|0,0:2|0:0,0:0:0:0:
226,43,148293,6,0,L|321:33,1,71.9999978027344,10|0,0:1|0:0,0:0:0:0:
387,72,148642,1,10,0:2:0:0:
475,30,148817,2,0,P|472:83|481:116,1,71.9999978027344,2|0,0:0|0:0,0:0:0:0:
382,169,149166,2,0,P|337:139|304:131,1,71.9999978027344,10|8,0:1|0:2,0:0:0:0:
209,171,149514,1,2,0:0:0:0:
260,250,149689,6,0,L|265:299,3,35.9999989013672,12|0|0|0,0:1|3:0|3:0|3:0,0:0:0:0:
337,302,150038,2,0,L|340:266,3,35.9999989013672,12|0|0|0,0:1|3:0|3:0|3:0,0:0:0:0:
412,236,150387,1,12,0:2:0:0:
412,236,150474,1,8,0:2:0:0:
412,236,150561,1,8,0:2:0:0:
495,297,150735,1,8,0:2:0:0:
495,297,150823,1,8,0:2:0:0:
495,297,150910,2,0,L|503:249,1,35.9999989013672,8|8,0:2|0:2,0:0:0:0:
495,219,151084,5,14,0:1:0:0:
468,137,151259,1,2,0:0:0:0:
440,55,151433,1,10,0:2:0:0:
506,1,151607,2,0,P|466:21|379:2,1,132.00000402832,2|8,0:0|0:1,0:0:0:0:
294,86,152131,5,10,0:2:0:0:
211,109,152305,1,2,0:0:0:0:
128,132,152480,1,10,0:1:0:0:
87,207,152654,2,0,P|96:151|49:85,1,132.00000402832,2|0,0:0|3:0,0:0:0:0:
15,77,153090,1,0,3:0:0:0:
15,77,153177,2,0,B|70:64|71:14|71:14|141:25|141:25|154:31|154:31|225:39,1,231.000007049561,2|0,3:2|0:0,0:0:0:0:
244,14,153875,5,10,0:1:0:0:
273,94,154049,1,2,0:0:0:0:
302,174,154224,1,10,0:2:0:0:
379,209,154398,2,0,P|321:204|269:260,1,132.00000402832,2|8,0:0|0:1,0:0:0:0:
183,358,154921,5,10,0:2:0:0:
166,273,155096,1,10,0:1:0:0:
149,189,155270,1,2,0:0:0:0:
186,111,155445,2,0,P|157:146|69:138,1,132.00000402832,10|8,0:1|3:1,0:0:0:0:
49,109,155881,1,0,3:0:0:0:
49,109,155968,2,0,B|59:162|26:191|26:191|21:234|54:233|44:277|44:277|24:295|23:343,1,231.000007049561,2|4,3:2|0:3,0:0:0:0:
3,361,156666,6,0,L|140:341,2,132.00000402832,14|10|2,0:1|0:2|0:0,0:0:0:0:
137,254,157712,2,0,P|214:235|244:202,1,99.0000030212403,10|0,0:2|0:0,0:0:0:0:
253,189,158061,6,0,L|116:169,2,132.00000402832,10|10|2,0:1|0:2|0:0,0:0:0:0:
185,30,159107,2,0,P|250:37|281:12,1,99.0000030212403,10|0,0:2|0:0,0:0:0:0:
320,18,159456,6,0,B|399:30|361:72|461:81,1,132.00000402832,10|8,0:1|0:2,0:0:0:0:
504,24,159980,1,0,3:0:0:0:
504,24,160067,1,0,3:0:0:0:
504,24,160154,2,0,L|512:92,2,66.0000020141602,2|8|8,3:0|0:1|0:2,0:0:0:0:
307,96,160852,5,12,0:1:0:0:
370,153,161026,1,8,0:2:0:0:
370,153,161113,1,8,0:2:0:0:
370,153,161200,1,8,0:2:0:0:
307,212,161375,1,8,0:2:0:0:
307,212,161462,1,8,0:2:0:0:
307,212,161549,1,8,0:3:0:0:
368,272,161724,1,4,0:3:0:0:
368,272,161811,1,4,0:3:0:0:
368,272,161898,2,0,L|373:323,2,33.0000010070801,8|8|8,0:2|0:2|0:2,0:0:0:0:
264,313,162247,6,0,P|213:317|193:331,1,66.0000020141602,14|0,0:1|0:0,0:0:0:0:
126,257,162596,2,0,P|103:303|106:327,1,66.0000020141602,10|0,0:2|0:0,0:0:0:0:
208,232,162945,2,0,P|179:189|156:179,1,66.0000020141602,2|8,0:0|0:1,0:0:0:0:
187,84,163294,2,0,P|136:88|116:102,1,66.0000020141602,10|0,0:2|0:0,0:0:0:0:
21,157,163642,6,0,L|113:176,1,66.0000020141602,10|0,0:1|0:0,0:0:0:0:
126,257,163991,2,0,L|218:238,1,66.0000020141602,10|0,0:2|0:0,0:0:0:0:
239,180,164340,2,0,L|331:199,1,66.0000020141602,2|8,0:0|0:1,0:0:0:0:
344,255,164689,2,0,L|436:236,1,66.0000020141602,10|0,0:2|0:0,0:0:0:0:
448,153,165038,6,0,L|438:260,1,107.999996704102,14|8,0:1|0:2,0:0:0:0:
326,353,165561,2,0,P|378:329|436:359,1,107.999996704102,14|8,0:1|0:2,0:0:0:0:
492,379,166084,1,14,0:1:0:0:
512,303,166259,1,8,0:1:0:0:
512,303,166346,1,0,3:0:0:0:
512,303,166433,6,0,B|457:269|496:196|496:196|426:210|397:171,1,215.999993408203,10|2,0:1|0:0,0:0:0:0:
344,82,167480,1,2,0:0:0:0:
501,15,167828,5,6,0:1:0:0:
200,251,169049,6,0,B|238:239|238:239|263:191|240:142,1,125.999996154785,2|2,0:0|0:0,0:0:0:0:
181,66,169921,1,2,0:0:0:0:
277,15,170270,1,2,0:0:0:0:
358,87,170619,6,0,B|401:102|436:55|436:55|400:219,1,251.999992309571,2|0,0:0|0:0,0:0:0:0:
389,265,171840,1,2,0:0:0:0:
246,345,172363,1,2,0:0:0:0:
144,304,172712,1,2,0:0:0:0:
43,347,173061,1,2,0:0:0:0:
54,238,173410,5,2,0:0:0:0:
54,238,174456,2,0,L|47:186,1,41.9999987182618,2|2,0:0|0:0,0:0:0:0:
114,375,175503,1,2,0:0:0:0:
190,170,176200,5,2,0:0:0:0:
104,233,177073,6,0,L|89:135,1,83.9999974365235,2|2,0:0|0:0,0:0:0:0:
7,9,177945,1,2,0:0:0:0:
102,61,178293,1,2,0:0:0:0:
198,9,178642,1,2,0:0:0:0:
285,74,178991,6,0,P|321:71|368:52,2,83.9999974365235,2|0|0,0:0|0:0|0:0,0:0:0:0:
207,151,180038,2,0,P|171:154|124:173,2,83.9999974365235,2|0|0,0:0|0:0|0:0,0:0:0:0:
277,234,181084,2,0,P|313:231|360:212,1,83.9999974365235,2|0,0:0|0:0,0:0:0:0:
437,287,181782,6,0,P|452:254|459:204,2,83.9999974365235,2|0|0,0:0|0:0|0:0,0:0:0:0:
491,381,182828,2,0,P|427:338|334:358,1,167.999994873047,2|0,0:0|0:0,0:0:0:0:
266,369,183700,1,2,0:0:0:0:
199,333,183875,2,0,P|176:301|171:238,1,83.9999974365235,2|2,0:0|0:3,0:0:0:0:
194,201,184340,2,0,L|212:174,1,27.9999991455078,2|2,0:3|0:3,0:0:0:0:
247,124,184573,5,8,0:1:0:0:
45,161,185270,1,2,0:3:0:0:
140,110,185619,1,8,0:1:0:0:
247,124,185968,1,8,0:1:0:0:
449,87,186666,1,2,0:3:0:0:
343,70,187014,1,2,0:3:0:0:
311,174,187363,6,0,L|326:266,1,83.9999974365235,8|0,0:1|0:0,0:0:0:0:
333,311,187887,1,8,0:1:0:0:
113,370,188410,6,0,P|127:302|213:255,1,167.999994873047,12|0,0:1|0:0,0:0:0:0:
331,134,189456,6,0,P|324:99|219:79,1,146.999995513916,4|0,0:3|0:0,0:0:0:0:
213,84,190154,6,0,L|43:65,1,143.999995605469,12|8,0:1|0:2,0:0:0:0:
16,145,190677,1,2,0:0:0:0:
93,197,190852,2,0,L|167:181,1,71.9999978027344,2|8,0:0|0:1,0:0:0:0:
281,260,191200,1,10,0:2:0:0:
217,326,191375,2,0,P|174:337|79:278,1,143.999995605469,10|8,0:1|0:1,0:0:0:0:
20,225,191898,1,8,0:2:0:0:
20,225,192247,2,0,L|9:307,1,71.9999978027344,0|8,0:0|0:1,0:0:0:0:
98,365,192596,2,0,L|87:283,1,71.9999978027344,8|0,0:2|0:0,0:0:0:0:
177,185,192945,6,0,B|215:168|215:168|344:202,2,143.999995605469,10|8|0,0:1|0:2|0:0,0:0:0:0:
376,288,193991,1,10,0:2:0:0:
397,367,194166,2,0,P|401:318|485:261,1,143.999995605469,10|8,0:1|0:1,0:0:0:0:
511,177,194689,2,0,P|463:168|434:133,1,71.9999978027344,8|8,0:2|0:1,0:0:0:0:
406,68,195038,1,2,0:0:0:0:
483,16,195212,1,10,0:1:0:0:
406,68,195387,1,10,0:2:0:0:
318,34,195561,1,2,0:0:0:0:
270,114,195735,6,0,P|215:118|178:221,1,143.999995605469,12|8,0:1|0:2,0:0:0:0:
221,267,196259,2,0,P|262:274|301:262,1,71.9999978027344,2|0,0:0|0:0,0:0:0:0:
351,338,196607,2,0,P|377:305|386:266,1,71.9999978027344,10|8,0:1|0:2,0:0:0:0:
465,204,196956,2,0,L|318:177,1,143.999995605469,10|8,0:1|0:1,0:0:0:0:
230,160,197480,1,8,0:2:0:0:
230,160,197828,1,2,0:0:0:0:
203,69,198003,1,10,0:1:0:0:
115,102,198177,1,10,0:2:0:0:
72,18,198352,1,2,0:0:0:0:
7,129,198526,6,0,B|-26:193|34:215|-10:289,1,143.999995605469,8|8,0:1|0:2,0:0:0:0:
20,360,199049,2,0,L|113:348,1,71.9999978027344,2|0,0:0|0:0,0:0:0:0:
168,243,199398,2,0,L|75:231,1,71.9999978027344,10|8,0:1|0:2,0:0:0:0:
7,129,199747,2,0,L|179:115,1,143.999995605469,10|8,0:1|0:1,0:0:0:0:
185,30,200270,2,0,L|92:34,1,71.9999978027344,8|8,0:2|0:1,0:0:0:0:
234,107,200619,1,8,0:3:0:0:
234,107,200706,1,8,0:3:0:0:
234,107,200793,1,4,0:3:0:0:
305,45,200968,1,8,0:2:0:0:
305,45,201055,1,8,0:2:0:0:
305,45,201142,2,0,L|351:38,1,35.9999989013672,8|4,0:3|0:3,0:0:0:0:
379,13,201317,6,0,L|529:46,1,143.999995605469,14|8,0:1|0:2,0:0:0:0:
504,136,201840,2,0,P|449:145|422:168,1,71.9999978027344,2|0,0:0|0:0,0:0:0:0:
332,245,202189,2,0,P|387:254|414:277,1,71.9999978027344,10|8,0:1|0:2,0:0:0:0:
476,372,202538,2,0,L|492:208,1,143.999995605469,10|8,0:1|0:1,0:0:0:0:
504,136,203061,1,8,0:2:0:0:
504,136,203410,2,0,P|453:131|414:117,1,71.9999978027344,0|8,0:0|0:1,0:0:0:0:
346,63,203759,2,0,P|310:64|275:73,1,71.9999978027344,8|0,0:2|0:0,0:0:0:0:
150,13,204107,6,0,L|165:111,1,71.9999978027344,10|0,0:1|0:0,0:0:0:0:
229,148,204456,1,10,0:2:0:0:
164,216,204631,2,0,P|114:234|95:259,1,71.9999978027344,2|0,0:0|0:0,0:0:0:0:
99,340,204980,2,0,P|139:374|170:378,1,71.9999978027344,10|8,0:1|0:2,0:0:0:0:
231,322,205328,2,0,B|322:321|282:379|389:374,1,143.999995605469,10|8,0:1|0:1,0:0:0:0:
453,356,205852,1,8,0:2:0:0:
491,270,206026,1,8,0:1:0:0:
491,270,206113,1,0,3:0:0:0:
491,270,206200,1,2,3:2:0:0:
411,190,206375,1,10,0:1:0:0:
363,295,206549,2,0,P|312:287|268:237,1,107.999996704102,10|0,0:2|0:0,0:0:0:0:
264,202,206898,6,0,B|223:180|223:180|104:205,1,143.999995605469,12|8,0:1|0:2,0:0:0:0:
44,244,207421,1,2,0:0:0:0:
100,318,207596,1,2,0:0:0:0:
23,372,207770,1,10,0:1:0:0:
100,318,207945,2,0,P|155:332|181:363,1,71.9999978027344,10|0,0:2|3:0,0:0:0:0:
196,383,208206,1,0,3:0:0:0:
196,383,208293,6,0,L|214:231,1,143.999995605469,8|8,0:1|0:2,0:0:0:0:
289,185,208817,1,2,0:0:0:0:
239,105,208991,2,0,P|239:52|247:24,1,71.9999978027344,2|8,0:0|0:1,0:0:0:0:
333,6,209340,2,0,P|339:41|337:77,1,71.9999978027344,10|0,0:2|0:0,0:0:0:0:
239,105,209689,6,0,L|144:97,1,71.9999978027344,10|0,0:1|0:0,0:0:0:0:
57,132,210038,1,10,0:2:0:0:
46,12,210212,2,0,P|85:47|96:95,1,71.9999978027344,2|0,0:0|0:0,0:0:0:0:
144,180,210561,2,0,P|104:215|93:263,1,71.9999978027344,10|8,0:1|0:2,0:0:0:0:
112,324,210910,1,2,0:0:0:0:
222,255,211084,6,0,L|308:236,1,71.9999978027344,14|0,0:1|0:0,0:0:0:0:
445,346,211607,1,2,0:0:0:0:
360,384,211782,1,10,0:3:0:0:
295,317,211956,1,2,0:0:0:0:
218,371,212131,1,10,0:2:0:0:
218,371,212218,1,8,0:2:0:0:
218,371,212305,1,10,0:3:0:0:
218,371,212392,1,4,0:3:0:0:
218,371,212480,6,0,L|46:349,1,143.999995605469,12|8,0:1|0:2,0:0:0:0:
13,281,213003,1,2,0:0:0:0:
85,221,213177,2,0,P|98:184|96:148,1,71.9999978027344,2|8,0:0|0:1,0:0:0:0:
21,23,213526,1,10,0:2:0:0:
114,58,213700,2,0,P|207:71|279:33,1,143.999995605469,10|8,0:1|0:1,0:0:0:0:
333,100,214224,2,0,P|383:98|408:118,1,71.9999978027344,8|0,0:2|3:0,0:0:0:0:
429,145,214485,1,0,3:0:0:0:
429,145,214573,2,0,L|445:59,1,71.9999978027344,0|8,3:0|0:1,0:0:0:0:
326,14,214921,2,0,L|342:100,1,71.9999978027344,8|0,0:2|0:0,0:0:0:0:
373,217,215270,6,0,B|300:210|300:210|298:214|298:214|209:206,1,143.999995605469,10|8,0:1|0:2,0:0:0:0:
159,264,215793,1,0,3:0:0:0:
159,264,215881,1,0,3:0:0:0:
159,264,215968,2,0,L|144:187,1,71.9999978027344,0|8,3:0|0:1,0:0:0:0:
35,263,216317,1,10,0:2:0:0:
104,333,216491,2,0,P|146:353|235:308,1,143.999995605469,10|8,0:1|0:1,0:0:0:0:
304,259,217014,2,0,L|323:343,1,71.9999978027344,8|8,0:2|0:1,0:0:0:0:
407,363,217363,1,2,0:0:0:0:
483,308,217538,1,10,0:1:0:0:
399,265,217712,1,10,0:2:0:0:
472,206,217887,1,2,0:0:0:0:
371,124,218061,6,0,L|400:270,1,143.999995605469,12|8,0:1|0:2,0:0:0:0:
286,219,218584,2,0,P|273:178|276:135,1,71.9999978027344,2|0,0:0|0:0,0:0:0:0:
192,101,218933,2,0,P|221:69|259:50,1,71.9999978027344,10|8,0:1|0:2,0:0:0:0:
325,4,219282,2,0,L|495:17,1,143.999995605469,10|8,0:1|0:1,0:0:0:0:
510,98,219805,2,0,L|407:91,1,71.9999978027344,8|0,0:2|0:0,0:0:0:0:
369,157,220154,1,2,0:0:0:0:
303,90,220328,1,10,0:1:0:0:
283,201,220503,1,10,0:2:0:0:
218,128,220677,1,2,0:0:0:0:
137,223,220852,6,0,P|97:177|102:89,1,143.999995605469,8|8,0:1|0:2,0:0:0:0:
161,28,221375,2,0,P|124:8|90:5,1,71.9999978027344,2|0,0:0|0:0,0:0:0:0:
0,113,221724,2,0,P|37:93|71:90,1,71.9999978027344,10|8,0:1|0:2,0:0:0:0:
178,141,222073,2,0,L|157:302,1,143.999995605469,10|8,0:1|0:1,0:0:0:0:
70,314,222596,2,0,L|79:236,1,71.9999978027344,8|8,0:2|0:1,0:0:0:0:
55,161,222945,1,8,0:3:0:0:
55,161,223032,1,8,0:3:0:0:
55,161,223119,1,4,0:3:0:0:
120,94,223293,1,8,0:2:0:0:
120,94,223381,1,8,0:2:0:0:
120,94,223468,2,0,L|173:98,1,35.9999989013672,8|4,0:3|0:3,0:0:0:0:
186,131,223642,6,0,P|242:108|333:143,1,143.999995605469,14|8,0:1|0:2,0:0:0:0:
362,214,224166,1,2,3:2:0:0:
362,214,224253,1,0,3:0:0:0:
362,214,224340,1,0,3:0:0:0:
442,167,224514,2,0,L|529:155,1,71.9999978027344,10|8,0:1|0:2,0:0:0:0:
396,84,224863,2,0,P|374:30|465:12,1,143.999995605469,10|8,0:1|0:1,0:0:0:0:
498,64,225387,1,8,0:2:0:0:
469,153,225561,1,0,3:0:0:0:
469,153,225648,1,0,3:0:0:0:
469,153,225735,2,0,L|482:249,1,71.9999978027344,0|8,3:0|0:1,0:0:0:0:
370,272,226084,2,0,L|383:176,1,71.9999978027344,8|0,0:2|0:0,0:0:0:0:
271,140,226433,5,10,0:1:0:0:
289,251,226607,1,2,0:0:0:0:
271,140,226782,1,10,0:2:0:0:
289,251,226956,2,0,P|235:269|207:267,1,71.9999978027344,2|0,0:0|0:0,0:0:0:0:
114,332,227305,2,0,P|149:335|182:349,1,71.9999978027344,10|8,0:1|0:2,0:0:0:0:
84,237,227654,2,0,P|41:254|22:364,1,143.999995605469,10|8,0:1|0:1,0:0:0:0:
114,368,228177,2,0,P|146:352|182:349,1,71.9999978027344,8|8,0:2|0:1,0:0:0:0:
310,373,228526,1,2,0:0:0:0:
255,276,228700,1,10,0:1:0:0:
365,281,228875,1,10,0:2:0:0:
406,364,229049,1,0,3:0:0:0:
406,364,229137,1,0,3:0:0:0:
406,364,229224,6,0,B|461:337|461:337|478:231,1,143.999995605469,12|8,0:1|0:2,0:0:0:0:
483,161,229747,1,2,0:0:0:0:
398,122,229921,1,2,0:0:0:0:
468,60,230096,1,10,0:1:0:0:
378,32,230270,2,0,L|278:21,1,71.9999978027344,10|0,0:2|3:0,0:0:0:0:
262,41,230532,1,0,3:0:0:0:
262,41,230619,6,0,P|237:86|237:122,1,71.9999978027344,8|0,0:1|0:0,0:0:0:0:
181,182,230968,2,0,P|206:227|206:263,1,71.9999978027344,8|0,0:2|0:0,0:0:0:0:
99,323,231317,2,0,L|115:233,1,71.9999978027344,2|8,0:0|0:1,0:0:0:0:
24,216,231666,2,0,L|8:126,1,71.9999978027344,10|0,0:2|0:0,0:0:0:0:
82,14,232014,5,14,0:1:0:0:
82,14,232363,1,8,0:3:0:0:
165,100,232538,2,0,L|248:79,1,71.9999978027344,8|8,0:3|0:3,0:0:0:0:
359,186,232887,2,0,L|276:165,1,71.9999978027344,8|8,0:3|0:3,0:0:0:0:
209,219,233235,1,8,0:2:0:0:
209,342,233410,5,8,0:2:0:0:
137,243,233584,1,8,0:2:0:0:
253,280,233759,1,8,0:2:0:0:
137,318,233933,1,8,0:2:0:0:
478,368,234631,5,0,3:0:0:0:
478,368,234718,1,0,3:0:0:0:
478,368,234805,2,0,L|486:285,2,66.0000020141602,14|2|10,0:1|0:0|0:2,0:0:0:0:
379,265,235328,2,0,L|387:348,2,66.0000020141602,10|2|10,0:1|0:0|0:2,0:0:0:0:
465,182,235852,6,0,P|434:142|353:141,1,132.00000402832,14|0,0:1|0:0,0:0:0:0:
273,159,236375,2,0,P|232:159|197:146,1,66.0000020141602,8|8,0:1|0:2,0:0:0:0:
92,25,236898,1,10,0:1:0:0:
74,109,237073,1,8,0:1:0:0:
52,191,237247,1,8,0:2:0:0:
132,243,237421,1,0,3:0:0:0:
132,243,237509,1,0,3:0:0:0:
132,243,237596,6,0,P|92:287|99:361,1,132.00000402832,14|8,0:1|0:2,0:0:0:0:
178,381,238119,2,0,P|218:337|211:263,1,132.00000402832,10|8,0:1|0:2,0:0:0:0:
189,160,238642,2,0,B|256:133|257:182|323:154,1,132.00000402832,14|0,0:1|0:0,0:0:0:0:
397,188,239166,2,0,P|432:174|468:175,1,66.0000020141602,8|8,0:1|0:2,0:0:0:0:
410,337,239689,1,10,0:1:0:0:
358,268,239863,1,8,0:1:0:0:
308,197,240038,1,8,0:2:0:0:
499,25,240387,6,0,P|469:44|413:43,1,66.0000020141602,14|0,0:1|3:0,0:0:0:0:
402,27,240648,1,8,0:2:0:0:
402,27,240735,1,8,0:2:0:0:
321,56,240910,2,0,P|291:37|235:38,1,66.0000020141602,10|0,0:3|0:0,0:0:0:0:
158,83,241259,1,6,0:3:0:0:
217,152,241433,6,0,B|225:207|225:207|209:231|209:231|216:301,2,132.00000402832,14|8|8,0:1|0:2|0:2,0:0:0:0:
49,193,242480,1,8,0:2:0:0:
49,193,242567,1,8,0:2:0:0:
49,193,242654,1,8,0:2:0:0:
15,278,242828,1,8,0:2:0:0:
15,278,242916,1,8,0:3:0:0:
15,278,243003,1,8,0:3:0:0:
15,278,243090,1,4,0:3:0:0:
15,278,243177,6,0,L|105:275,2,66.0000020141602,10|10|10,0:2|0:2|0:2,0:0:0:0:
52,363,243700,1,10,0:1:0:0:
215,309,244049,1,0,0:0:0:0:
159,243,244224,6,0,L|156:153,2,66.0000020141602,10|10|10,0:2|0:2|0:2,0:0:0:0:
244,206,244747,1,10,0:1:0:0:
368,324,245096,5,10,0:2:0:0:
381,239,245270,1,10,0:2:0:0:
450,289,245445,1,10,0:2:0:0:
