osu file format v14

[General]
AudioFilename: 19 (TV Size).mp3
AudioLeadIn: 0
PreviewTime: 56216
Countdown: 0
SampleSet: Soft
StackLeniency: 0.7
Mode: 0
LetterboxInBreaks: 0
WidescreenStoryboard: 1

[Editor]
Bookmarks: 800,14133,27466,40800,54133,57466,70800,84133,89133
DistanceSpacing: 1.2
BeatDivisor: 12
GridSize: 32
TimelineZoom: 2.2

[Metadata]
Title:Rokutousei no Yoru ~TVsize~
TitleUnicode:六等星の夜 ~TVsize~
Artist:Aimer
ArtistUnicode:Aimer
Creator:Lumael
Version:Promise
Source:NO.6
Tags:shion nezumi boys love yaoi ending husky voice original soundtrack OST bones manga light novel Marianna collab collaboration
BeatmapID:865210
BeatmapSetID:397823

[Difficulty]
HPDrainRate:5
CircleSize:4
OverallDifficulty:6
ApproachRate:7
SliderMultiplier:2.8
SliderTickRate:1

[Events]
//Background and Video events
0,0,"bg.jpg",0,0
//Break Periods
//Storyboard Layer 0 (Background)
//Storyboard Layer 1 (Fail)
//Storyboard Layer 2 (Pass)
//Storyboard Layer 3 (Foreground)
//Storyboard Sound Samples

[TimingPoints]
800,833.333333333333,4,2,1,40,1,0
57466,-100,4,2,1,60,0,1
84133,-100,4,2,1,40,0,0

[Colours]
Combo1 : 128,128,128
Combo2 : 0,0,128
Combo3 : 128,128,255
Combo4 : 255,128,64

[HitObjects]
56,316,800,6,0,L|208:296,1,140,2|0,0:0|0:0,0:0:0:0:
262,347,1425,2,0,L|338:355,2,70
194,297,2050,2,0,P|188:259|201:215,1,70
261,178,2466,6,0,L|122:196,1,140,2|0,0:0|0:0,0:0:0:0:
69,130,3091,2,0,B|92:200|50:200|77:276,1,140,2|0,0:0|0:0,0:0:0:0:
145,312,3716,1,0,0:0:0:0:
302,253,4133,6,0,B|351:270|351:270|449:259,1,140,2|0,0:0|0:0,0:0:0:0:
504,312,4758,2,0,P|511:349|505:384,2,70
438,260,5383,2,0,P|431:223|437:188,1,70
497,133,5800,6,0,P|438:159|365:127,1,140,2|0,0:0|0:0,0:0:0:0:
330,59,6425,2,0,L|313:208,1,140,2|0,0:0|0:0,0:0:0:0:
370,260,7050,1,0,0:0:0:0:
365,282,7466,6,0,L|219:273,1,140,2|0,0:0|0:0,0:0:0:0:
148,309,8091,2,0,P|143:343|147:378,1,70
62,381,8508,2,0,P|65:346|61:311,1,70
104,239,8925,1,0,0:0:0:0:
104,239,9133,6,0,B|128:171|77:172|115:86,1,140,2|0,0:0|0:0,0:0:0:0:
180,58,9758,2,0,L|20:47,1,140,2|0,0:0|0:0,0:0:0:0:
17,129,10383,1,0,0:0:0:0:
164,209,10800,6,0,L|303:218,1,140,2|0,0:0|0:0,0:0:0:0:
371,169,11425,1,2,0:0:0:0:
385,183,12050,2,0,B|366:250|411:250|383:322,1,140,2|0,0:0|0:0,0:0:0:0:
305,352,12675,6,0,P|265:356|228:350,1,70
160,315,13091,1,0,0:0:0:0:
160,315,13300,2,0,P|125:310|90:315,1,70
21,362,13716,2,0,L|12:281,1,70
72,232,14133,5,2,0:0:0:0:
72,232,16633,2,0,L|66:159,1,70
150,158,17050,2,0,L|155:227,1,70
123,305,17466,5,2,0:0:0:0:
123,305,19133,2,0,P|56:331|-10:303,1,140
0,139,19966,2,0,P|67:113|133:141,1,140
272,222,20800,5,2,0:0:0:0:
275,223,22466,6,0,L|284:370,1,140
446,318,23300,2,0,L|437:178,1,140
309,68,24133,5,2,0:0:0:0:
309,68,25800,6,0,B|236:84|230:43|153:62,1,140
119,218,26633,2,0,L|112:141,1,70
36,111,27050,2,0,L|29:180,1,70
47,262,27466,5,2,0:0:0:0:
47,262,29966,2,0,L|196:249,1,140
342,313,30800,5,2,0:0:0:0:
342,313,32466,1,0,0:0:0:0:
342,313,33300,2,0,L|354:165,1,140
261,32,34133,6,0,L|239:325,2,280,2|0|2,0:0|0:0|0:0,0:0:0:0:
261,32,36633,1,0,0:0:0:0:
469,295,37466,6,0,L|323:285,1,140,2|0,0:0|0:0,0:0:0:0:
174,351,38300,2,0,L|28:361,1,140
28,192,39133,6,0,L|174:182,1,140,2|0,0:0|0:0,0:0:0:0:
323,248,39967,2,0,L|469:258,1,140
464,89,40800,6,0,L|324:79,1,140,2|0,0:0|0:0,0:0:0:0:
256,127,41425,2,0,L|116:136,1,140,2|0,0:0|0:0,0:0:0:0:
52,81,42050,1,2,0:0:0:0:
22,96,42883,6,0,L|31:177,1,70
77,235,43300,2,0,L|68:316,2,70
235,178,44133,6,0,P|299:154|372:184,1,140,2|0,0:0|0:0,0:0:0:0:
364,261,44758,2,0,P|300:285|227:255,1,140,2|0,0:0|0:0,0:0:0:0:
162,219,45383,1,2,0:0:0:0:
139,195,46008,6,0,L|148:284,2,70
82,132,46633,2,0,L|96:0,2,105
46,208,47466,6,0,L|62:357,1,140,2|0,0:0|0:0,0:0:0:0:
104,275,48091,2,0,B|139:278|166:305|166:305|192:278|233:279,1,140,2|0,0:0|0:0,0:0:0:0:
280,347,48716,1,2,0:0:0:0:
312,335,49341,5,0,0:0:0:0:
387,372,49550,2,0,L|474:366,1,70
499,294,49966,2,0,P|511:245|494:177,1,105
376,176,50591,1,0,0:0:0:0:
296,209,50800,6,0,L|134:195,1,140,2|0,0:0|0:0,0:0:0:0:
91,250,51425,2,0,P|85:297|95:328,2,70
156,196,52050,2,0,P|162:149|152:118,1,70
86,81,52466,5,2,0:0:0:0:
76,53,52883,1,0,0:0:0:0:
151,16,53091,2,0,L|295:29,1,140,2|0,0:0|0:0,0:0:0:0:
363,70,53716,2,0,L|436:60,1,70
469,136,54133,6,0,L|323:156,1,140,10|8,0:0|0:0,0:0:0:0:
327,323,54966,2,0,L|473:343,1,140,10|8,0:0|0:0,0:0:0:0:
256,192,55800,12,0,57050,0:0:0:0:
98,69,57466,6,0,L|105:219,1,140,6|0,0:0|0:0,0:0:0:0:
167,264,58091,1,0,0:0:0:0:
227,205,58300,2,0,P|279:183|364:211,1,140,10|0,0:0|0:0,0:0:0:0:
410,269,58925,1,0,0:0:0:0:
356,204,59133,6,0,L|367:39,1,140,2|0,0:0|0:0,0:0:0:0:
292,21,59758,1,0,0:0:0:0:
221,66,59966,2,0,P|178:72|138:60,1,70,10|0,0:0|0:0,0:0:0:0:
76,31,60383,2,0,P|41:25|7:31,1,70
43,107,60800,6,0,L|55:261,1,140,2|0,0:0|0:0,0:0:0:0:
119,299,61425,1,0,0:0:0:0:
182,244,61633,2,0,P|216:237|250:243,1,70,10|0,0:0|0:0,0:0:0:0:
327,277,62050,2,0,P|361:282|395:276,1,70
444,208,62466,6,0,L|441:363,1,140,2|0,0:0|0:0,0:0:0:0:
360,200,63300,2,0,L|363:115,2,70,10|0|0,0:0|0:0|0:0,0:0:0:0:
244,321,64133,6,0,P|201:342|108:314,1,140,2|0,0:0|0:0,0:0:0:0:
42,363,64758,1,0,0:0:0:0:
6,286,64966,2,0,L|29:125,1,140,10|0,0:0|0:0,0:0:0:0:
92,96,65591,1,0,0:0:0:0:
162,142,65800,6,0,P|200:150|236:143,1,70,2|0,0:0|0:0,0:0:0:0:
287,83,66216,2,0,P|354:60|430:97,1,140,0|10,0:0|0:0,0:0:0:0:
467,150,66841,2,0,L|472:223,1,70
419,285,67258,1,0,0:0:0:0:
484,337,67466,6,0,L|330:330,1,140,2|0,0:0|0:0,0:0:0:0:
263,354,68091,2,0,L|188:360,2,70,0|10|0,0:0|0:0|0:0,0:0:0:0:
344,330,68716,6,0,B|353:282|353:282|346:240|346:240|358:169,1,140,2|0,0:0|0:0,0:0:0:0:
237,70,69550,2,0,P|206:128|252:201,1,140,2|8,0:0|0:0,0:0:0:0:
299,245,70175,1,0,0:0:0:0:
235,299,70383,2,0,L|167:309,2,46.6666666666667
278,335,70800,6,0,L|424:346,1,140,6|0,0:0|0:0,0:0:0:0:
468,278,71425,1,0,0:0:0:0:
418,210,71633,2,0,P|392:153|435:78,1,140,10|0,0:0|0:0,0:0:0:0:
345,51,72258,1,0,0:0:0:0:
286,111,72466,6,0,L|127:98,1,140,2|0,0:0|0:0,0:0:0:0:
40,231,73300,2,0,P|35:271|41:308,1,70,10|0,0:0|0:0,0:0:0:0:
117,328,73716,2,0,P|120:293|115:258,1,70
163,189,74133,6,0,P|232:215|299:182,1,140,2|0,0:0|0:0,0:0:0:0:
358,240,74758,1,0,0:0:0:0:
289,288,74966,2,0,P|285:327|291:369,1,70,10|0,0:0|0:0,0:0:0:0:
369,379,75383,1,8,0:0:0:0:
484,256,75800,5,0,0:0:0:0:
426,194,76008,2,0,L|435:46,1,140,10|0,0:0|0:0,0:0:0:0:
358,17,76633,1,10,0:0:0:0:
282,54,76841,1,2,0:0:0:0:
205,19,77050,2,0,P|173:15|134:19,1,70,2|0,0:0|0:0,0:0:0:0:
73,75,77466,6,0,P|68:115|74:148,2,70,10|8|0,0:0|0:0|0:0,0:0:0:0:
146,115,78091,1,0,0:0:0:0:
139,199,78300,2,0,L|-23:190,1,140,8|0,0:0|0:0,0:0:0:0:
132,283,79133,6,0,L|207:287,2,70,10|8|0,0:0|0:0|0:0,0:0:0:0:
139,199,79758,1,0,0:0:0:0:
146,115,79966,2,0,L|295:121,1,140,8|0,0:0|0:0,0:0:0:0:
414,230,80800,6,0,L|274:224,1,140,10|8,0:0|0:0,0:0:0:0:
146,115,81633,1,10,0:0:0:0:
20,226,82050,1,8,0:0:0:0:
146,115,82466,6,0,L|166:272,1,140,10|8,0:0|0:0,0:0:0:0:
45,373,83300,2,8,L|-22:364,2,46.6666666666667
98,355,83716,2,8,L|154:353,2,46.6666666666667
75,304,84133,5,14,0:0:0:0:
256,192,84237,12,2,86945,0:0:0:0:
