osu file format v14

[General]
AudioFilename: audio.mp3
AudioLeadIn: 0
PreviewTime: 51780
Countdown: 0
SampleSet: Soft
StackLeniency: 0.7
Mode: 0
LetterboxInBreaks: 0
WidescreenStoryboard: 0

[Editor]
Bookmarks: 15874,39874
DistanceSpacing: 0.3
BeatDivisor: 4
GridSize: 32
TimelineZoom: 1

[Metadata]
Title:Re:pray (TV Size)
TitleUnicode:Re:pray (TV Size)
Artist:Aimer
ArtistUnicode:Aimer
Creator:-Mikan
Version:Our lost love
Source:BLEACH
Tags:anime japanese ed ending 29 repray re pray sleepless nights Ichigo Kurosaki Inoue Orihime エメ ブリーチ
BeatmapID:2479249
BeatmapSetID:1189848

[Difficulty]
HPDrainRate:5
CircleSize:4.2
OverallDifficulty:8.6
ApproachRate:8
SliderMultiplier:3.2
SliderTickRate:1

[Events]
//Background and Video events
Video,100,"[AniTousen] TV ED29 - Re pray (Aimer).mp4"
0,0,"bg (1).jpg",0,0
//Break Periods
//Storyboard Layer 0 (Background)
//Storyboard Layer 1 (Fail)
//Storyboard Layer 2 (Pass)
//Storyboard Layer 3 (Foreground)
//Storyboard Layer 4 (Overlay)
//Storyboard Sound Samples

[TimingPoints]
-2126,750,4,2,1,50,1,0
874,-250,4,2,1,50,0,0
6780,-250,4,2,1,5,0,0
6874,-200,4,2,1,50,0,0
10249,-250,4,2,1,50,0,0
12686,-250,4,2,1,5,0,0
12874,-200,4,2,1,50,0,0
14374,-333.333333333333,4,2,1,50,0,0
15874,-200,4,2,1,60,0,0
27780,-200,4,2,1,5,0,0
27874,-200,4,2,1,60,0,0
30405,-200,4,2,1,5,0,0
30499,-200,4,2,1,60,0,0
38655,-200,4,2,1,5,0,0
38749,-200,4,2,1,60,0,0
39499,-333.333333333333,4,2,1,60,0,0
39780,-333.333333333333,4,2,1,5,0,0
39874,-166.666666666667,4,2,1,70,0,0
42499,-333.333333333334,4,2,1,70,0,0
42780,-333.333333333334,4,2,1,5,0,0
42874,-166.666666666667,4,2,1,70,0,0
48780,-166.666666666667,4,2,1,5,0,0
48874,-133.333333333333,4,2,1,70,0,0
50749,-111.111111111111,4,2,1,70,0,0
51311,-100,4,2,1,70,0,0
51874,-100,4,2,1,80,0,1
57499,-166.666666666667,4,2,1,80,0,1
57780,-166.666666666667,4,2,1,5,0,1
57874,-100,4,2,1,80,0,1
60030,-100,4,2,1,5,0,1
60124,-100,4,2,1,80,0,1
63311,-153.846153846153,4,2,1,80,0,1
63874,-100,4,2,1,80,0,1
72499,-153.846153846153,4,2,1,80,0,1
72780,-153.846153846153,4,2,1,5,0,1
72874,-100,4,2,1,80,0,1
75405,-100,4,2,1,5,0,1
75499,-100,4,2,1,80,0,1
80749,-153.846153846153,4,2,1,80,0,1
81030,-153.846153846153,4,2,1,5,0,1
81124,-100,4,2,1,80,0,1
86749,-200,4,2,1,80,0,1
87030,-200,4,2,1,5,0,1
87124,-200,4,2,1,80,0,1
87874,-200,4,2,1,80,0,0
89374,-200,4,2,1,5,0,0

[Colours]
Combo1 : 255,220,113
Combo2 : 255,168,125
Combo3 : 255,96,96
Combo4 : 158,158,158

[HitObjects]
437,58,499,5,0,0:0:0:0:
478,127,874,2,0,P|416:135|367:87,1,128,2|2,0:0|0:0,0:0:0:0:
214,16,2374,2,0,P|226:67|239:131,1,96,2|2,0:0|0:0,0:0:0:0:
234,109,3311,1,0,0:0:0:0:
173,155,3499,2,0,L|133:151,1,32
10,263,3874,6,0,P|51:255|143:244,1,128,2|2,0:0|0:0,0:0:0:0:
309,370,5374,2,0,P|258:375|211:333,1,96,2|2,0:0|0:0,0:0:0:0:
222,349,6311,1,2,0:0:0:0:
281,294,6499,2,0,P|273:260|267:236,1,48,2|0,0:0|0:0,0:0:0:0:
335,187,6874,6,0,B|430:211|371:255|482:275,1,160,2|2,3:2|0:0,0:0:0:0:
512,63,8374,2,0,P|452:72|391:90,1,120,2|2,3:2|0:0,0:0:0:0:
290,52,9499,5,2,0:0:0:0:
330,33,9686,1,2,0:0:0:0:
373,44,9874,1,2,3:2:0:0:
395,88,10061,1,2,0:0:0:0:
340,166,10249,6,0,B|309:205|271:296|299:393|360:412|436:389|458:319|375:260|316:266,1,416,2|0,0:0|0:0,0:0:0:0:
223,309,12874,6,0,B|139:320|174:374|80:385,1,160,2|0,3:2|0:0,0:0:0:0:
0,274,14374,2,0,P|29:280|103:288,1,95.9999970703126,2|0,0:0|0:0,0:0:0:0:
94,287,15499,1,2,0:0:0:0:
212,153,15686,5,2,0:0:0:0:
143,108,15874,2,0,B|141:146|133:196,1,80,2|0,0:0|0:0,0:0:0:0:
134,187,16436,1,2,0:0:0:0:
492,341,16999,5,2,0:0:0:0:
492,341,17186,1,2,0:0:0:0:
414,377,17374,2,0,B|420:335|422:297,1,80,2|0,0:0|0:0,0:0:0:0:
506,253,17936,2,0,P|513:214|478:176,1,80,2|0,0:0|0:0,0:0:0:0:
402,85,18499,6,0,B|361:89|370:113|319:121,1,80,2|2,0:0|0:0,0:0:0:0:
330,118,19249,1,2,0:0:0:0:
256,207,19436,2,0,P|213:196|93:184,1,160,2|0,0:0|0:0,0:0:0:0:
13,54,20374,5,2,0:0:0:0:
30,40,20749,1,2,0:0:0:0:
53,44,21124,2,0,P|77:74|70:123,1,80,2|2,0:0|0:0,0:0:0:0:
0,227,21686,1,2,0:0:0:0:
64,287,21874,6,0,P|98:279|156:272,1,80,2|0,0:0|0:0,0:0:0:0:
196,220,22436,1,2,0:0:0:0:
192,203,22624,2,0,P|240:216|281:222,1,80,2|2,0:0|0:0,0:0:0:0:
428,340,23186,5,2,0:0:0:0:
449,269,23374,2,0,P|407:268|365:297,1,80,2|0,0:0|0:0,0:0:0:0:
285,383,23936,2,0,L|294:288,1,80,2|0,0:0|0:0,0:0:0:0:
337,128,24499,5,2,0:0:0:0:
390,178,24686,2,0,L|468:164,1,80,2|0,0:0|0:0,0:0:0:0:
503,95,25249,2,0,P|511:65|494:13,1,80,2|0,0:0|0:0,0:0:0:0:
337,128,25999,5,2,0:0:0:0:
337,128,26186,1,2,0:0:0:0:
310,52,26374,2,0,L|393:64,1,80,2|0,0:0|0:0,0:0:0:0:
235,1,26936,5,2,0:0:0:0:
238,10,27124,1,2,0:0:0:0:
183,61,27311,1,2,0:0:0:0:
114,32,27499,2,0,P|69:24|46:21,1,60,2|0,0:0|0:0,0:0:0:0:
2,72,27874,6,0,P|-8:104|13:150,1,80,2|2,0:0|0:0,0:0:0:0:
136,266,28624,2,0,P|107:271|56:283,1,80,2|2,0:3|0:0,0:0:0:0:
3,232,29186,1,2,0:0:0:0:
10,222,29374,1,2,0:0:0:0:
167,142,29749,1,2,0:0:0:0:
265,310,30124,6,0,P|293:284|330:278,1,60,2|0,0:3|0:0,0:0:0:0:
379,313,30499,2,0,L|384:359,1,40,2|0,0:0|0:0,0:0:0:0:
500,380,30874,2,0,L|487:214,1,160,2|2,0:0|0:3,0:0:0:0:
487,220,31999,5,2,0:0:0:0:
443,159,32186,2,0,P|415:177|366:177,1,80,2|0,0:0|0:0,0:0:0:0:
320,118,32749,2,0,L|328:73,2,40,2|2|2,0:0|0:0|0:3,0:0:0:0:
127,185,33499,5,2,0:0:0:0:
120,169,33686,1,2,0:0:0:0:
157,103,33874,2,0,L|252:119,1,80,2|0,0:0|0:0,0:0:0:0:
249,132,34436,1,2,0:0:0:0:
320,118,34624,1,2,0:3:0:0:
375,379,34999,6,0,P|385:349|384:331,1,40,2|0,0:0|0:0,0:0:0:0:
325,297,35374,2,0,P|238:315|196:327,1,120,2|0,0:0|0:0,0:0:0:0:
104,377,36124,5,2,0:3:0:0:
85,360,36499,1,2,0:0:0:0:
93,333,36874,2,0,P|101:298|105:248,1,80,2|0,0:0|0:0,0:0:0:0:
29,161,37436,1,2,0:0:0:0:
39,179,37624,1,2,0:3:0:0:
39,179,37999,6,0,B|111:164|89:116|165:100,1,140,2|0,0:0|0:0,0:0:0:0:
170,112,38749,1,0,3:0:0:0:
135,21,38936,1,0,3:0:0:0:
285,24,39124,5,2,0:3:0:0:
244,180,39311,1,8,0:3:0:0:
256,193,39499,2,0,L|299:200,1,35.9999989013672,4|0,0:3|0:0,0:0:0:0:
357,237,39874,6,0,P|411:244|456:211,1,95.9999970703126,6|2,3:2|0:0,0:0:0:0:
434,91,40436,1,2,0:0:0:0:
415,96,40624,2,0,P|407:132|404:152,1,47.9999985351563,2|0,0:0|0:0,0:0:0:0:
512,281,40999,2,0,P|504:317|501:337,1,47.9999985351563,2|0,0:0|0:0,0:0:0:0:
425,382,41374,6,0,P|403:350|424:293,1,95.9999970703126,2|2,0:0|0:0,0:0:0:0:
417,298,41936,1,2,0:0:0:0:
323,374,42124,1,2,1:2:0:0:
291,198,42311,1,0,3:0:0:0:
272,211,42499,2,0,L|232:204,1,35.9999989013672,4|0,0:3|0:0,0:0:0:0:
177,251,42874,6,0,B|99:248|133:198|38:186,1,143.999995605469,6|0,3:2|0:0,0:0:0:0:
0,283,43624,2,0,P|37:277|59:262,1,47.9999985351563,2|0,1:2|0:0,0:0:0:0:
126,136,43999,2,0,P|119:86|111:29,1,95.9999970703126,2|2,3:2|0:0,0:0:0:0:
402,150,44749,6,0,P|375:150|348:147,1,47.9999985351563,2|2,3:2|0:0,0:0:0:0:
277,102,45124,2,0,P|284:152|292:209,1,95.9999970703126,2|2,1:2|0:0,0:0:0:0:
213,270,45686,1,2,0:0:0:0:
213,270,45780,1,2,0:0:0:0:
213,270,45874,2,0,P|172:277|126:245,1,95.9999970703126,2|2,3:2|0:0,0:0:0:0:
54,210,46436,5,0,3:0:0:0:
40,224,46624,2,0,L|46:276,1,47.9999985351563,2|0,1:2|0:0,0:0:0:0:
143,153,46999,2,0,L|136:102,1,47.9999985351563,2|2,0:0|0:0,0:0:0:0:
188,42,47374,5,2,3:2:0:0:
55,131,47561,1,0,1:0:0:0:
79,30,47749,1,2,3:2:0:0:
88,43,47936,1,2,0:0:0:0:
222,126,48124,2,0,P|257:119|282:115,1,47.9999985351563,0|0,1:0|0:0,0:0:0:0:
474,35,48499,6,0,P|456:13|412:1,1,71.9999978027344,2|0,0:2|0:0,0:0:0:0:
344,13,48874,2,0,P|353:51|359:77,1,60.0000022888184,2|0,3:0|0:0,0:0:0:0:
453,189,49249,1,2,0:0:0:0:
464,174,49436,1,2,0:0:0:0:
272,235,49624,2,0,P|314:236|340:239,1,60.0000022888184,2|0,1:3|0:0,0:0:0:0:
424,107,49999,1,2,0:0:0:0:
335,157,50186,1,2,0:0:0:0:
189,15,50374,5,2,3:0:0:0:
262,44,50561,1,0,1:0:0:0:
152,175,50749,2,0,P|141:122|133:96,1,71.9999978027344,2|0,3:2|3:0,0:0:0:0:
135,104,51030,1,0,3:0:0:0:
135,104,51124,1,0,1:0:0:0:
272,235,51311,6,0,P|239:280|128:296,1,160,4|0,3:1|1:0,0:0:0:0:
0,326,51874,6,0,P|10:251|15:151,1,160,6|2,3:2|3:2,0:0:0:0:
110,34,52436,2,0,P|138:87|118:131,1,80,2|2,3:2|1:0,0:0:0:0:
59,94,52811,1,2,0:0:0:0:
209,221,52999,6,0,B|303:216|275:281|365:269,1,160,2|0,3:2|3:0,0:0:0:0:
466,196,53561,1,0,0:0:0:0:
414,104,53749,2,0,P|396:154|399:188,1,80,2|0,3:2|0:0,0:0:0:0:
493,290,54124,1,2,1:0:0:0:
511,260,54311,1,2,0:0:0:0:
308,384,54499,1,2,3:2:0:0:
308,384,54874,6,0,L|287:218,1,160,2|0,3:2|3:0,0:0:0:0:
151,142,55436,1,0,3:0:0:0:
108,205,55624,2,0,P|64:199|17:194,1,80,2|0,1:0|0:0,0:0:0:0:
264,77,55999,5,2,3:2:0:0:
248,89,56186,2,0,P|292:95|336:104,1,80,2|2,0:0|0:3,0:0:0:0:
180,13,56561,1,0,1:0:0:0:
287,225,56749,1,2,3:2:0:0:
151,142,56936,1,2,0:0:0:0:
151,142,57030,1,2,0:0:0:0:
151,142,57124,1,2,1:0:0:0:
248,89,57311,1,0,3:0:0:0:
91,282,57499,2,0,P|41:294|8:296,1,71.9999978027344,2|0,0:0|0:0,0:0:0:0:
21,296,57874,6,0,B|115:304|77:366|168:372,1,160,2|2,3:2|0:0,0:0:0:0:
293,349,58436,2,0,P|340:339|381:336,1,80,2|2,3:2|1:0,0:0:0:0:
155,255,58811,1,0,0:0:0:0:
221,219,58999,2,0,P|230:263|215:300,1,80,2|0,3:2|3:0,0:0:0:0:
65,176,59374,6,0,P|54:117|45:88,1,80,2|0,3:0|0:0,0:0:0:0:
99,38,59749,2,0,P|148:74|215:63,1,120,2|0,3:2|0:0,0:0:0:0:
213,51,60124,1,2,1:0:0:0:
282,0,60311,1,2,0:0:0:0:
359,48,60499,1,2,3:2:0:0:
359,48,60874,6,0,P|351:99|345:141,1,80,2|0,3:2|0:0,0:0:0:0:
200,320,61249,2,0,P|206:280|212:240,1,80,2|0,3:2|0:0,0:0:0:0:
99,38,61624,2,0,P|91:89|85:131,1,80,2|0,1:0|0:0,0:0:0:0:
15,239,61999,6,0,B|103:243|88:175|174:177,1,160,2|2,3:2|0:0,0:0:0:0:
157,177,62467,1,2,0:0:0:0:
157,177,62561,1,2,1:2:0:0:
157,177,62655,1,2,0:0:0:0:
157,177,62749,1,2,3:0:0:0:
86,117,62936,1,2,0:0:0:0:
226,382,63124,5,2,1:0:0:0:
289,340,63311,2,0,P|258:311|191:314,1,103.999995239258,2|0,0:0|1:0,0:0:0:0:
349,260,63874,6,0,P|392:261|471:178,1,160,6|0,3:2|3:0,0:0:0:0:
395,18,64436,2,0,P|380:95|379:128,1,80,0|2,3:0|1:0,0:0:0:0:
260,210,64811,1,2,0:0:0:0:
232,132,64999,2,0,B|334:119|298:187|393:174,1,160,2|0,3:2|3:0,0:0:0:0:
379,175,65561,1,0,0:0:0:0:
198,309,65749,6,0,P|127:294|110:292,1,80,2|0,3:2|0:0,0:0:0:0:
17,202,66124,1,2,1:0:0:0:
148,104,66311,1,2,0:0:0:0:
62,41,66499,1,2,3:2:0:0:
99,176,66686,5,0,3:0:0:0:
99,176,66780,1,0,3:0:0:0:
99,176,66874,2,0,P|167:188|237:101,1,160,2|0,3:2|3:0,0:0:0:0:
172,11,67436,1,0,3:0:0:0:
156,25,67624,2,0,P|151:84|145:122,1,80,2|0,1:0|0:0,0:0:0:0:
333,236,67999,5,2,3:2:0:0:
379,175,68186,2,0,L|485:165,1,80,2|2,0:0|3:0,0:0:0:0:
327,101,68561,1,0,1:0:0:0:
248,324,68749,1,2,3:2:0:0:
100,178,68936,1,2,0:0:0:0:
198,164,69124,6,0,P|184:236|182:273,1,80,2|0,1:0|3:0,0:0:0:0:
0,384,69499,2,0,P|14:312|16:275,1,80,2|0,0:3|3:0,0:0:0:0:
20,300,69780,1,0,3:0:0:0:
27,298,69874,6,0,B|123:306|79:364|179:364,1,160,2|0,3:2|3:0,0:0:0:0:
230,275,70436,2,0,P|290:264|329:253,1,80,2|2,0:0|1:0,0:0:0:0:
378,171,70811,1,2,0:0:0:0:
327,350,70999,2,0,P|404:369|483:384,1,160,2|2,3:2|0:0,0:0:0:0:
483,384,71561,1,0,3:0:0:0:
378,171,71749,5,2,3:2:0:0:
230,276,71936,1,2,0:0:0:0:
100,109,72124,5,2,1:0:0:0:
274,181,72311,1,2,3:2:0:0:
236,8,72499,6,0,P|226:60|223:94,1,77.9999964294435,2|0,3:0|0:0,0:0:0:0:
223,84,72874,6,0,P|138:81|98:8,1,160,2|0,3:2|3:0,0:0:0:0:
50,219,73436,1,0,3:0:0:0:
1,153,73624,2,0,L|101:138,1,80,2|0,1:0|0:0,0:0:0:0:
230,274,73999,1,2,3:2:0:0:
274,181,74186,1,2,3:2:0:0:
113,289,74374,5,2,0:0:0:0:
111,300,74467,1,2,0:0:0:0:
109,311,74561,1,2,1:2:0:0:
108,322,74655,1,2,0:0:0:0:
106,333,74749,2,0,P|156:345|187:329,1,80,2|0,3:0|0:0,0:0:0:0:
230,274,75124,2,0,B|296:275|279:323|349:318,1,120,2|0,1:0|0:0,0:0:0:0:
348,330,75499,5,2,3:2:0:0:
512,152,75686,2,0,L|467:159,1,40,2|0,0:0|0:0,0:0:0:0:
390,226,75874,6,0,P|377:154|358:66,1,160,6|2,3:2|3:2,0:0:0:0:
495,0,76436,2,0,P|478:45|425:52,1,80,2|2,3:2|1:0,0:0:0:0:
395,3,76811,1,2,0:0:0:0:
259,129,76999,6,0,B|198:104|181:43|181:43|141:98|52:95,1,240,2|0,3:0|0:0,0:0:0:0:
123,253,77749,2,0,P|137:182|140:156,1,80,2|0,3:2|0:0,0:0:0:0:
347,0,78124,2,0,P|340:39|332:78,1,80,2|0,1:0|3:0,0:0:0:0:
488,258,78499,1,2,3:2:0:0:
502,254,78686,1,0,3:0:0:0:
470,181,78874,6,0,P|403:189|367:295,1,160,2|2,3:2|0:0,0:0:0:0:
512,343,79436,1,2,3:2:0:0:
438,384,79624,2,0,P|428:323|417:285,1,80,2|0,1:0|0:0,0:0:0:0:
260,178,79999,2,0,P|269:216|274:256,1,80,0|0,3:0|3:0,0:0:0:0:
226,323,80374,5,2,0:0:0:0:
372,161,80561,1,0,1:0:0:0:
154,108,80749,2,0,P|116:99|75:94,1,77.9999964294435,2|0,3:0|0:0,0:0:0:0:
77,94,81124,6,0,B|172:87|132:31|230:23,1,160,2|2,1:0|0:0,0:0:0:0:
372,161,81686,1,2,0:0:0:0:
360,264,81874,6,0,P|285:218|308:133,1,160,6|2,3:2|3:2,0:0:0:0:
362,81,82436,2,0,P|418:75|449:71,1,80,2|2,3:2|1:0,0:0:0:0:
186,247,82811,1,2,0:0:0:0:
191,255,82999,2,0,P|71:267|6:276,1,160,2|0,3:0|0:0,0:0:0:0:
373,160,83749,6,0,P|386:210|386:260,1,80,2|0,3:2|0:0,0:0:0:0:
286,384,84124,2,0,P|273:334|273:284,1,80,2|0,1:0|0:0,0:0:0:0:
505,284,84499,1,2,3:2:0:0:
497,301,84686,1,0,3:0:0:0:
491,382,84874,6,0,B|410:367|442:321|346:310,1,160,2|2,3:2|3:2,0:0:0:0:
206,162,85436,1,2,3:2:0:0:
189,253,85624,2,0,P|227:244|267:238,1,80,2|2,1:0|0:0,0:0:0:0:
373,93,85999,1,2,3:2:0:0:
351,170,86186,1,2,3:2:0:0:
471,219,86374,5,2,0:2:0:0:
295,102,86561,1,0,1:0:0:0:
478,12,86749,2,0,P|469:46|463:82,1,60,2|0,3:0|0:0,0:0:0:0:
471,82,87124,5,2,1:0:0:0:
240,0,87311,1,2,3:2:0:0:
267,237,87499,1,0,3:0:0:0:
371,92,87686,1,0,3:0:0:0:
368,78,87780,1,0,3:0:0:0:
366,64,87874,1,4,3:1:0:0:
256,192,87967,12,0,89374,0:0:0:0:
