osu file format v14

[General]
AudioFilename: audio.mp3
AudioLeadIn: 0
PreviewTime: 51780
Countdown: 0
SampleSet: Soft
StackLeniency: 0.7
Mode: 0
LetterboxInBreaks: 0
WidescreenStoryboard: 1

[Editor]
Bookmarks: 15874,39874
DistanceSpacing: 0.3
BeatDivisor: 8
GridSize: 32
TimelineZoom: 1

[Metadata]
Title:Re:pray (TV Size)
TitleUnicode:Re:pray (TV Size)
Artist:Aimer
ArtistUnicode:Aimer
Creator:-Mikan
Version:Normal
Source:BLEACH
Tags:anime japanese ed ending 29 repray re pray sleepless nights Ichigo Kurosaki Inoue Orihime エメ ブリーチ
BeatmapID:2483961
BeatmapSetID:1189848

[Difficulty]
HPDrainRate:4
CircleSize:3.5
OverallDifficulty:4.5
ApproachRate:5
SliderMultiplier:1.8
SliderTickRate:1

[Events]
//Background and Video events
Video,100,"[AniTousen] TV ED29 - Re pray (Aimer).mp4"
0,0,"bg (1).jpg",0,0
//Break Periods
//Storyboard Layer 0 (Background)
//Storyboard Layer 1 (Fail)
//Storyboard Layer 2 (Pass)
//Storyboard Layer 3 (Foreground)
//Storyboard Layer 4 (Overlay)
//Storyboard Sound Samples

[TimingPoints]
-2126,750,4,2,1,50,1,0
874,-100,4,2,1,50,0,0
6780,-100,4,2,1,5,0,0
6874,-100,4,2,1,50,0,0
10249,-100,4,2,1,50,0,0
12686,-100,4,2,1,5,0,0
12874,-100,4,2,1,50,0,0
14374,-100,4,2,1,50,0,0
15874,-100,4,2,1,60,0,0
39874,-100,4,2,1,70,0,0
42499,-100,4,2,1,70,0,0
42874,-100,4,2,1,70,0,0
48874,-100,4,2,1,70,0,0
50749,-100,4,2,1,70,0,0
51311,-100,4,2,1,70,0,0
51874,-100,4,2,1,80,0,1
57499,-100,4,2,1,80,0,1
57874,-100,4,2,1,80,0,1
63311,-100,4,2,1,80,0,1
63874,-100,4,2,1,80,0,1
72499,-100,4,2,1,80,0,1
72874,-100,4,2,1,80,0,1
80749,-100,4,2,1,80,0,1
81124,-100,4,2,1,80,0,1
86749,-100,4,2,1,80,0,1
87874,-100,4,2,1,80,0,0
89374,-100,4,2,1,5,0,0

[Colours]
Combo1 : 255,220,113
Combo2 : 255,168,125
Combo3 : 255,96,96
Combo4 : 158,158,158

[HitObjects]
398,347,499,5,0,0:0:0:0:
486,332,874,2,0,P|442:271|325:295,1,180,2|2,0:0|0:0,0:0:0:0:
182,353,2374,2,0,P|106:335|33:327,1,135,2|2,0:0|0:0,0:0:0:0:
37,238,3311,2,0,L|97:225,2,45
4,205,3874,6,0,B|-2:118|71:128|59:28,1,180,2|2,0:0|0:0,0:0:0:0:
238,64,5374,2,0,P|316:47|393:43,1,135,2|2,0:0|0:0,0:0:0:0:
453,78,6311,1,2,0:0:0:0:
453,78,6499,2,0,L|444:136,1,45,2|0,0:0|0:0,0:0:0:0:
480,151,6874,6,0,P|428:220|318:186,1,180,2|2,3:2|0:0,0:0:0:0:
176,141,8374,2,0,P|196:231|204:288,1,135,2|2,3:2|0:0,0:0:0:0:
282,382,9499,2,0,L|340:371,1,45,2|2,0:0|0:0,0:0:0:0:
358,341,9874,2,0,L|428:352,1,45,2|2,3:2|0:0,0:0:0:0:
437,376,10249,6,0,B|503:311|545:176|555:16|318:14|266:157|346:228|431:219,1,540,2|0,0:0|0:0,0:0:0:0:
349,292,12874,2,0,B|249:287|284:361|175:365,1,180,2|0,3:2|0:0,0:0:0:0:
42,261,14374,2,0,P|78:189|190:197,1,180,2|0,0:0|0:0,0:0:0:0:
254,147,15499,6,0,L|245:77,1,45,2|2,0:0|0:0,0:0:0:0:
270,63,15874,2,0,P|182:51|147:45,1,90,2|0,0:0|0:0,0:0:0:0:
146,21,16436,1,2,0:0:0:0:
18,66,16999,2,0,L|10:135,1,45,2|2,0:0|0:0,0:0:0:0:
46,140,17374,2,0,P|91:165|138:137,1,90,2|0,0:0|0:0,0:0:0:0:
166,135,17936,2,0,P|152:195|140:302,1,135,2|2,0:0|0:0,0:0:0:0:
195,340,18874,6,0,P|270:320|307:333,1,90,2|2,0:0|0:0,0:0:0:0:
316,348,19436,2,0,P|357:379|439:354,1,135,2|0,0:0|0:0,0:0:0:0:
490,290,20374,1,2,0:0:0:0:
418,235,20749,2,0,L|410:184,1,45,2|0,0:0|0:0,0:0:0:0:
432,151,21124,2,0,L|445:48,1,90,2|2,0:0|0:0,0:0:0:0:
414,27,21686,1,2,0:0:0:0:
414,27,21874,6,0,P|361:44|323:46,1,90,2|2,0:0|0:0,0:0:0:0:
236,44,22624,1,2,0:0:0:0:
191,121,22999,2,0,L|205:176,1,45,2|2,0:0|0:0,0:0:0:0:
173,199,23374,2,0,P|99:189|60:187,1,90,2|0,0:0|0:0,0:0:0:0:
47,163,23936,1,2,0:0:0:0:
0,36,24499,2,0,L|52:30,1,45,2|2,0:0|0:0,0:0:0:0:
84,10,24874,2,0,P|141:20|193:27,1,90,2|2,0:0|0:0,0:0:0:0:
213,5,25436,1,2,0:0:0:0:
329,74,25999,6,0,L|321:131,1,45,2|2,0:0|0:0,0:0:0:0:
349,154,26374,2,0,P|417:178|448:167,1,90,2|0,0:0|0:0,0:0:0:0:
469,198,26936,2,0,L|486:287,1,90,2|2,0:0|0:0,0:0:0:0:
447,310,27499,1,2,0:0:0:0:
372,360,27874,6,0,P|310:352|262:346,1,90,2|2,0:0|0:0,0:0:0:0:
217,286,28624,1,2,0:3:0:0:
149,345,28999,2,0,L|100:354,1,45,2|2,0:0|0:0,0:0:0:0:
67,379,29374,2,0,P|35:334|76:255,1,135,2|0,0:0|0:0,0:0:0:0:
104,254,30124,1,2,0:3:0:0:
61,174,30499,1,2,0:0:0:0:
125,111,30874,6,0,B|231:108|187:183|295:174,1,180,2|2,0:0|0:3,0:0:0:0:
359,123,31999,2,0,L|350:66,1,45,2|2,0:0|0:0,0:0:0:0:
382,45,32374,2,0,P|432:15|475:28,1,90,0|2,0:0|0:0,0:0:0:0:
496,47,32936,1,2,0:0:0:0:
496,47,33124,1,2,0:3:0:0:
474,134,33499,6,0,L|468:184,1,45,2|2,0:0|0:0,0:0:0:0:
434,208,33874,2,0,P|373:216|333:228,1,90,2|0,0:0|0:0,0:0:0:0:
313,255,34436,2,0,P|257:239|208:234,1,90,2|0,0:0|0:0,0:0:0:0:
189,262,34999,1,2,0:0:0:0:
117,316,35374,6,0,P|45:257|49:196,1,135,2|0,0:0|0:0,0:0:0:0:
70,185,36124,1,2,0:3:0:0:
16,112,36499,1,2,0:0:0:0:
49,28,36874,1,2,0:0:0:0:
141,16,37249,1,2,0:0:0:0:
141,16,37436,2,0,L|156:127,1,90,2|0,0:0|0:0,0:0:0:0:
191,129,37999,2,0,B|302:120|265:192|368:180,1,180,2|0,0:0|3:0,0:0:0:0:
397,162,38936,1,0,3:0:0:0:
397,162,39124,2,0,L|405:104,2,45,2|8|4,0:3|0:3|0:3,0:0:0:0:
458,237,39874,5,6,3:2:0:0:
509,310,40249,1,2,0:0:0:0:
456,383,40624,1,2,0:0:0:0:
366,381,40999,1,2,0:0:0:0:
315,308,41374,1,2,0:0:0:0:
368,235,41749,1,2,0:0:0:0:
458,237,42124,2,0,L|470:171,1,45,2|0,1:2|3:0,0:0:0:0:
450,150,42499,1,4,0:3:0:0:
432,61,42874,6,0,B|354:69|391:108|275:123,1,135,6|0,3:2|0:0,0:0:0:0:
271,95,43624,2,0,L|207:83,1,45,2|0,1:2|0:0,0:0:0:0:
182,97,43999,2,0,P|155:137|161:191,1,90,2|2,3:2|0:0,0:0:0:0:
99,248,44749,2,0,L|45:258,1,45,2|2,3:2|0:0,0:0:0:0:
24,289,45124,2,0,P|9:342|45:381,1,90,2|2,1:2|0:0,0:0:0:0:
69,379,45686,1,2,0:0:0:0:
69,379,45874,6,0,P|134:363|173:359,1,90,2|2,3:2|0:0,0:0:0:0:
245,372,46624,1,2,1:2:0:0:
315,316,46999,2,0,L|320:260,1,45,2|2,0:0|0:0,0:0:0:0:
286,240,47374,1,2,3:2:0:0:
286,240,47561,1,0,1:0:0:0:
286,240,47749,2,0,L|277:178,1,45,2|2,3:2|0:0,0:0:0:0:
310,162,48124,1,0,1:0:0:0:
277,78,48499,6,0,L|329:63,1,45,2|0,0:2|0:0,0:0:0:0:
352,33,48874,2,0,P|416:44|438:90,1,90,2|2,3:0|0:0,0:0:0:0:
462,91,49436,1,2,0:0:0:0:
462,91,49624,2,0,P|451:146|447:186,1,90,2|2,1:3|0:0,0:0:0:0:
498,254,50374,6,0,P|450:273|437:273,1,45,2|0,3:0|1:0,0:0:0:0:
413,284,50749,2,0,P|365:265|352:265,1,45,2|0,3:2|3:0,0:0:0:0:
330,283,51124,1,0,1:0:0:0:
330,283,51311,2,0,P|290:325|226:325,1,90,4|0,3:1|1:0,0:0:0:0:
216,355,51874,6,0,P|143:345|86:343,1,90,6|2,3:2|3:2,0:0:0:0:
82,365,52436,1,2,3:2:0:0:
14,300,52811,1,2,0:0:0:0:
14,300,52999,2,0,P|22:248|21:208,1,90,2|0,3:2|3:0,0:0:0:0:
20,120,53749,2,0,L|97:130,1,45,2|0,3:2|0:0,0:0:0:0:
106,99,54124,2,0,L|173:91,1,45,2|2,1:0|0:0,0:0:0:0:
191,122,54499,1,2,3:2:0:0:
276,93,54874,6,0,P|307:49|390:45,1,135,2|0,3:2|3:0,0:0:0:0:
409,83,55624,1,2,1:0:0:0:
501,128,55999,1,2,3:2:0:0:
501,128,56186,2,0,L|489:188,1,45,2|2,0:0|0:3,0:0:0:0:
453,200,56561,1,0,1:0:0:0:
453,200,56749,2,0,L|461:255,1,45,2|2,3:2|0:0,0:0:0:0:
492,281,57124,2,0,P|498:319|459:362,1,90,2|2,1:0|0:0,0:0:0:0:
395,302,57874,6,0,P|327:292|274:289,1,90,2|2,3:2|0:0,0:0:0:0:
268,257,58436,1,0,3:0:0:0:
189,315,58811,1,2,0:0:0:0:
189,315,58999,2,0,P|149:346|107:354,1,90,2|2,3:2|3:0,0:0:0:0:
24,331,59749,2,0,L|2:273,1,45,2|0,3:2|0:0,0:0:0:0:
30,244,60124,2,0,L|36:186,1,45,2|2,1:0|0:0,0:0:0:0:
1,162,60499,1,2,3:2:0:0:
14,70,60874,6,0,L|68:63,1,45,2|0,3:2|0:0,0:0:0:0:
108,84,61249,2,0,L|177:74,1,45,2|0,3:2|0:0,0:0:0:0:
204,92,61624,2,0,L|275:79,1,45,2|0,1:0|0:0,0:0:0:0:
295,110,61999,2,0,B|378:115|345:168|439:163,1,135,2|2,3:2|1:2,0:0:0:0:
455,134,62749,1,2,3:0:0:0:
512,221,63124,1,2,1:0:0:0:
512,221,63311,2,0,L|504:280,1,45,2|0,0:0|0:0,0:0:0:0:
478,307,63686,1,0,1:0:0:0:
478,307,63874,6,0,P|433:337|376:332,1,90,6|0,3:2|3:0,0:0:0:0:
364,302,64436,2,0,L|301:294,1,45,0|2,3:0|1:0,0:0:0:0:
278,322,64811,1,2,0:0:0:0:
278,322,64999,2,0,P|220:330|163:348,1,90,2|0,3:2|3:0,0:0:0:0:
125,262,65749,2,0,L|184:248,1,45,2|0,3:2|0:0,0:0:0:0:
193,208,66124,2,0,L|251:215,1,45,2|2,1:0|0:0,0:0:0:0:
278,185,66499,1,2,3:2:0:0:
323,97,66874,6,0,P|280:40|198:52,1,135,2|0,3:2|3:0,0:0:0:0:
190,77,67624,1,2,1:0:0:0:
96,62,67999,1,2,3:2:0:0:
96,62,68186,2,0,L|36:53,1,45,2|2,0:0|3:0,0:0:0:0:
17,91,68561,1,0,1:0:0:0:
17,91,68749,2,0,L|30:146,1,45,2|2,3:2|0:0,0:0:0:0:
61,170,69124,2,0,L|53:262,1,90,2|2,1:0|0:3,0:0:0:0:
117,334,69874,6,0,P|168:352|211:341,1,90,2|0,3:2|3:0,0:0:0:0:
239,312,70436,2,0,L|244:255,1,45,2|2,0:0|1:0,0:0:0:0:
277,231,70811,1,2,0:0:0:0:
277,231,70999,2,0,P|343:221|371:243,1,90,2|2,3:2|0:0,0:0:0:0:
433,297,71749,6,0,L|443:232,1,45,2|2,3:2|0:0,0:0:0:0:
472,209,72124,2,0,L|482:144,1,45,2|2,1:0|3:2,0:0:0:0:
505,117,72499,2,0,L|515:52,1,45,2|0,3:0|0:0,0:0:0:0:
473,34,72874,2,0,B|413:37|404:89|326:91,1,135,2|0,3:2|3:0,0:0:0:0:
310,60,73624,1,2,1:0:0:0:
217,42,73999,5,2,3:2:0:0:
217,42,74186,2,0,L|233:146,1,90,2|2,3:2|1:2,0:0:0:0:
198,168,74749,2,0,P|153:192|79:173,1,90,2|2,3:0|1:0,0:0:0:0:
18,167,75499,2,0,P|12:199|7:236,1,45,2|2,3:2|0:0,0:0:0:0:
41,249,75874,6,0,P|47:293|53:358,1,90,6|2,3:2|3:2,0:0:0:0:
92,365,76436,1,2,3:2:0:0:
188,334,76811,1,2,0:0:0:0:
188,334,76999,2,0,B|245:326|241:361|318:366,1,135,2|0,3:0|0:0,0:0:0:0:
362,347,77749,2,0,L|375:284,1,45,2|0,3:2|0:0,0:0:0:0:
417,286,78124,2,0,L|405:215,1,45,2|0,1:0|3:0,0:0:0:0:
373,207,78499,1,2,3:2:0:0:
458,157,78874,6,0,L|468:62,1,90,2|2,3:2|0:0,0:0:0:0:
438,34,79436,1,2,3:2:0:0:
438,34,79624,2,0,P|385:15|323:31,1,90,2|0,1:0|3:0,0:0:0:0:
313,47,80186,1,0,3:0:0:0:
313,47,80374,2,0,L|321:97,2,45,2|0|2,0:0|1:0|3:0,0:0:0:0:
214,37,81124,2,0,P|155:29|105:20,1,90,2|2,1:0|0:0,0:0:0:0:
83,46,81686,1,2,0:0:0:0:
83,46,81874,6,0,P|60:96|70:144,1,90,6|2,3:2|3:2,0:0:0:0:
101,161,82436,1,2,3:2:0:0:
173,235,82811,1,2,0:0:0:0:
173,235,82999,2,0,P|247:223|320:219,1,135,2|0,3:0|0:0,0:0:0:0:
350,243,83749,2,0,L|364:295,1,45,2|0,3:2|0:0,0:0:0:0:
329,324,84124,2,0,L|320:374,1,45,2|0,1:0|0:0,0:0:0:0:
272,378,84499,1,2,3:2:0:0:
177,347,84874,6,0,P|127:339|85:336,1,90,2|2,3:2|3:2,0:0:0:0:
48,315,85436,1,2,3:2:0:0:
48,315,85624,2,0,P|30:274|32:216,1,90,2|2,1:0|3:2,0:0:0:0:
74,206,86186,1,2,3:2:0:0:
74,206,86374,2,0,L|131:214,2,45,2|0|2,0:2|1:0|3:0,0:0:0:0:
10,129,87124,6,0,L|-4:73,1,45,2|2,1:0|3:2,0:0:0:0:
29,46,87499,2,0,L|97:50,1,45,0|0,3:0|3:0,0:0:0:0:
117,24,87874,1,4,3:1:0:0:
256,192,88061,12,0,89374,0:0:0:0:
