osu file format v14

[General]
AudioFilename: audio.mp3
AudioLeadIn: 0
PreviewTime: 35240
Countdown: 0
SampleSet: Soft
StackLeniency: 0.7
Mode: 0
LetterboxInBreaks: 0
WidescreenStoryboard: 0

[Editor]
DistanceSpacing: 1
BeatDivisor: 4
GridSize: 4
TimelineZoom: 1

[Metadata]
Title:Ref:rain (TV Size)
TitleUnicode:Ref:rain (TV Size)
Artist:Aimer
ArtistUnicode:Aimer
Creator:nextplay
Version:Normal
Source:恋は雨上がりのように
Tags:koi wa ameagari no you ni ending after the rain 619
BeatmapID:1767258
BeatmapSetID:839773

[Difficulty]
HPDrainRate:3
CircleSize:3.5
OverallDifficulty:4
ApproachRate:5
SliderMultiplier:1.8
SliderTickRate:1

[Events]
//Background and Video events
0,0,"BG.png",0,0
//Break Periods
//Storyboard Layer 0 (Background)
//Storyboard Layer 1 (Fail)
//Storyboard Layer 2 (Pass)
//Storyboard Layer 3 (Foreground)
//Storyboard Sound Samples

[TimingPoints]
337,769.230769230769,4,2,1,40,1,0
337,-100,4,2,1,40,0,0
24952,-100,4,2,1,45,0,0
33990,-100,4,2,1,5,0,0
34183,-100,4,2,1,25,0,0
34952,-100,4,2,1,5,0,0
35721,-111.111111111111,4,2,1,40,0,0
37260,-100,4,2,2,60,0,1
60336,-100,4,2,2,60,0,0
61875,-100,4,2,2,60,0,1
78798,-100,4,2,2,40,0,1
78990,-100,4,2,2,5,0,1
79183,-100,4,2,2,40,0,1
79375,-100,4,2,2,5,0,1
79567,-100,4,2,2,40,0,1
79760,-100,4,2,2,5,0,1
79952,-100,4,2,2,40,0,1
80144,-100,4,2,2,5,0,1
80336,-100,4,2,1,35,0,0
81490,-100,4,2,1,20,0,0
81875,-100,4,2,1,35,0,0
83029,-100,4,2,1,20,0,0
83413,-100,4,2,1,40,0,0
86490,-100,4,2,1,20,0,0

[Colours]
Combo1 : 128,128,192
Combo2 : 0,128,192
Combo3 : 255,128,192
Combo4 : 255,255,128

[HitObjects]
63,44,337,5,6,0:0:0:0:
63,44,721,2,0,P|105:28|171:42,1,90,0|8,0:0|0:0,0:0:0:0:
226,78,1490,1,0,0:0:0:0:
292,138,1875,2,0,P|357:148|388:136,1,90,2|0,0:0|0:0,0:0:0:0:
460,103,2644,2,0,L|469:200,1,90,8|0,0:0|3:0,0:0:0:0:
468,282,3413,5,2,0:0:0:0:
397,338,3798,1,0,0:0:0:0:
321,288,4183,2,0,L|211:289,1,90,8|0,0:0|0:0,0:0:0:0:
161,346,4952,2,0,L|45:336,1,90,2|0,0:0|0:0,0:0:0:0:
17,266,5721,2,0,P|51:215|54:173,1,90,8|0,0:0|3:0,0:0:0:0:
38,99,6490,5,6,0:0:0:0:
38,99,6875,2,0,L|153:90,1,90,0|8,0:0|0:0,0:0:0:0:
209,54,7644,1,0,0:0:0:0:
297,72,8029,2,0,P|298:118|282:163,1,90,2|0,0:0|0:0,0:0:0:0:
241,232,8798,2,0,P|229:280|250:339,1,90,8|0,0:0|3:0,0:0:0:0:
323,350,9567,5,2,0:0:0:0:
384,284,9952,1,0,0:0:0:0:
457,335,10336,2,0,P|480:280|468:237,1,90,8|0,0:0|0:0,0:0:0:0:
430,172,11106,2,0,P|408:118|417:74,1,90,2|0,0:0|0:0,0:0:0:0:
343,28,11875,2,0,L|221:27,1,90,8|0,0:0|3:0,0:0:0:0:
164,12,12644,6,0,B|204:107|146:102|178:192,1,180,6|8,0:0|0:0,0:0:0:0:
231,259,13798,1,0,0:0:0:0:
169,325,14183,2,0,P|229:353|272:345,1,90,2|0,0:0|0:0,0:0:0:0:
332,313,14952,1,8,0:0:0:0:
413,350,15336,2,0,L|486:348,1,45,0|0,3:0|3:0,0:0:0:0:
500,365,15721,6,0,P|484:315|505:259,1,90,2|0,0:0|0:0,0:0:0:0:
463,193,16490,2,0,P|479:143|458:87,1,90,8|0,0:0|0:0,0:0:0:0:
393,61,17260,1,2,0:0:0:0:
313,102,17644,1,0,0:0:0:0:
234,58,18029,2,0,L|113:59,1,90,8|0,0:0|3:0,0:0:0:0:
62,20,18798,6,0,P|56:85|73:119,1,90,6|0,0:0|0:0,0:0:0:0:
90,143,19375,1,0,0:0:0:0:
113,181,19567,2,0,P|125:222|103:279,1,90,8|0,0:0|0:0,0:0:0:0:
138,352,20336,2,0,L|244:354,1,90,2|0,0:0|0:0,0:0:0:0:
282,282,21106,2,0,L|371:287,1,90,8|0,0:0|0:0,0:0:0:0:
446,337,21875,6,0,P|463:291|449:229,1,90,2|0,0:0|0:0,0:0:0:0:
383,201,22644,2,0,P|371:152|390:93,1,90,8|0,0:0|0:0,0:0:0:0:
381,23,23413,2,0,L|256:30,1,90,2|0,0:0|0:0,0:0:0:0:
205,56,24183,2,0,L|130:50,2,45,8|0|0,0:0|0:0|3:0,0:0:0:0:
227,95,24760,1,0,0:0:0:0:
245,136,24952,6,0,L|232:263,1,90,6|0,0:0|0:0,0:0:0:0:
320,256,25721,2,0,L|329:345,1,90,8|0,0:0|3:0,0:0:0:0:
242,371,26490,2,0,P|191:362|145:319,1,90,2|0,0:0|0:0,0:0:0:0:
103,269,27260,2,0,L|27:259,2,45,8|0|0,0:0|0:0|3:0,0:0:0:0:
153,194,28029,6,0,P|159:146|135:96,1,90,2|0,0:0|0:0,0:0:0:0:
126,66,28606,1,0,0:0:0:0:
104,27,28798,2,0,L|206:27,1,90,8|0,0:0|0:0,0:0:0:0:
281,6,29567,2,0,L|400:15,1,90,2|0,0:0|0:0,0:0:0:0:
460,14,30336,2,0,P|466:63|439:126,1,90,8|0,0:0|3:0,0:0:0:0:
406,178,31106,5,6,0:0:0:0:
471,239,31490,1,0,0:0:0:0:
434,321,31875,1,8,0:0:0:0:
346,301,32260,1,0,3:0:0:0:
277,359,32644,2,0,P|234:374|157:360,1,90,2|0,0:0|3:0,0:0:0:0:
158,287,33413,2,0,P|199:270|267:280,1,90,8|0,0:0|0:0,0:0:0:0:
313,212,34183,6,0,P|351:173|264:117,1,180,6|2,0:0|0:0,0:0:0:0:
275,110,35721,6,0,B|205:118|170:168|170:168|179:110|113:72,1,242.999992584229,4|0,0:0|0:3,0:0:0:0:
31,118,37260,6,0,L|39:218,1,90,6|0,0:0|0:0,0:0:0:0:
61,246,37836,1,0,0:0:0:0:
63,291,38029,2,0,P|124:273|182:292,1,90,8|0,0:0|0:0,0:0:0:0:
221,329,38798,2,0,P|274:343|335:316,1,90,2|2,0:0|0:0,0:0:0:0:
389,297,39567,1,8,0:0:0:0:
470,335,39952,1,0,3:0:0:0:
505,252,40336,6,0,L|499:146,1,90,2|0,0:0|0:0,0:0:0:0:
488,118,40913,1,0,0:0:0:0:
502,75,41106,2,0,P|447:60|405:77,1,90,8|0,0:0|0:3,0:0:0:0:
342,119,41875,2,0,P|297:136|236:123,1,90,2|2,0:0|0:0,0:0:0:0:
218,50,42644,1,8,0:0:0:0:
131,76,43029,1,0,3:0:0:0:
51,34,43413,6,0,P|40:92|56:131,1,90,2|0,0:0|0:0,0:0:0:0:
80,152,43990,1,0,0:0:0:0:
111,184,44183,2,0,P|131:231|122:280,1,90,8|0,0:0|0:0,0:0:0:0:
104,355,44952,2,0,L|213:354,1,90,2|2,0:0|0:0,0:0:0:0:
269,304,45721,1,8,0:0:0:0:
343,353,46106,2,0,L|398:345,1,45
410,293,46490,6,0,P|421:234|403:185,1,90,2|0,0:0|0:0,0:0:0:0:
381,174,47067,1,0,0:0:0:0:
341,151,47260,2,0,P|325:100|337:57,1,90,8|0,0:0|0:0,0:0:0:0:
251,25,48029,2,0,L|134:19,1,90,2|2,0:0|0:0,0:0:0:0:
71,32,48798,1,8,0:0:0:0:
112,112,49183,1,8,0:3:0:0:
42,169,49567,6,0,B|13:218|31:270|31:270|71:254|122:268,1,180,6|8,0:0|0:0,0:0:0:0:
180,312,50721,1,0,0:0:0:0:
263,278,51106,2,0,L|379:276,1,90,2|2,0:0|0:0,0:0:0:0:
387,193,51875,2,0,L|261:186,1,90,8|0,0:0|3:0,0:0:0:0:
210,162,52644,6,0,P|194:115|219:49,1,90,2|0,0:0|0:0,0:0:0:0:
222,36,53221,1,0,0:0:0:0:
258,10,53413,2,0,L|363:3,1,90,8|0,0:0|3:0,0:0:0:0:
419,58,54183,2,0,P|424:113|409:150,1,90,2|0,0:0|0:0,0:0:0:0:
350,209,54952,1,8,0:0:0:0:
412,273,55336,1,0,3:0:0:0:
360,346,55721,6,0,L|249:334,1,90,2|0,0:0|0:0,0:0:0:0:
225,332,56298,1,0,0:0:0:0:
186,354,56490,2,0,L|72:365,1,90,8|0,0:0|0:3,0:0:0:0:
32,299,57260,2,0,P|21:246|37:199,1,90,2|0,0:0|0:0,0:0:0:0:
107,163,58029,1,8,0:0:0:0:
56,88,58413,1,0,3:0:0:0:
116,21,58798,6,0,P|161:1|220:27,1,90,2|0,0:0|0:0,0:0:0:0:
229,43,59375,1,0,0:0:0:0:
266,68,59567,2,0,P|313:80|362:60,1,90,8|0,0:0|3:0,0:0:0:0:
389,43,60144,1,0,0:0:0:0:
430,26,60336,1,2,0:0:0:0:
487,95,60721,1,8,0:0:0:0:
428,163,61106,2,0,L|367:160,2,45
425,253,61875,6,0,L|314:249,1,90,6|0,0:0|0:0,0:0:0:0:
293,267,62452,1,0,0:0:0:0:
249,278,62644,2,0,L|144:282,1,90,8|0,0:0|0:0,0:0:0:0:
85,333,63413,2,0,P|64:292|79:229,1,90,2|2,0:0|0:0,0:0:0:0:
118,174,64183,1,8,0:0:0:0:
68,99,64567,1,0,3:0:0:0:
130,34,64952,6,0,P|173:22|226:37,1,90,2|0,0:0|0:0,0:0:0:0:
245,66,65529,1,0,0:0:0:0:
276,98,65721,2,0,P|330:112|374:96,1,90,8|0,0:0|0:0,0:0:0:0:
447,74,66490,2,0,L|452:190,1,90,2|2,0:0|0:0,0:0:0:0:
409,244,67260,1,8,0:0:0:0:
346,308,67644,1,0,3:0:0:0:
269,261,68029,6,0,P|226:251|183:263,1,90,2|0,0:0|0:0,0:0:0:0:
145,289,68606,1,0,0:0:0:0:
108,315,68798,2,0,P|50:330|9:317,1,90,8|0,0:0|0:0,0:0:0:0:
54,239,69567,2,0,L|58:137,1,90,2|2,0:0|0:0,0:0:0:0:
114,79,70336,1,8,0:0:0:0:
182,137,70721,1,0,3:0:0:0:
260,92,71106,6,0,P|300:78|359:95,1,90,2|0,0:0|0:0,0:0:0:0:
378,118,71683,1,0,0:0:0:0:
363,160,71875,2,0,L|370:258,1,90,8|0,0:0|0:0,0:0:0:0:
326,328,72644,2,0,P|286:314|236:323,1,90,2|2,0:0|0:0,0:0:0:0:
155,351,73413,1,8,0:0:0:0:
77,305,73798,1,8,0:3:0:0:
143,244,74183,6,0,B|123:198|153:157|153:157|173:115|150:54,1,180,6|8,0:0|0:0,0:0:0:0:
234,28,75336,1,0,0:0:0:0:
302,86,75721,2,0,L|402:81,1,90,2|2,0:0|0:0,0:0:0:0:
394,171,76490,2,0,L|299:164,1,90,8|0,0:0|3:0,0:0:0:0:
215,148,77260,6,0,P|206:198|238:244,1,90,2|0,0:0|0:0,0:0:0:0:
253,264,77836,1,0,0:0:0:0:
263,308,78029,2,0,L|156:299,1,90,8|0,0:0|3:0,0:0:0:0:
111,234,78798,2,0,L|9:240,1,90,2|8,0:0|0:0,0:0:0:0:
17,149,79567,2,0,L|129:153,1,90,10|8,0:0|3:3,0:0:0:0:
186,193,80336,6,0,B|217:141|168:75|168:75|235:123|320:80,1,270,4|8,0:0|0:0,0:0:0:0:
387,55,81875,2,0,B|397:165|397:165|368:230|368:230|379:322,1,270,4|2,0:0|0:0,0:0:0:0:
294,350,83413,5,6,0:0:0:0:
256,192,83606,12,2,86490,0:0:0:0:
