osu file format v14

[General]
AudioFilename: audio.mp3
AudioLeadIn: 0
PreviewTime: 34856
Countdown: 0
SampleSet: Soft
StackLeniency: 0.7
Mode: 0
LetterboxInBreaks: 0
WidescreenStoryboard: 0

[Editor]
DistanceSpacing: 1.2
BeatDivisor: 8
GridSize: 16
TimelineZoom: 1

[Metadata]
Title:Ref:rain (TV Size)
TitleUnicode:Ref:rain (TV Size)
Artist:Aimer
ArtistUnicode:Aimer
Creator:Aakki
Version:Sorrow
Source:恋は雨上がりのように
Tags:dog food door weapon xiced japanese anime pop jpop j-pop female vocalist Kenji Tamai Koi wa Ameagari no You ni After the Rain ending refrain エメ 眩いばかり 玉井健二 dog_food door_weapon
BeatmapID:2344072
BeatmapSetID:1121781

[Difficulty]
HPDrainRate:5.5
CircleSize:4.5
OverallDifficulty:8
ApproachRate:8.8
SliderMultiplier:3.2
SliderTickRate:1

[Events]
//Background and Video events
0,0,"bg.jpg",0,0
Video,-1450,"video.mp4"
//Break Periods
//Storyboard Layer 0 (Background)
//Storyboard Layer 1 (Fail)
//Storyboard Layer 2 (Pass)
//Storyboard Layer 3 (Foreground)
//Storyboard Layer 4 (Overlay)
//Storyboard Sound Samples

[TimingPoints]
337,769.230769230769,4,2,1,55,1,0
337,-200,4,2,1,55,0,0
24952,-166.666666666667,4,2,2,60,0,0
37260,-100,4,2,1,75,0,1
61010,-100,4,2,1,5,0,1
61106,-100,4,2,1,75,0,1
80336,-133.333333333333,4,2,1,55,0,0
83413,-454.545454545455,4,2,1,40,0,0

[Colours]
Combo1 : 125,125,125
Combo2 : 77,115,157
Combo3 : 247,81,72
Combo4 : 228,149,61

[HitObjects]
85,111,337,5,2,0:3:0:0:
149,40,721,2,0,P|186:30|238:45,1,80,2|10,0:0|0:0,0:0:0:0:
226,38,1875,5,2,0:0:0:0:
248,136,2067,1,2,0:0:0:0:
156,156,2260,1,2,0:0:0:0:
156,156,2452,2,0,P|147:112|130:61,1,80,2|2,0:0|0:0,0:0:0:0:
43,121,3029,2,0,P|68:132|95:142,1,40,2|0,0:0|0:0,0:0:0:0:
114,213,3413,5,2,0:3:0:0:
249,318,3798,2,0,B|293:295|284:328|339:299,1,80,2|10,0:0|0:0,0:0:0:0:
414,281,4375,1,2,0:0:0:0:
414,281,4567,2,0,P|418:252|420:234,1,40,2|0,0:0|0:0,0:0:0:0:
441,146,4952,6,0,P|400:161|346:154,1,80,2|2,0:0|0:0,0:0:0:0:
350,82,5529,2,0,P|365:123|358:177,1,80,2|2,0:0|0:0,0:0:0:0:
326,234,6106,2,0,P|287:213|267:206,1,40,2|0,0:0|0:0,0:0:0:0:
221,206,6490,5,2,0:3:0:0:
84,303,6875,2,0,B|141:313|112:335|173:343,1,80,2|10,0:0|0:0,0:0:0:0:
153,339,8029,5,2,0:0:0:0:
135,242,8221,1,2,0:0:0:0:
122,151,8413,1,2,0:0:0:0:
122,151,8606,2,0,B|164:137|164:137|206:159,1,80,2|2,0:0|0:0,0:0:0:0:
256,196,9183,1,2,0:0:0:0:
356,72,9567,5,2,0:3:0:0:
475,131,9952,2,0,B|508:144|506:196|506:196|496:281,1,160,2|2,0:0|0:0,0:0:0:0:
441,326,10913,2,0,B|421:321|405:303|405:303|388:322|360:324,1,80,2|0,0:0|0:0,0:0:0:0:
324,371,11490,1,2,0:0:0:0:
324,371,11683,2,0,P|321:324|300:259,1,80,2|0,0:0|0:0,0:0:0:0:
298,200,12260,1,2,0:0:0:0:
298,200,12452,6,0,B|264:191|264:191|239:196|239:196|205:188,1,80,2|0,0:0|0:0,0:0:0:0:
164,140,13029,1,0,0:0:0:0:
78,218,13413,1,8,0:0:0:0:
171,296,13798,1,2,0:0:0:0:
171,296,13990,2,0,L|168:212,1,80,2|0,0:0|0:0,0:0:0:0:
164,140,14567,1,0,0:0:0:0:
281,1,14952,1,8,0:0:0:0:
355,147,15336,1,2,0:0:0:0:
290,109,15529,1,2,0:0:0:0:
353,62,15721,6,0,B|389:52|389:52|429:80,1,80,2|2,0:3|0:0,0:0:0:0:
512,157,16490,1,8,0:0:0:0:
429,273,17067,1,2,0:0:0:0:
429,273,17260,2,0,L|341:251,1,80,2|2,0:0|0:0,0:0:0:0:
292,205,17836,2,0,B|305:233|305:233|291:287,1,80,2|0,0:0|0:0,0:0:0:0:
266,353,18413,1,2,0:0:0:0:
266,353,18606,6,0,P|221:350|190:321,1,80,2|0,0:0|0:0,0:0:0:0:
119,292,19183,1,2,0:0:0:0:
119,292,19375,2,0,B|141:248|141:248|121:157,1,120,2|0,0:0|0:0,0:0:0:0:
101,59,20336,2,0,B|129:63|156:46|156:46|191:64|191:64|219:39|263:47,1,160,2|8,0:0|0:0,0:0:0:0:
249,45,21875,6,0,B|231:81|199:89|199:89|227:189,1,160,2|8,0:3|0:0,0:0:0:0:
223,176,23413,1,2,0:0:0:0:
223,176,24183,5,10,0:0:0:0:
334,249,24375,1,2,0:0:0:0:
299,180,24567,1,2,0:0:0:0:
260,302,24760,1,2,0:0:0:0:
176,231,24952,6,0,P|130:212|79:225,1,95.9999970703126,2|2,3:3|0:0,0:0:0:0:
31,264,25529,2,0,B|51:221|51:221|29:172,1,95.9999970703126,2|2,0:0|0:0,0:0:0:0:
0,89,26106,2,0,B|42:57|105:82|105:82|83:127|124:171,1,191.999994140625,2|0,3:2|3:2,0:0:0:0:
371,32,27260,5,10,0:0:0:0:
301,75,27452,1,2,0:0:0:0:
345,149,27644,2,0,P|339:177|313:213,1,71.9999978027344,2|0,0:0|0:0,0:0:0:0:
263,249,28029,6,0,B|312:241|303:277|358:268,1,95.9999970703126,2|2,3:3|0:0,0:0:0:0:
405,320,28606,2,0,P|390:265|417:220,1,95.9999970703126,2|2,0:0|0:0,0:0:0:0:
470,178,29183,2,0,B|499:131|479:65|479:65|430:66|408:113,1,191.999994140625,2|0,3:2|3:2,0:0:0:0:
308,227,30336,2,0,B|284:214|257:214|271:227|243:230|213:213,1,95.9999970703126,10|2,0:0|0:0,0:0:0:0:
214,21,31106,5,2,3:3:0:0:
165,125,31490,1,2,0:0:0:0:
272,155,31875,1,10,0:0:0:0:
324,46,32260,1,2,0:0:0:0:
351,206,32644,2,0,B|299:189|324:167|255:149,1,95.9999970703126,2|0,0:0|0:0,0:0:0:0:
471,80,33413,6,0,B|445:107|438:140|438:140|443:177|478:214,1,143.999995605469,10|0,0:0|0:0,0:0:0:0:
512,301,34183,2,0,B|410:260|423:331|311:267,1,191.999994140625,2|2,3:3|0:0,0:0:0:0:
67,340,35336,5,2,3:2:0:0:
151,270,35529,1,2,3:2:0:0:
204,370,35721,2,0,B|237:365|237:365|256:348|256:348|305:343,1,95.9999970703126,2|2,0:0|0:0,0:0:0:0:
387,325,36298,2,0,L|391:269,1,47.9999985351563,2|0,0:0|0:0,0:0:0:0:
344,189,36683,1,0,0:0:0:0:
443,136,36875,2,0,L|446:183,1,47.9999985351563,2|0,0:0|0:0,0:0:0:0:
363,62,37260,6,0,B|330:35|288:37|288:37|243:57|230:108,1,160,6|0,3:2|0:0,0:0:0:0:
198,193,37836,1,0,3:2:0:0:
112,77,38029,2,0,P|120:105|130:167,1,80,0|0,1:2|0:0,0:0:0:0:
19,319,38413,1,2,3:2:0:0:
133,265,38606,1,2,0:0:0:0:
270,336,38798,6,0,P|278:297|291:259,1,80,2|0,0:0|0:0,0:0:0:0:
328,154,39182,1,2,3:2:0:0:
251,180,39375,1,2,0:0:0:0:
431,327,39567,2,0,B|334:322|384:275|276:256,1,160,0|2,1:2|0:0,0:0:0:0:
175,200,40144,1,2,0:0:0:0:
255,45,40336,6,0,B|304:21|350:39|350:39|375:70|372:109,1,160,2|0,3:3|0:0,0:0:0:0:
394,226,40913,1,0,3:2:0:0:
291,119,41106,2,0,P|298:142|307:202,1,80,0|0,1:2|0:0,0:0:0:0:
177,328,41490,1,2,3:2:0:0:
335,281,41683,1,2,0:0:0:0:
171,78,41875,6,0,P|194:118|197:164,1,80,2|0,0:0|0:0,0:0:0:0:
0,179,42260,2,0,P|40:156|86:153,1,80,2|0,3:2|0:0,0:0:0:0:
107,347,42644,2,0,P|84:307|81:261,1,80,2|0,1:2|0:0,0:0:0:0:
263,254,43029,2,0,P|229:274|189:281,1,80,2|0,0:0|0:0,0:0:0:0:
299,362,43413,6,0,B|389:358|343:310|454:300,1,160,2|2,3:3|0:0,0:0:0:0:
505,213,43990,1,0,3:2:0:0:
368,118,44183,2,0,P|376:152|386:215,1,80,2|0,1:2|0:0,0:0:0:0:
269,288,44567,2,0,P|275:248|284:209,1,80,2|0,3:2|0:0,0:0:0:0:
195,94,44952,6,0,B|153:58|107:76|107:76|92:105|106:154,1,160,2|2,0:0|3:2,0:0:0:0:
187,243,45529,1,0,0:0:0:0:
41,326,45721,2,0,B|133:289|106:364|210:333,1,160,2|2,1:2|0:0,0:0:0:0:
280,243,46298,1,2,0:0:0:0:
359,384,46490,6,0,B|337:347|344:300|344:300|365:264|413:255,1,160,2|0,3:3|0:0,0:0:0:0:
512,223,47067,1,0,3:2:0:0:
421,108,47260,2,0,P|430:136|441:198,1,80,0|0,1:2|0:0,0:0:0:0:
256,122,47644,1,2,3:2:0:0:
299,37,47836,1,2,0:0:0:0:
298,202,48029,6,0,B|282:237|228:242|228:242|194:210|189:151,1,160,2|2,3:2|3:2,0:0:0:0:
270,312,48606,1,2,0:0:0:0:
185,384,48798,2,0,B|132:373|132:373|104:339|104:339|36:316,1,160,0|2,1:2|0:0,0:0:0:0:
0,230,49375,1,2,0:0:0:0:
130,83,49567,6,0,B|83:97|77:163|77:163|98:197|145:202,1,160,6|0,3:2|0:0,0:0:0:0:
221,240,50144,1,0,3:2:0:0:
281,73,50336,2,0,P|289:108|298:170,1,80,0|0,1:2|0:0,0:0:0:0:
130,83,50721,1,2,3:2:0:0:
253,0,50913,1,2,0:0:0:0:
121,197,51106,6,0,P|89:171|47:165,1,80,2|0,0:0|0:0,0:0:0:0:
117,362,51490,1,2,3:2:0:0:
221,240,51683,1,2,0:0:0:0:
338,366,51875,2,0,L|346:206,1,160,0|2,1:2|0:0,0:0:0:0:
117,362,52452,1,2,0:0:0:0:
145,383,52548,1,0,0:0:0:0:
141,364,52644,6,0,B|165:326|202:304|202:304|243:309|283:338,1,160,2|0,3:3|0:0,0:0:0:0:
372,378,53221,1,0,3:2:0:0:
290,177,53413,2,0,P|279:202|273:256,1,80,0|0,1:2|0:0,0:0:0:0:
387,176,53798,2,0,P|384:136|369:99,1,80,2|2,3:2|0:0,0:0:0:0:
228,31,54183,6,0,P|268:8|311:5,1,80,2|0,0:0|0:0,0:0:0:0:
210,168,54567,2,0,P|170:161|136:141,1,80,2|0,3:2|0:0,0:0:0:0:
6,33,54952,2,0,L|17:234,1,160,2|2,1:2|0:0,0:0:0:0:
19,335,55529,1,0,0:0:0:0:
135,256,55721,6,0,B|179:268|224:240|181:202|304:193,1,160,2|2,3:3|0:0,0:0:0:0:
378,246,56298,1,0,3:2:0:0:
270,377,56490,2,0,P|268:332|281:282,1,80,2|0,1:2|0:0,0:0:0:0:
425,194,56875,2,0,P|448:235|440:279,1,80,2|0,3:2|0:0,0:0:0:0:
248,127,57260,6,0,P|286:117|336:137,1,80,2|0,0:0|0:0,0:0:0:0:
208,215,57644,2,0,P|173:195|153:161,1,80,2|0,3:2|0:0,0:0:0:0:
68,34,58029,2,0,L|75:195,1,160,2|2,1:2|0:0,0:0:0:0:
91,313,58606,1,2,0:0:0:0:
207,270,58798,6,0,B|226:226|271:211|271:211|314:222|337:263,1,160,2|0,3:3|0:0,0:0:0:0:
395,325,59375,1,0,3:2:0:0:
478,174,59567,2,0,P|481:200|492:260,1,80,0|0,1:2|0:0,0:0:0:0:
314,150,59952,1,2,3:2:0:0:
499,47,60144,1,2,1:2:0:0:
340,22,60336,5,2,0:0:0:0:
412,222,60529,1,0,1:2:0:0:
250,70,60721,2,0,B|222:44|187:35|187:35|161:46|136:86,1,120,2|0,1:2|3:2,0:0:0:0:
127,107,61106,5,2,1:3:0:0:
86,347,61298,1,0,1:2:0:0:
226,149,61490,1,8,0:3:0:0:
258,307,61682,1,4,0:3:0:0:
26,219,61875,6,0,B|53:179|112:180|112:180|142:196|142:247,1,160,6|0,3:2|0:0,0:0:0:0:
154,350,62452,1,0,3:2:0:0:
202,159,62644,2,0,P|211:198|217:238,1,80,0|0,1:2|0:0,0:0:0:0:
44,53,63029,1,2,3:2:0:0:
159,91,63221,1,2,0:0:0:0:
26,219,63413,6,0,L|19:124,1,80,2|0,0:0|0:0,0:0:0:0:
146,0,63798,1,2,3:2:0:0:
44,53,63990,1,2,0:0:0:0:
105,154,64183,2,0,B|147:178|189:185|189:185|225:167|254:138,1,160,0|2,1:2|0:0,0:0:0:0:
338,52,64760,1,2,0:0:0:0:
244,283,64952,6,0,B|266:308|307:302|307:302|320:330|320:330|362:327|386:350,1,160,2|0,3:3|0:0,0:0:0:0:
505,384,65529,1,0,3:2:0:0:
422,201,65721,2,0,P|403:231|403:285,1,80,0|0,1:2|0:0,0:0:0:0:
270,173,66106,1,2,3:2:0:0:
381,105,66298,1,2,0:0:0:0:
194,15,66490,6,0,P|217:55|220:101,1,80,2|0,0:0|0:0,0:0:0:0:
0,100,66875,2,0,P|40:77|86:74,1,80,2|0,3:2|0:0,0:0:0:0:
106,285,67259,2,0,P|83:245|80:199,1,80,2|0,1:2|0:0,0:0:0:0:
282,211,67644,2,0,P|248:231|208:238,1,80,2|0,0:0|0:0,0:0:0:0:
217,360,68029,6,0,B|311:332|276:406|382:373,1,160,2|2,3:3|0:0,0:0:0:0:
466,283,68606,1,0,3:2:0:0:
356,129,68798,2,0,P|370:149|375:215,1,80,2|0,1:2|0:0,0:0:0:0:
278,288,69183,2,0,P|280:248|300:214,1,80,2|0,3:2|0:0,0:0:0:0:
118,88,69567,6,0,L|133:197,1,80,2|0,0:0|0:0,0:0:0:0:
237,17,69952,2,0,L|226:96,1,80,2|0,3:2|0:0,0:0:0:0:
42,243,70336,2,0,B|76:222|130:228|110:265|146:270|199:247,1,160,2|2,1:2|0:0,0:0:0:0:
291,205,70913,1,2,0:0:0:0:
365,350,71106,6,0,P|379:260|419:188,1,160,2|0,3:3|0:0,0:0:0:0:
492,90,71683,1,0,3:2:0:0:
348,9,71875,2,0,P|357:30|363:101,1,80,0|0,1:2|0:0,0:0:0:0:
207,213,72260,1,2,3:2:0:0:
296,143,72452,1,2,0:0:0:0:
95,86,72644,6,0,P|118:179|126:258,1,160,2|2,0:0|3:2,0:0:0:0:
111,365,73221,1,2,0:0:0:0:
225,198,73413,2,0,P|216:230|202:300,1,80,0|0,1:2|0:0,0:0:0:0:
371,359,73798,1,2,0:0:0:0:
274,310,73990,1,2,0:0:0:0:
395,113,74183,6,0,P|364:192|342:293,1,160,6|0,3:2|0:0,0:0:0:0:
306,384,74760,1,0,3:2:0:0:
244,176,74952,2,0,P|262:216|269:270,1,80,0|0,1:2|0:0,0:0:0:0:
110,155,75336,1,2,3:2:0:0:
177,285,75529,1,2,0:0:0:0:
30,259,75721,6,0,P|26:207|19:165,1,80,2|0,0:0|0:0,0:0:0:0:
141,71,76106,1,2,3:2:0:0:
5,20,76298,1,2,0:0:0:0:
110,155,76490,2,0,B|143:135|203:155|178:192|223:204|264:187,1,160,0|2,1:2|0:0,0:0:0:0:
371,119,77067,1,2,0:0:0:0:
389,97,77163,1,0,0:0:0:0:
401,110,77260,6,0,B|436:128|464:171|464:171|441:228|411:248,1,160,2|0,3:3|0:0,0:0:0:0:
339,325,77836,1,0,3:2:0:0:
260,163,78029,2,0,P|275:197|275:253,1,80,0|0,1:2|0:0,0:0:0:0:
148,341,78413,1,2,3:2:0:0:
239,359,78606,1,2,0:0:0:0:
118,189,78798,6,0,P|152:202|192:242,1,80,2|0,0:0|0:0,0:0:0:0:
65,329,79183,2,0,P|49:295|49:238,1,80,2|0,3:2|0:0,0:0:0:0:
76,113,79567,5,2,1:2:0:0:
118,189,79760,1,8,0:3:0:0:
262,85,79952,1,4,0:3:0:0:
212,25,80144,1,8,0:3:0:0:
394,93,80336,6,0,P|364:184|354:259,2,120.000004577637,2|0|8,3:2|0:0|0:0,0:0:0:0:
293,0,81490,1,0,0:0:0:0:
495,219,81875,6,0,B|435:206|457:173|369:154,2,120.000004577637,2|0|8,0:0|0:0|0:0,0:0:0:0:
385,334,83029,1,0,0:0:0:0:
253,218,83413,6,0,B|201:203|166:149|188:84|188:84|251:78|264:132,1,264.000008056641,2|8,0:3|0:0,0:0:0:0:
