osu file format v14

[General]
AudioFilename: audio.mp3
AudioLeadIn: 0
PreviewTime: 34856
Countdown: 0
SampleSet: Soft
StackLeniency: 0.7
Mode: 0
LetterboxInBreaks: 0
WidescreenStoryboard: 1

[Editor]
DistanceSpacing: 1
BeatDivisor: 4
GridSize: 16
TimelineZoom: 1

[Metadata]
Title:Ref:rain (TV Size)
TitleUnicode:Ref:rain (TV Size)
Artist:Aimer
ArtistUnicode:Aimer
Creator:Aakki
Version:Normal
Source:恋は雨上がりのように
Tags:dog food door weapon xiced japanese anime pop jpop j-pop female vocalist Kenji Tamai Koi wa Ameagari no You ni After the Rain ending refrain エメ 眩いばかり 玉井健二 dog_food door_weapon
BeatmapID:2344071
BeatmapSetID:1121781

[Difficulty]
HPDrainRate:3.5
CircleSize:3.5
OverallDifficulty:4
ApproachRate:5.5
SliderMultiplier:2
SliderTickRate:1

[Events]
//Background and Video events
0,0,"bg.jpg",0,0
Video,-1450,"video.mp4"
//Break Periods
//Storyboard Layer 0 (Background)
//Storyboard Layer 1 (Fail)
//Storyboard Layer 2 (Pass)
//Storyboard Layer 3 (Foreground)
//Storyboard Layer 4 (Overlay)
//Storyboard Sound Samples

[TimingPoints]
337,769.230769230769,4,2,1,55,1,0
337,-111.111111111111,4,2,1,55,0,0
24952,-111.111111111111,4,2,2,60,0,0
37260,-100,4,2,1,75,0,1
80336,-111.111111111111,4,2,1,55,0,0
83413,-111.111111111111,4,2,1,40,0,0

[Colours]
Combo1 : 125,125,125
Combo2 : 77,115,157
Combo3 : 247,81,72
Combo4 : 228,149,61

[HitObjects]
84,361,337,5,2,0:3:0:0:
34,281,721,2,0,P|13:227|10:182,1,89.9999972534181,2|10,0:0|0:0,0:0:0:0:
122,55,1875,2,0,B|222:46|181:126|299:119,1,179.999994506836,2|10,0:0|0:0,0:0:0:0:
351,62,3029,1,2,0:0:0:0:
420,118,3413,5,2,0:3:0:0:
361,186,3798,2,0,P|319:218|245:209,1,89.9999972534181,2|10,0:0|0:0,0:0:0:0:
249,246,4375,1,2,0:0:0:0:
249,246,4567,2,0,P|201:237|196:235,1,44.999998626709,2|0,0:0|0:0,0:0:0:0:
176,209,4952,2,0,P|131:182|32:264,1,179.999994506836,2|10,0:0|0:0,0:0:0:0:
63,328,6106,1,2,0:0:0:0:
148,356,6490,5,2,0:3:0:0:
225,309,6875,2,0,L|319:298,1,89.9999972534181,2|10,0:0|0:0,0:0:0:0:
465,200,8029,2,0,P|474:151|478:140,2,44.999998626709,2|2|2,0:0|0:0|0:0,0:0:0:0:
443,239,8606,2,0,P|396:245|359:202,1,89.9999972534181,2|2,0:0|0:0,0:0:0:0:
353,175,9183,1,2,0:0:0:0:
391,93,9567,5,2,0:3:0:0:
317,40,9952,2,0,P|263:20|191:106,1,179.999994506836,2|2,0:0|0:0,0:0:0:0:
207,141,10913,1,2,0:0:0:0:
229,278,11490,1,2,0:0:0:0:
229,278,11683,2,0,B|184:265|184:265|132:277|132:277|75:263,1,134.999995880127,2|2,0:0|0:0,0:0:0:0:
28,211,12644,6,0,B|-9:159|-18:124|7:55|7:55|79:82|74:140,1,269.999991760254,2|2,0:3|0:0,0:0:0:0:
102,161,13990,2,0,B|167:150|154:206|236:198,1,134.999995880127,2|0,0:0|0:0,0:0:0:0:
317,198,14952,1,8,0:0:0:0:
385,256,15336,2,0,P|418:262|433:258,1,44.999998626709,2|2,0:0|0:0,0:0:0:0:
467,235,15721,6,0,P|490:188|395:133,1,179.999994506836,2|8,0:3|0:0,0:0:0:0:
281,187,17067,1,2,0:0:0:0:
281,187,17260,2,0,P|224:201|181:155,1,89.9999972534181,2|2,0:0|0:0,0:0:0:0:
184,144,17836,2,0,P|143:127|86:198,1,134.999995880127,2|2,0:0|0:0,0:0:0:0:
102,225,18606,6,0,B|186:231|157:309|254:322,1,179.999994506836,2|2,0:0|0:0,0:0:0:0:
287,302,19567,1,8,0:0:0:0:
454,368,20336,1,2,0:0:0:0:
510,196,21106,1,8,0:0:0:0:
341,132,21875,5,2,0:3:0:0:
200,244,22644,1,8,0:0:0:0:
52,141,23413,1,2,0:0:0:0:
202,41,24183,2,0,P|206:72|210:90,2,44.999998626709,10|2|2,0:0|0:0|0:0,0:0:0:0:
234,9,24760,1,2,0:0:0:0:
234,9,24952,6,0,L|336:22,1,89.9999972534181,2|2,3:3|0:0,0:0:0:0:
355,52,25529,1,2,0:0:0:0:
443,26,25913,1,2,0:0:0:0:
443,26,26106,2,0,P|468:70|395:174,1,179.999994506836,2|0,3:2|3:2,0:0:0:0:
356,243,27260,2,0,L|365:303,2,44.999998626709,10|2|2,0:0|0:0|0:0,0:0:0:0:
280,198,28029,6,0,P|246:162|257:96,1,89.9999972534181,2|2,3:3|0:0,0:0:0:0:
206,97,28606,2,0,P|200:140|169:171,1,89.9999972534181,2|2,0:0|0:0,0:0:0:0:
185,213,29183,2,0,B|137:201|87:237|114:249|70:290|9:250,1,179.999994506836,2|0,3:2|3:2,0:0:0:0:
38,169,30336,1,10,0:0:0:0:
59,81,30721,1,2,0:0:0:0:
131,27,31106,5,2,3:3:0:0:
203,79,31490,2,0,L|315:71,2,89.9999972534181,2|10|2,0:0|0:0|0:0,0:0:0:0:
127,130,32644,2,0,P|103:182|138:269,1,134.999995880127,2|0,0:0|0:0,0:0:0:0:
165,271,33413,2,0,B|255:258|231:338|349:324,1,179.999994506836,10|2,0:0|3:3,0:0:0:0:
457,87,35336,6,0,P|432:78|411:65,1,44.999998626709,2|2,3:2|3:2,0:0:0:0:
381,39,35721,2,0,P|327:51|289:58,1,89.9999972534181,2|2,0:0|0:0,0:0:0:0:
282,101,36298,2,0,P|237:92|193:82,1,89.9999972534181,2|0,0:0|0:0,0:0:0:0:
152,63,36875,1,2,0:0:0:0:
75,128,37260,6,0,P|32:182|42:233,1,100,6|0,3:2|0:0,0:0:0:0:
52,255,37836,1,0,3:2:0:0:
52,255,38029,2,0,B|89:249|89:249|110:258|110:258|165:248,1,100,0|2,1:2|3:2,0:0:0:0:
183,214,38606,1,2,0:0:0:0:
183,214,38798,2,0,P|234:202|268:256,1,100,2|2,0:0|3:2,0:0:0:0:
272,332,39567,1,0,1:2:0:0:
365,370,39952,2,0,P|399:377|421:375,1,50,2|2,0:0|0:0,0:0:0:0:
460,357,40336,6,0,P|486:313|445:255,1,100,2|0,3:3|0:0,0:0:0:0:
434,234,40913,1,0,3:2:0:0:
434,234,41106,2,0,P|380:222|367:216,1,50,0|0,1:2|0:0,0:0:0:0:
338,205,41490,2,0,P|313:211|289:214,1,50,2|2,3:2|0:0,0:0:0:0:
247,242,41875,2,0,P|195:265|148:231,2,100,2|2|2,0:0|3:2|1:2,0:0:0:0:
295,154,43029,1,2,0:0:0:0:
233,75,43413,6,0,B|219:50|175:38|175:38|134:71|156:137,1,150,2|0,3:3|3:2,0:0:0:0:
160,158,44183,2,0,P|158:211|147:263,1,100,2|2,1:2|3:2,0:0:0:0:
94,341,44952,2,0,B|43:322|43:322|29:352|0:360,2,100,2|2|2,0:0|3:2|1:2,0:0:0:0:
189,371,46106,2,0,P|212:376|239:364,1,50,2|2,0:0|0:0,0:0:0:0:
261,323,46490,6,0,B|335:310|328:353|365:366|435:349,1,150,2|0,3:3|3:2,0:0:0:0:
440,321,47260,1,0,1:2:0:0:
382,239,47644,2,0,P|372:187|368:176,1,50,2|2,3:2|0:0,0:0:0:0:
396,145,48029,2,0,P|449:125|507:142,1,100,2|2,3:2|3:2,0:0:0:0:
504,180,48606,2,0,P|495:238|495:285,1,100,2|0,0:0|0:0,0:0:0:0:
486,328,49183,2,0,P|431:317|420:318,1,50,2|2,0:0|0:0,0:0:0:0:
397,346,49567,6,0,B|339:366|339:366|299:320|311:273,1,150,6|0,3:2|3:2,0:0:0:0:
332,241,50336,1,0,1:2:0:0:
265,166,50721,2,0,P|227:159|204:164,1,50,2|2,3:2|0:0,0:0:0:0:
184,199,51106,2,0,B|163:212|132:211|132:211|107:195|93:160,1,100,2|2,0:0|3:2,0:0:0:0:
90,128,51683,2,0,B|84:145|59:161|59:161|28:162|7:149,1,100,2|0,0:0|0:0,0:0:0:0:
3,199,52260,2,0,P|13:256|15:261,1,50,2|2,0:0|0:0,0:0:0:0:
43,285,52644,6,0,P|118:277|135:361,1,150,2|0,3:3|3:2,0:0:0:0:
179,371,53413,1,0,1:2:0:0:
226,282,53798,2,0,L|218:230,1,50,2|2,3:2|0:0,0:0:0:0:
237,186,54183,2,0,P|244:123|265:85,2,100,2|2|2,0:0|3:2|1:2,0:0:0:0:
328,226,55336,1,2,0:0:0:0:
395,152,55721,6,0,B|426:102|412:60|412:60|380:78|372:102,1,150,2|0,3:3|3:2,0:0:0:0:
330,120,56490,2,0,P|271:125|233:84,1,100,2|2,1:2|3:2,0:0:0:0:
162,38,57260,2,0,B|103:41|103:41|86:60|98:86,2,100,2|2|2,0:0|3:2|1:2,0:0:0:0:
261,28,58413,2,0,L|325:18,1,50,2|2,0:0|0:0,0:0:0:0:
358,33,58798,6,0,B|465:47|465:47|446:72|409:75,1,150,2|0,3:3|3:2,0:0:0:0:
397,107,59567,2,0,P|379:164|378:182,1,50,0|0,1:2|0:0,0:0:0:0:
404,197,59952,2,0,P|423:249|423:262,1,50,2|2,3:2|1:2,0:0:0:0:
394,284,60336,2,0,B|345:305|345:305|298:272,1,100,2|2,0:0|1:2,0:0:0:0:
270,243,60913,2,0,B|225:242|225:242|210:253|210:253|164:254,1,100,2|0,3:2|1:2,0:0:0:0:
129,230,61490,1,8,0:3:0:0:
161,135,61875,6,0,B|224:124|184:95|266:77,1,100,6|0,3:2|0:0,0:0:0:0:
289,62,62452,1,0,3:2:0:0:
289,62,62644,2,0,P|332:105|327:153,1,100,0|2,1:2|3:2,0:0:0:0:
300,180,63221,1,2,0:0:0:0:
300,180,63413,2,0,P|279:231|335:284,1,100,2|2,0:0|3:2,0:0:0:0:
392,301,64183,1,0,1:2:0:0:
457,225,64567,2,0,P|476:272|476:289,1,50,2|2,0:0|0:0,0:0:0:0:
488,319,64952,6,0,P|465:368|413:385,1,100,2|0,3:3|0:0,0:0:0:0:
381,364,65529,1,0,3:2:0:0:
381,364,65721,1,0,1:2:0:0:
280,364,66106,2,0,L|226:354,1,50,2|2,3:2|0:0,0:0:0:0:
183,339,66490,2,0,P|164:287|198:236,2,100,2|2|2,0:0|3:2|1:2,0:0:0:0:
86,366,67644,1,2,0:0:0:0:
15,294,68029,6,0,B|34:220|-13:227|8:137,1,150,2|0,3:3|3:2,0:0:0:0:
39,109,68798,2,0,P|93:99|115:141,1,100,2|2,1:2|3:2,0:0:0:0:
200,183,69567,2,0,P|187:236|180:282,2,100,2|2|2,0:0|3:2|1:2,0:0:0:0:
238,90,70721,2,0,L|291:83,1,50,2|2,0:0|0:0,0:0:0:0:
329,55,71106,6,0,B|371:88|371:88|390:134|357:182,1,150,2|0,3:3|3:2,0:0:0:0:
317,208,71875,2,0,L|333:314,1,100,0|2,1:2|3:2,0:0:0:0:
372,336,72452,1,2,0:0:0:0:
372,336,72644,2,0,P|428:350|465:328,1,100,2|2,0:0|3:2,0:0:0:0:
478,283,73221,2,0,B|504:239|504:239|478:157,1,100,2|0,0:0|0:0,0:0:0:0:
478,143,73798,1,2,0:0:0:0:
388,187,74183,6,0,B|288:188|345:247|235:237,1,150,6|0,3:2|3:2,0:0:0:0:
225,196,74952,2,0,P|162:193|124:161,1,100,0|2,1:2|3:2,0:0:0:0:
116,125,75529,1,2,0:0:0:0:
116,125,75721,2,0,P|53:116|34:209,1,150,2|2,0:0|0:0,0:0:0:0:
66,328,76875,2,0,P|122:313|137:314,1,50,2|2,0:0|0:0,0:0:0:0:
159,333,77260,6,0,L|265:352,1,100,2|0,3:3|0:0,0:0:0:0:
302,328,77836,1,0,3:2:0:0:
302,328,78029,2,0,P|326:279|306:222,1,100,0|2,1:2|3:2,0:0:0:0:
280,201,78606,1,2,0:0:0:0:
280,201,78798,2,0,P|203:201|181:254,2,100,2|2|2,0:0|3:2|1:2,0:0:0:0:
316,166,79760,1,8,0:3:0:0:
316,166,79952,2,0,P|327:109|322:94,1,50,4|0,0:3|0:0,0:0:0:0:
317,75,80336,6,0,B|129:37|129:37|74:75|128:137,1,269.999991760254,2|0,3:2|0:0,0:0:0:0:
172,165,81875,6,0,B|310:155|255:283|436:283,1,269.999991760254,2|0,0:0|0:0,0:0:0:0:
464,215,83413,5,2,0:3:0:0:
256,192,83606,12,8,86298,0:0:0:0:
