osu file format v14

[General]
AudioFilename: audio.mp3
AudioLeadIn: 0
PreviewTime: 35797
Countdown: 0
SampleSet: None
StackLeniency: 0.5
Mode: 0
LetterboxInBreaks: 0
WidescreenStoryboard: 0

[Editor]
DistanceSpacing: 1.5
BeatDivisor: 4
GridSize: 4
TimelineZoom: 1

[Metadata]
Title:Ref:rain
TitleUnicode:Ref:rain
Artist:Aimer
ArtistUnicode:Aimer
Creator:Silent Rock
Version:Hard
Source:Koi wa Ameagari no You ni
Tags:
BeatmapID:1535368
BeatmapSetID:727259

[Difficulty]
HPDrainRate:4
CircleSize:4
OverallDifficulty:5
ApproachRate:7
SliderMultiplier:1.6
SliderTickRate:1

[Events]
//Background and Video events
0,0,"BG.jpg",0,0
//Break Periods
//Storyboard Layer 0 (Background)
//Storyboard Layer 1 (Fail)
//Storyboard Layer 2 (Pass)
//Storyboard Layer 3 (Foreground)
//Storyboard Sound Samples

[TimingPoints]
797.610180181065,769.230769230769,4,2,1,30,1,0
37720,-66.6666666666667,4,2,1,30,0,1
83874,-66.6666666666667,4,2,1,30,0,0

[HitObjects]
96,128,797,6,0,P|96:196|168:256,1,160
312,252,2336,2,0,P|312:184|244:120,1,160
204,120,3297,1,0,0:0:0:0:
156,132,3489,1,0,0:0:0:0:
300,312,3874,6,0,P|360:288|380:200,1,160
284,84,5412,2,0,P|216:112|204:196,1,160
220,236,6374,1,0,0:0:0:0:
264,260,6566,1,0,0:0:0:0:
392,72,6951,6,0,P|444:88|484:184,1,160
360,332,8489,2,0,B|320:380|240:308|196:352,1,160
124,352,9451,1,0,0:0:0:0:
152,276,9643,1,0,0:0:0:0:
28,112,10028,6,0,B|112:116|112:116|176:156,1,160
264,264,11182,2,0,P|252:280|244:304,1,40
216,324,11566,2,0,B|132:320|132:320|60:276,1,160
32,248,12528,1,0,0:0:0:0:
24,200,12720,1,0,0:0:0:0:
124,40,13105,6,0,P|160:100|156:192,1,160
252,356,14643,2,0,B|304:384|352:320|412:360,1,160
448,380,15605,1,0,0:0:0:0:
476,300,15797,1,0,0:0:0:0:
400,256,15989,1,0,0:0:0:0:
400,256,16182,6,0,P|312:248|260:200,1,160
176,76,17720,2,0,P|104:52|20:72,1,160
0,96,18682,1,0,0:0:0:0:
48,176,18874,1,0,0:0:0:0:
88,104,19066,1,0,0:0:0:0:
0,140,19259,6,0,P|-8:192|64:268,1,160
248,256,20797,2,0,P|328:224|400:236,1,160
440,260,21759,1,0,0:0:0:0:
468,296,21951,1,0,0:0:0:0:
280,364,22336,6,0,P|260:296|192:240,1,160
284,52,23874,2,0,P|304:120|372:176,1,160
448,200,24836,1,0,0:0:0:0:
424,120,25028,1,0,0:0:0:0:
370,175,25220,1,0,0:0:0:0:
448,160,25412,2,0,P|456:136|444:84,1,80
368,44,25989,2,0,P|352:88|360:120,1,80
408,184,26566,2,0,P|368:252|292:280,1,160
72,152,27720,2,0,P|48:160|24:180,2,40
72,152,28489,6,0,P|116:192|212:188,1,160
316,72,29643,1,0,0:0:0:0:
456,188,30028,2,0,P|492:272|476:336,1,160
440,368,30989,1,0,0:0:0:0:
392,380,31182,1,0,0:0:0:0:
136,284,31566,6,0,P|112:248|76:232,1,80
196,164,32336,2,0,P|168:136|160:96,1,80
316,163,33105,2,0,P|343:136|352:97,1,80
376,283,33875,2,0,P|397:250|432:232,1,80
256,192,34643,5,0,0:0:0:0:
256,164,34836,1,0,0:0:0:0:
256,140,35028,2,0,L|256:84,1,40
256,100,35797,1,0,0:0:0:0:
128,144,35989,1,0,0:0:0:0:
216,244,36182,2,0,P|268:248|292:272,1,80
352,352,36759,2,0,P|404:352|436:332,1,80
472,236,37336,1,0,0:0:0:0:
284,44,37720,6,0,P|276:108|244:156,1,120.000004577637
144,240,38297,1,0,0:0:0:0:
132,92,38489,1,0,0:0:0:0:
252,344,38874,1,0,0:0:0:0:
400,180,39259,1,0,0:0:0:0:
400,180,39451,1,0,0:0:0:0:
400,180,39643,1,0,0:0:0:0:
200,120,40028,2,0,P|196:188|224:232,1,120.000004577637
408,316,40797,6,0,P|440:280|440:208,1,120.000004577637
376,92,41374,1,0,0:0:0:0:
296,184,41566,1,0,0:0:0:0:
296,184,41951,1,0,0:0:0:0:
332,268,42143,1,0,0:0:0:0:
264,328,42336,1,0,0:0:0:0:
188,284,42528,1,0,0:0:0:0:
208,196,42720,1,0,0:0:0:0:
364,288,43105,2,0,P|416:256|436:200,1,120.000004577637
336,60,43874,6,0,P|380:100|392:160,1,120.000004577637
348,280,44451,1,0,0:0:0:0:
256,200,44643,1,0,0:0:0:0:
512,232,45028,1,0,0:0:0:0:
308,364,45412,2,0,P|264:316|268:252,1,120.000004577637
156,52,46182,2,0,P|168:108|144:164,1,120.000004577637
76,256,46759,1,0,0:0:0:0:
168,328,46951,6,0,B|224:352|224:352|300:340,1,120.000004577637
400,312,47528,1,0,0:0:0:0:
400,312,47720,1,0,0:0:0:0:
472,68,48105,1,0,0:0:0:0:
472,68,48489,2,0,P|404:60|356:80,1,120.000004577637
272,244,49259,2,0,P|300:300|292:360,1,120.000004577637
128,284,49836,1,0,0:0:0:0:
256,168,50028,6,0,P|300:192|336:252,1,120.000004577637
260,352,50605,1,0,0:0:0:0:
200,256,50797,1,0,0:0:0:0:
292,56,51182,1,0,0:0:0:0:
388,100,51374,1,0,0:0:0:0:
316,184,51566,2,0,P|280:220|280:292,1,120.000004577637
456,356,52336,2,0,P|452:316|392:268,1,120.000004577637
236,344,53105,6,0,P|172:388|120:376,1,120.000004577637
36,308,53682,1,0,0:0:0:0:
124,232,53874,1,0,0:0:0:0:
372,368,54259,1,0,0:0:0:0:
372,368,54451,1,0,0:0:0:0:
372,368,54643,1,0,0:0:0:0:
140,372,55028,1,0,0:0:0:0:
296,204,55412,2,0,P|336:156|340:92,1,120.000004577637
140,0,56182,6,0,P|100:56|104:108,1,120.000004577637
176,204,56759,1,0,0:0:0:0:
252,104,56951,1,0,0:0:0:0:
36,136,57336,1,0,0:0:0:0:
344,176,57720,1,0,0:0:0:0:
88,324,58105,1,0,0:0:0:0:
404,292,58489,1,0,0:0:0:0:
120,208,58874,1,0,0:0:0:0:
96,164,59066,1,0,0:0:0:0:
96,120,59259,6,0,P|124:60|180:40,1,120.000004577637
288,48,59836,1,0,0:0:0:0:
224,144,60028,1,0,0:0:0:0:
224,144,60412,1,0,0:0:0:0:
212,232,60605,1,0,0:0:0:0:
292,268,60797,1,0,0:0:0:0:
352,204,60989,1,0,0:0:0:0:
312,124,61182,1,0,0:0:0:0:
80,164,61566,1,0,0:0:0:0:
192,280,61759,1,0,0:0:0:0:
48,284,61951,1,0,0:0:0:0:
180,168,62143,1,0,0:0:0:0:
172,364,62336,6,0,P|228:392|284:384,1,120.000004577637
368,304,62912,1,0,0:0:0:0:
268,256,63105,1,0,0:0:0:0:
384,56,63489,1,0,0:0:0:0:
440,148,63682,1,0,0:0:0:0:
356,220,63874,2,0,P|288:232|248:204,1,120.000004577637
200,84,64451,1,0,0:0:0:0:
200,84,64643,2,0,P|120:88|88:120,1,120.000004577637
68,236,65220,1,0,0:0:0:0:
168,328,65412,6,0,B|220:364|220:364|280:364,1,120.000004577637
384,328,65989,1,0,0:0:0:0:
316,244,66182,1,0,0:0:0:0:
112,216,66566,1,0,0:0:0:0:
128,112,66759,1,0,0:0:0:0:
232,88,66951,2,0,P|292:120|316:164,1,120.000004577637
272,312,67720,2,0,P|320:360|372:372,1,120.000004577637
512,264,68489,6,0,B|512:200|512:200|484:148,1,120.000004577637
420,56,69066,1,0,0:0:0:0:
356,136,69259,1,0,0:0:0:0:
160,260,69643,1,0,0:0:0:0:
96,64,70028,2,0,P|136:28|204:32,1,120.000004577637
312,192,70797,2,0,P|280:244|292:304,1,120.000004577637
408,356,71374,1,0,0:0:0:0:
476,248,71566,6,0,B|424:224|392:284|336:236,1,120.000004577637
268,168,72143,1,0,0:0:0:0:
376,104,72336,1,0,0:0:0:0:
376,104,72720,1,0,0:0:0:0:
264,20,72912,1,0,0:0:0:0:
160,112,73105,2,0,P|180:176|160:228,1,120.000004577637
40,368,73874,2,0,P|8:308|16:252,1,120.000004577637
72,160,74451,1,0,0:0:0:0:
184,204,74643,6,0,P|252:228|300:208,1,120.000004577637
376,136,75220,1,0,0:0:0:0:
376,136,75412,1,0,0:0:0:0:
144,28,75797,1,0,0:0:0:0:
88,128,75989,1,0,0:0:0:0:
152,228,76182,2,0,P|208:264|268:256,1,120.000004577637
348,184,76759,1,0,0:0:0:0:
240,112,76951,2,0,P|220:148|236:228,1,120.000004577637
316,308,77528,1,0,0:0:0:0:
228,380,77720,6,0,P|164:400|116:384,1,120.000004577637
20,308,78297,1,0,0:0:0:0:
104,232,78489,1,0,0:0:0:0:
368,300,78874,1,0,0:0:0:0:
464,244,79066,1,0,0:0:0:0:
484,132,79259,2,0,P|468:76|416:36,1,120.000004577637
184,64,80028,1,0,0:0:0:0:
184,64,80220,1,0,0:0:0:0:
184,64,80412,1,0,0:0:0:0:
220,240,80797,6,0,P|292:244|332:208,1,120.000004577637
216,28,81566,2,0,P|144:16|101:48,1,120.000004577637
208,224,82336,2,0,P|212:296|176:336,1,120.000004577637
12,152,83105,2,0,P|8:80|44:40,1,120.000004577637
72,24,83682,1,0,0:0:0:0:
116,24,83874,1,0,0:0:0:0:
256,192,84259,12,0,86951,0:0:0:0:
