osu file format v14

[General]
AudioFilename: audio.mp3
AudioLeadIn: 0
PreviewTime: 233537
Countdown: 0
SampleSet: Normal
StackLeniency: 0.7
Mode: 1
LetterboxInBreaks: 0
WidescreenStoryboard: 0

[Editor]
DistanceSpacing: 0.1
BeatDivisor: 4
GridSize: 16
TimelineZoom: 2.5

[Metadata]
Title:RE:I AM (Abitan UK Hardcore Bootleg Remix)
TitleUnicode:RE:I AM (Abitan UK Hardcore Bootleg Remix)
Artist:Aimer
ArtistUnicode:Aimer
Creator:Deathwing1306
Version:Disconsolateness
Source:機動戦士ガンダムUC
Tags:jpop anime japanese edm electronic dance music aimerrhythm eme エメ midnight sun sawano hiroyuki 澤野 弘之 kenta higuchi 樋口健太 kidou senshi mobile suit gundam gandamu unicorn ed ending
BeatmapID:2578676
BeatmapSetID:1240333

[Difficulty]
HPDrainRate:5
CircleSize:7
OverallDifficulty:6.5
ApproachRate:10
SliderMultiplier:1.4
SliderTickRate:1

[Events]
//Background and Video events
0,0,"bg1.jpg",0,105
//Break Periods
2,178537,187487
//Storyboard Layer 0 (Background)
//Storyboard Layer 1 (Fail)
//Storyboard Layer 2 (Pass)
//Storyboard Layer 3 (Foreground)
//Storyboard Layer 4 (Overlay)
//Storyboard Sound Samples

[TimingPoints]
52,342.857142857143,4,1,0,90,1,0
11023,-95.2380952380952,4,1,0,100,0,0
16509,-94.3396226415094,4,1,0,100,0,0
16680,-93.4579439252336,4,1,0,100,0,0
16766,-93.0232558139535,4,1,0,100,0,0
16852,-92.5925925925926,4,1,0,100,0,0
17023,-91.743119266055,4,1,0,100,0,0
17194,-90.9090909090909,4,1,0,100,0,0
17366,-90.0900900900901,4,1,0,100,0,0
17452,-89.6860986547085,4,1,0,100,0,0
17537,-89.2857142857143,4,1,0,100,0,0
17709,-88.4955752212389,4,1,0,100,0,0
17880,-87.719298245614,4,1,0,100,0,0
18052,-86.9565217391304,4,1,0,100,0,0
18137,-86.5800865800866,4,1,0,100,0,0
18223,-86.2068965517241,4,1,0,100,0,0
18394,-85.4700854700855,4,1,0,100,0,0
18566,-84.7457627118644,4,1,0,100,0,0
18652,-84.3881856540084,4,1,0,100,0,0
18737,-84.0336134453781,4,1,0,100,0,0
18823,-83.6820083682008,4,1,0,100,0,0
18909,-83.3333333333333,4,1,0,100,0,0
19080,-82.6446280991736,4,1,0,100,0,0
19166,-82.3045267489712,4,1,0,100,0,0
19252,-81.9672131147541,4,1,0,100,0,0
19337,-81.6326530612245,4,1,0,100,0,0
19423,-81.3008130081301,4,1,0,100,0,0
19509,-80.9716599190283,4,1,0,100,0,0
19594,-80.6451612903226,4,1,0,100,0,0
19680,-80.3212851405623,4,1,0,100,0,0
19766,-80,4,1,0,100,0,0
19852,-79.6812749003984,4,1,0,100,0,0
19937,-79.3650793650794,4,1,0,100,0,0
20023,-79.0513833992095,4,1,0,100,0,0
20109,-78.7401574803149,4,1,0,100,0,0
20194,-78.4313725490196,4,1,0,100,0,0
20280,-78.125,4,1,0,100,0,0
20366,-77.8210116731517,4,1,0,100,0,0
20452,-77.5193798449612,4,1,0,100,0,0
20537,-77.2200772200772,4,1,0,100,0,0
20623,-76.9230769230769,4,1,0,100,0,0
20794,-76.9230769230769,4,1,0,60,0,0
20966,-100,4,1,0,65,0,0
21137,-100,4,1,0,70,0,0
21309,-100,4,1,0,75,0,0
21480,-100,4,1,0,80,0,0
21652,-100,4,1,0,85,0,0
21823,-100,4,1,0,90,0,0
21994,-133.333333333333,4,1,0,75,0,0
42909,-133.333333333333,4,1,0,75,0,0
43080,-129.032258064516,4,1,0,80,0,0
43252,-125,4,1,0,85,0,0
43423,-121.212121212121,4,1,0,90,0,0
43594,-117.647058823529,4,1,0,95,0,0
43766,-114.285714285714,4,1,0,100,0,0
43937,-111.111111111111,4,1,0,100,0,0
57652,-111.111111111111,4,1,0,98,0,0
58166,-112.994350282486,4,1,0,96,0,0
58680,-114.942528735632,4,1,0,94,0,0
59194,-116.959064327485,4,1,0,92,0,0
59709,-119.047619047619,4,1,0,90,0,0
60394,-121.951219512195,4,1,0,88,0,0
61080,-125,4,1,0,86,0,0
61423,-126.582278481013,4,1,0,84,0,0
61937,-129.032258064516,4,1,0,82,0,0
62452,-131.578947368421,4,1,0,80,0,0
62966,-135.135135135135,4,1,0,78,0,0
63652,-137.931034482759,4,1,0,76,0,0
64166,-140.845070422535,4,1,0,74,0,0
64337,-140.845070422535,4,1,0,72,0,0
64509,-142.857142857143,4,1,0,100,0,0
65880,-100,4,1,0,100,0,0
76851,-95.2380952380952,4,1,0,100,0,0
82337,-90.9090909090909,4,1,0,100,0,0
82509,-90.0900900900901,4,1,0,100,0,0
82594,-89.6860986547085,4,1,0,100,0,0
82680,-89.2857142857143,4,1,0,100,0,0
82852,-88.4955752212389,4,1,0,100,0,0
83023,-87.719298245614,4,1,0,100,0,0
83194,-86.9565217391304,4,1,0,100,0,0
83280,-86.5800865800866,4,1,0,100,0,0
83366,-86.2068965517241,4,1,0,100,0,0
83537,-85.4700854700855,4,1,0,100,0,0
83709,-84.7457627118644,4,1,0,100,0,0
83794,-84.3881856540084,4,1,0,100,0,0
83880,-84.0336134453781,4,1,0,100,0,0
83966,-83.6820083682008,4,1,0,100,0,0
84052,-83.3333333333333,4,1,0,100,0,0
84223,-82.6446280991736,4,1,0,100,0,0
84309,-82.3045267489712,4,1,0,100,0,0
84394,-81.9672131147541,4,1,0,100,0,0
84566,-81.3008130081301,4,1,0,100,0,0
84737,-80.6451612903226,4,1,0,100,0,0
84823,-80.3212851405623,4,1,0,100,0,0
84909,-80,4,1,0,100,0,0
85080,-79.3650793650794,4,1,0,100,0,0
85166,-79.0513833992095,4,1,0,100,0,0
85252,-78.7401574803149,4,1,0,100,0,0
85337,-78.4313725490196,4,1,0,100,0,0
85423,-78.125,4,1,0,100,0,0
85509,-77.8210116731517,4,1,0,100,0,0
85594,-77.5193798449612,4,1,0,100,0,0
85680,-77.2200772200772,4,1,0,100,0,0
85766,-76.9230769230769,4,1,0,100,0,0
85852,-76.6283524904215,4,1,0,100,0,0
85937,-76.3358778625954,4,1,0,100,0,0
86023,-76.0456273764259,4,1,0,100,0,0
86109,-75.7575757575758,4,1,0,100,0,0
86194,-75.4716981132076,4,1,0,100,0,0
86280,-75.187969924812,4,1,0,100,0,0
86366,-74.9063670411985,4,1,0,100,0,0
86452,-74.6268656716418,4,1,0,100,0,0
86537,-74.3494423791822,4,1,0,100,0,0
86623,-74.0740740740741,4,1,0,100,0,0
86709,-73.8007380073801,4,1,0,100,0,0
86794,-73.5294117647059,4,1,0,100,0,0
86880,-73.2600732600733,4,1,0,100,0,0
86966,-72.992700729927,4,1,0,100,0,0
87052,-72.7272727272727,4,1,0,100,0,0
87137,-72.463768115942,4,1,0,100,0,0
87223,-72.202166064982,4,1,0,100,0,0
87309,-71.9424460431655,4,1,0,100,0,0
87394,-71.6845878136201,4,1,0,100,0,0
87480,-71.4285714285714,4,1,0,100,0,0
87566,-71.1743772241993,4,1,0,100,0,0
87652,-70.9219858156028,4,1,0,100,0,0
87737,-70.6713780918728,4,1,0,100,0,0
87823,-70.4225352112676,4,1,0,100,0,0
87994,-70.4225352112676,4,1,0,60,0,0
88166,-100,4,1,0,60,0,0
89537,-111.111111111111,4,1,0,70,0,0
90566,-133.333333333333,4,1,0,70,0,0
101537,-125,4,1,0,75,0,0
111137,-117.647058823529,4,1,0,80,0,0
111309,-117.647058823529,4,1,0,80,0,0
111652,-111.111111111111,4,1,0,85,0,0
111994,-105.263157894737,4,1,0,90,0,0
112337,-100,4,1,0,95,0,0
112509,-100,4,1,0,100,0,0
123480,-95.2380952380952,4,1,0,100,0,0
126223,-90.9090909090909,4,1,0,100,0,0
128966,-90.0900900900901,4,1,0,100,0,0
129137,-89.2857142857143,4,1,0,100,0,0
129309,-88.4955752212389,4,1,0,100,0,0
129480,-87.719298245614,4,1,0,100,0,0
129652,-86.9565217391304,4,1,0,100,0,0
129823,-86.2068965517241,4,1,0,100,0,0
129994,-85.4700854700855,4,1,0,100,0,0
130166,-84.7457627118644,4,1,0,100,0,0
130337,-84.0336134453781,4,1,0,100,0,0
130509,-83.3333333333333,4,1,0,100,0,0
130680,-82.6446280991736,4,1,0,100,0,0
130852,-81.9672131147541,4,1,0,100,0,0
131023,-81.3008130081301,4,1,0,100,0,0
131194,-80.6451612903226,4,1,0,100,0,0
131366,-80,4,1,0,100,0,0
131537,-79.3650793650794,4,1,0,100,0,0
131709,-78.7401574803149,4,1,0,100,0,0
131794,-78.4313725490196,4,1,0,100,0,0
131880,-78.125,4,1,0,100,0,0
131966,-77.8210116731517,4,1,0,100,0,0
132052,-77.5193798449612,4,1,0,100,0,0
132137,-77.2200772200772,4,1,0,100,0,0
132223,-76.9230769230769,4,1,0,100,0,0
132309,-76.6283524904215,4,1,0,100,0,0
132394,-76.3358778625954,4,1,0,100,0,0
132480,-76.0456273764259,4,1,0,100,0,0
132566,-75.7575757575758,4,1,0,100,0,0
132652,-75.4716981132076,4,1,0,100,0,0
132737,-75.187969924812,4,1,0,100,0,0
132823,-74.9063670411985,4,1,0,100,0,0
132909,-74.6268656716418,4,1,0,100,0,0
132994,-74.3494423791822,4,1,0,100,0,0
133080,-74.0740740740741,4,1,0,100,0,0
133423,-100,4,1,0,80,0,0
133594,-105.263157894737,4,1,0,90,0,0
133766,-111.111111111111,4,1,0,100,0,0
133937,-117.647058823529,4,1,0,100,0,0
134451,-90.9090909090909,4,1,0,100,0,0
134452,-90.9090909090909,4,1,0,100,0,1
145423,-88.8888888888889,4,1,0,100,0,1
150909,-86.9565217391304,4,1,0,100,0,1
155023,-86.9565217391304,4,1,0,100,0,0
155366,-100,4,1,0,100,0,0
155537,-105.263157894737,4,1,0,90,0,0
155709,-111.111111111111,4,1,0,80,0,0
155880,-117.647058823529,4,1,0,70,0,0
156394,-90.9090909090909,4,1,0,100,0,1
167366,-88.8888888888889,4,1,0,100,0,1
172852,-86.9565217391304,4,1,0,100,0,1
173023,-86.2068965517241,4,1,0,100,0,1
173109,-85.8369098712446,4,1,0,100,0,1
173194,-85.4700854700855,4,1,0,100,0,1
173366,-84.7457627118644,4,1,0,100,0,1
173452,-84.3881856540084,4,1,0,100,0,1
173537,-84.0336134453781,4,1,0,100,0,1
173623,-83.6820083682008,4,1,0,100,0,1
173709,-83.3333333333333,4,1,0,100,0,1
173880,-82.6446280991736,4,1,0,100,0,1
173966,-82.3045267489712,4,1,0,100,0,1
174052,-81.9672131147541,4,1,0,100,0,1
174137,-81.6326530612245,4,1,0,100,0,1
174223,-81.3008130081301,4,1,0,100,0,1
174394,-80.6451612903226,4,1,0,100,0,1
174480,-80.3212851405623,4,1,0,100,0,1
174566,-80,4,1,0,100,0,1
174737,-79.3650793650794,4,1,0,100,0,1
174823,-79.0513833992095,4,1,0,100,0,1
174909,-78.7401574803149,4,1,0,100,0,1
174994,-78.4313725490196,4,1,0,100,0,1
175080,-78.125,4,1,0,100,0,1
175252,-77.5193798449612,4,1,0,100,0,1
175337,-77.2200772200772,4,1,0,100,0,1
175423,-76.9230769230769,4,1,0,100,0,1
175594,-76.3358778625954,4,1,0,100,0,1
175680,-76.0456273764259,4,1,0,100,0,1
175766,-75.7575757575758,4,1,0,100,0,1
175852,-75.4716981132076,4,1,0,100,0,1
175937,-75.187969924812,4,1,0,100,0,1
176023,-74.9063670411985,4,1,0,100,0,1
176109,-74.6268656716418,4,1,0,100,0,1
176194,-74.3494423791822,4,1,0,100,0,1
176280,-74.0740740740741,4,1,0,100,0,1
176366,-73.8007380073801,4,1,0,100,0,1
176452,-73.5294117647059,4,1,0,100,0,1
176537,-73.2600732600733,4,1,0,100,0,1
176623,-72.992700729927,4,1,0,100,0,1
176709,-72.7272727272727,4,1,0,100,0,1
176794,-72.463768115942,4,1,0,100,0,1
176880,-72.202166064982,4,1,0,100,0,1
176966,-71.9424460431655,4,1,0,100,0,0
177309,-100,4,1,0,100,0,0
177480,-105.263157894737,4,1,0,90,0,0
177652,-111.111111111111,4,1,0,80,0,0
177823,-117.647058823529,4,1,0,70,0,0
178509,-200,4,1,0,20,0,0
187937,-200,4,1,0,20,0,0
188109,-181.818181818182,4,1,0,30,0,0
188280,-166.666666666667,4,1,0,40,0,0
188452,-153.846153846154,4,1,0,50,0,0
188623,-142.857142857143,4,1,0,60,0,0
188794,-133.333333333333,4,1,0,70,0,0
188966,-125,4,1,0,80,0,0
189137,-117.647058823529,4,1,0,90,0,0
189309,-111.111111111111,4,1,0,100,0,0
194880,-105.263157894737,4,1,0,100,0,0
200280,-100,4,1,0,100,0,0
211252,-125,4,1,0,100,0,0
222223,-111.111111111111,4,1,0,100,0,0
224966,-105.263157894737,4,1,0,100,0,0
227709,-100,4,1,0,100,0,0
227880,-99.009900990099,4,1,0,100,0,0
228052,-98.0392156862745,4,1,0,100,0,0
228223,-97.0873786407767,4,1,0,100,0,0
228394,-96.1538461538461,4,1,0,100,0,0
228566,-95.2380952380952,4,1,0,100,0,0
228737,-94.3396226415094,4,1,0,100,0,0
228909,-93.4579439252336,4,1,0,100,0,0
228994,-93.0232558139535,4,1,0,100,0,0
229080,-92.5925925925926,4,1,0,100,0,0
229252,-91.743119266055,4,1,0,100,0,0
229423,-90.9090909090909,4,1,0,100,0,0
229594,-90.0900900900901,4,1,0,100,0,0
229766,-89.2857142857143,4,1,0,100,0,0
229937,-88.4955752212389,4,1,0,100,0,0
230109,-87.719298245614,4,1,0,100,0,0
230280,-86.9565217391304,4,1,0,100,0,0
230366,-86.5800865800866,4,1,0,100,0,0
230452,-86.2068965517241,4,1,0,100,0,0
230537,-85.8369098712446,4,1,0,100,0,0
230623,-85.4700854700855,4,1,0,100,0,0
230709,-85.1063829787234,4,1,0,100,0,0
230794,-84.7457627118644,4,1,0,100,0,0
230880,-84.3881856540084,4,1,0,100,0,0
230966,-84.0336134453781,4,1,0,100,0,0
231052,-83.6820083682008,4,1,0,100,0,0
231137,-83.3333333333333,4,1,0,100,0,0
231223,-82.9875518672199,4,1,0,100,0,0
231309,-82.6446280991736,4,1,0,100,0,0
231394,-82.3045267489712,4,1,0,100,0,0
231480,-81.9672131147541,4,1,0,100,0,0
231566,-81.6326530612245,4,1,0,100,0,0
231652,-81.3008130081301,4,1,0,100,0,0
231737,-80.9716599190283,4,1,0,100,0,0
231823,-80.6451612903226,4,1,0,100,0,0
231909,-80.3212851405623,4,1,0,100,0,0
231994,-80,4,1,0,100,0,0
232080,-79.6812749003984,4,1,0,100,0,0
232166,-79.3650793650794,4,1,0,100,0,0
232252,-79.0513833992095,4,1,0,100,0,0
232337,-78.7401574803149,4,1,0,100,0,0
232423,-78.4313725490196,4,1,0,100,0,0
232509,-78.125,4,1,0,100,0,0
232594,-77.8210116731517,4,1,0,100,0,0
232680,-77.5193798449612,4,1,0,100,0,0
232766,-77.2200772200772,4,1,0,100,0,0
232852,-76.9230769230769,4,1,0,100,0,0
232937,-76.6283524904215,4,1,0,100,0,0
233023,-76.3358778625954,4,1,0,100,0,0
233109,-76.0456273764259,4,1,0,100,0,0
233194,-75.7575757575758,4,1,0,100,0,0
233537,-100,4,1,0,100,0,0
234566,-90.9090909090909,4,1,0,100,0,1
245537,-88.8888888888889,4,1,0,100,0,1
251023,-86.9565217391304,4,1,0,100,0,1
255137,-86.9565217391304,4,1,0,100,0,0
255480,-100,4,1,0,100,0,0
255652,-105.263157894737,4,1,0,90,0,0
255823,-111.111111111111,4,1,0,80,0,0
255994,-117.647058823529,4,1,0,70,0,0
256509,-90.9090909090909,4,1,0,100,0,1
261994,-88.8888888888889,4,1,0,100,0,1
267480,-86.9565217391304,4,1,0,100,0,1
272966,-85.1063829787234,4,1,0,100,0,1
275709,-83.3333333333333,4,1,0,100,0,1
277080,-83.3333333333333,4,1,0,100,0,0
277252,-100,4,1,0,100,0,0
278452,-90.9090909090909,4,1,0,100,0,1
283937,-88.8888888888889,4,1,0,100,0,1
289423,-86.9565217391304,4,1,0,100,0,1
294909,-85.1063829787234,4,1,0,100,0,1
300394,-83.3333333333333,4,1,0,100,0,0
300566,-83.3333333333333,4,1,0,100,0,0
300737,-111.111111111111,4,1,0,100,0,0
301766,-111.111111111111,4,1,0,100,0,0
303137,-90.9090909090909,4,1,0,100,0,1
308623,-88.8888888888889,4,1,0,100,0,1
314109,-86.9565217391304,4,1,0,100,0,1
319594,-85.1063829787234,4,1,0,100,0,1
323709,-83.3333333333333,4,1,0,100,0,0
324052,-100,4,1,0,100,0,0
324223,-105.263157894737,4,1,0,90,0,0
324394,-111.111111111111,4,1,0,80,0,0
324566,-117.647058823529,4,1,0,70,0,0
325080,-100,4,1,0,100,0,0
330566,-99.009900990099,4,1,0,100,0,0
330737,-98.0392156862745,4,1,0,100,0,0
330909,-97.0873786407767,4,1,0,100,0,0
331080,-96.1538461538461,4,1,0,100,0,0
331166,-95.6937799043062,4,1,0,100,0,0
331252,-95.2380952380952,4,1,0,100,0,0
331423,-94.3396226415094,4,1,0,100,0,0
331594,-93.4579439252336,4,1,0,100,0,0
331766,-92.5925925925926,4,1,0,100,0,0
331937,-91.743119266055,4,1,0,100,0,0
332023,-91.324200913242,4,1,0,100,0,0
332109,-90.9090909090909,4,1,0,100,0,0
332280,-90.0900900900901,4,1,0,100,0,0
332452,-89.2857142857143,4,1,0,100,0,0
332623,-88.4955752212389,4,1,0,100,0,0
332794,-87.719298245614,4,1,0,100,0,0
332880,-87.3362445414847,4,1,0,100,0,0
332966,-86.9565217391304,4,1,0,100,0,0
333137,-86.2068965517241,4,1,0,100,0,0
333309,-85.4700854700855,4,1,0,100,0,0
333394,-85.1063829787234,4,1,0,100,0,0
333480,-84.7457627118644,4,1,0,100,0,0
333566,-84.3881856540084,4,1,0,100,0,0
333652,-84.0336134453781,4,1,0,100,0,0
333737,-83.6820083682008,4,1,0,100,0,0
333823,-83.3333333333333,4,1,0,100,0,0
333909,-82.9875518672199,4,1,0,100,0,0
333994,-82.6446280991736,4,1,0,100,0,0
334080,-82.3045267489712,4,1,0,100,0,0
334166,-81.9672131147541,4,1,0,100,0,0
334252,-81.6326530612245,4,1,0,100,0,0
334337,-81.3008130081301,4,1,0,100,0,0
334423,-80.9716599190283,4,1,0,100,0,0
334509,-80.6451612903226,4,1,0,100,0,0
334594,-80.3212851405623,4,1,0,100,0,0
334680,-80,4,1,0,100,0,0
334852,-80,4,1,0,90,0,0
335023,-100,4,1,0,90,0,0
336052,-111.111111111111,4,1,0,100,0,0
343594,-113.636363636364,4,1,0,90,0,0
344109,-116.279069767442,4,1,0,86,0,0
344794,-119.047619047619,4,1,0,82,0,0
345309,-120.481927710843,4,1,0,78,0,0
345823,-121.951219512195,4,1,0,74,0,0
346337,-125,4,1,0,70,0,0
346509,-125,4,1,0,70,0,0
346680,-111.111111111111,4,1,0,80,0,0
346852,-100,4,1,0,90,0,0
347023,-80,4,1,0,100,0,0

[HitObjects]
272,174,52,5,4,0:0:0:0:
320,171,309,1,8,0:0:0:0:
304,201,394,1,0,0:0:0:0:
297,176,566,1,8,0:0:0:0:
276,197,737,1,0,0:0:0:0:
295,202,994,1,8,0:0:0:0:
295,201,1080,1,0,0:0:0:0:
282,215,1251,1,8,0:0:0:0:
283,215,1423,1,0,0:0:0:0:
252,179,1680,1,8,0:0:0:0:
258,177,1766,1,0,0:0:0:0:
259,177,1937,1,8,0:0:0:0:
259,177,2109,1,0,0:0:0:0:
270,208,2194,1,8,0:0:0:0:
331,237,2366,1,8,0:0:0:0:
331,237,2452,1,0,0:0:0:0:
331,237,2623,1,8,0:0:0:0:
301,214,2709,1,8,0:0:0:0:
331,237,2794,1,0,0:0:0:0:
275,180,3052,1,8,0:0:0:0:
275,180,3137,1,0,0:0:0:0:
315,215,3309,1,8,0:0:0:0:
309,212,3480,1,0,0:0:0:0:
294,195,3737,1,8,0:0:0:0:
294,195,3823,1,0,0:0:0:0:
294,195,3994,1,8,0:0:0:0:
294,195,4166,1,0,0:0:0:0:
314,187,4423,1,8,0:0:0:0:
314,187,4509,1,0,0:0:0:0:
316,182,4680,1,8,0:0:0:0:
316,182,4852,1,0,0:0:0:0:
301,211,4937,1,8,0:0:0:0:
301,207,5109,1,8,0:0:0:0:
301,204,5194,1,0,0:0:0:0:
286,178,5366,1,8,0:0:0:0:
291,177,5452,1,8,0:0:0:0:
292,177,5537,1,0,0:0:0:0:
258,152,5794,1,8,0:0:0:0:
259,155,5880,1,0,0:0:0:0:
283,201,6052,1,8,0:0:0:0:
283,200,6223,1,0,0:0:0:0:
180,182,6480,1,8,0:0:0:0:
240,190,6566,1,0,0:0:0:0:
240,186,6737,1,8,0:0:0:0:
240,186,6909,1,0,0:0:0:0:
275,196,7166,1,8,0:0:0:0:
275,196,7252,1,0,0:0:0:0:
271,187,7423,1,8,0:0:0:0:
271,187,7594,1,0,0:0:0:0:
261,163,7680,1,8,0:0:0:0:
306,212,7852,1,8,0:0:0:0:
306,212,7937,1,0,0:0:0:0:
265,172,8109,1,8,0:0:0:0:
265,172,8194,1,8,0:0:0:0:
265,172,8280,1,0,0:0:0:0:
271,187,8537,1,8,0:0:0:0:
271,187,8623,1,0,0:0:0:0:
273,186,8794,1,8,0:0:0:0:
272,187,8966,1,0,0:0:0:0:
273,186,9223,1,8,0:0:0:0:
273,186,9309,1,0,0:0:0:0:
271,187,9480,1,8,0:0:0:0:
271,187,9652,1,0,0:0:0:0:
250,187,9909,1,8,0:0:0:0:
250,187,9994,1,0,0:0:0:0:
250,187,10166,1,8,0:0:0:0:
250,187,10337,1,0,0:0:0:0:
253,182,10423,1,8,0:0:0:0:
253,182,10594,1,8,0:0:0:0:
253,182,10680,1,0,0:0:0:0:
254,187,11023,1,4,0:0:0:0:
261,218,11280,1,8,0:0:0:0:
261,218,11366,1,0,0:0:0:0:
285,211,11537,1,8,0:0:0:0:
285,211,11709,1,0,0:0:0:0:
272,215,11880,1,8,0:0:0:0:
272,215,11966,1,8,0:0:0:0:
272,215,12052,1,0,0:0:0:0:
261,207,12223,1,8,0:0:0:0:
261,207,12394,1,0,0:0:0:0:
254,205,12652,1,8,0:0:0:0:
254,204,12737,1,0,0:0:0:0:
254,204,12909,1,8,0:0:0:0:
254,204,13080,1,0,0:0:0:0:
246,198,13166,1,8,0:0:0:0:
254,204,13337,1,8,0:0:0:0:
254,204,13423,1,0,0:0:0:0:
262,194,13594,1,8,0:0:0:0:
262,194,13680,1,8,0:0:0:0:
262,194,13766,1,0,0:0:0:0:
273,185,14023,1,8,0:0:0:0:
273,185,14109,1,0,0:0:0:0:
268,183,14280,1,8,0:0:0:0:
268,183,14452,1,0,0:0:0:0:
268,183,14623,1,8,0:0:0:0:
268,183,14709,1,8,0:0:0:0:
271,166,14794,1,0,0:0:0:0:
257,188,14966,1,8,0:0:0:0:
257,186,15137,1,0,0:0:0:0:
276,193,15394,1,8,0:0:0:0:
274,194,15480,1,0,0:0:0:0:
250,172,15652,1,8,0:0:0:0:
250,172,15823,1,0,0:0:0:0:
279,211,15909,1,8,0:0:0:0:
279,211,16080,1,8,0:0:0:0:
279,211,16166,1,0,0:0:0:0:
277,217,16337,1,8,0:0:0:0:
277,217,16423,1,8,0:0:0:0:
277,217,16509,1,0,0:0:0:0:
264,232,16680,1,0,0:0:0:0:
262,184,16766,1,8,0:0:0:0:
263,184,16852,1,0,0:0:0:0:
292,227,17023,1,8,0:0:0:0:
292,227,17194,1,0,0:0:0:0:
300,211,17366,1,0,0:0:0:0:
268,192,17452,1,8,0:0:0:0:
285,197,17537,1,0,0:0:0:0:
288,209,17709,1,8,0:0:0:0:
288,209,17880,1,0,0:0:0:0:
293,213,18052,1,0,0:0:0:0:
293,213,18137,1,8,0:0:0:0:
287,209,18223,1,0,0:0:0:0:
285,192,18394,1,8,0:0:0:0:
285,192,18566,1,0,0:0:0:0:
305,188,18652,1,8,0:0:0:0:
284,192,18737,1,0,0:0:0:0:
321,192,18823,1,8,0:0:0:0:
321,192,18909,1,0,0:0:0:0:
291,209,19080,1,8,0:0:0:0:
308,193,19166,1,8,0:0:0:0:
295,153,19252,1,0,0:0:0:0:
300,168,19337,1,8,0:0:0:0:
300,169,19423,1,8,0:0:0:0:
300,169,19509,1,8,0:0:0:0:
300,169,19594,1,0,0:0:0:0:
291,207,19680,1,8,0:0:0:0:
291,206,19766,1,8,0:0:0:0:
213,200,19852,1,8,0:0:0:0:
300,169,19937,1,0,0:0:0:0:
293,188,20023,1,8,0:0:0:0:
293,188,20109,1,8,0:0:0:0:
293,188,20194,1,8,0:0:0:0:
300,169,20280,1,0,0:0:0:0:
298,188,20366,1,8,0:0:0:0:
205,197,20452,1,8,0:0:0:0:
249,203,20537,1,8,0:0:0:0:
300,169,20623,1,4,0:0:0:0:
256,192,20794,12,0,21823,0:0:0:0:
258,196,21994,5,8,0:0:0:0:
263,179,23366,1,8,0:0:0:0:
289,202,24737,1,0,0:0:0:0:
202,161,27480,1,8,0:0:0:0:
279,198,28852,1,8,0:0:0:0:
278,189,30223,1,0,0:0:0:0:
273,168,31594,1,0,0:0:0:0:
269,181,32966,1,8,0:0:0:0:
249,159,35709,1,0,0:0:0:0:
280,206,38452,1,8,0:0:0:0:
273,180,39823,1,0,0:0:0:0:
252,177,41194,1,8,0:0:0:0:
256,192,42909,12,0,43766,0:0:0:0:
249,187,43937,5,4,0:0:0:0:
263,195,44623,1,8,0:0:0:0:
270,216,44966,1,0,0:0:0:0:
275,173,45137,1,0,0:0:0:0:
276,198,45480,1,0,0:0:0:0:
274,223,45994,1,8,0:0:0:0:
278,194,46509,1,0,0:0:0:0:
396,173,46680,1,0,0:0:0:0:
260,206,47194,1,0,0:0:0:0:
250,182,47366,1,8,0:0:0:0:
277,203,47709,1,0,0:0:0:0:
298,214,47880,1,0,0:0:0:0:
221,174,48223,1,0,0:0:0:0:
255,176,48737,1,8,0:0:0:0:
288,192,49423,1,0,0:0:0:0:
256,192,50109,1,8,0:0:0:0:
352,192,50452,1,0,0:0:0:0:
256,224,50623,1,0,0:0:0:0:
288,224,50966,1,0,0:0:0:0:
288,192,51480,1,8,0:0:0:0:
288,192,51994,1,0,0:0:0:0:
288,192,52166,1,0,0:0:0:0:
256,192,52680,1,0,0:0:0:0:
256,192,52852,1,8,0:0:0:0:
320,192,53194,1,0,0:0:0:0:
320,192,53366,1,0,0:0:0:0:
384,192,53709,1,0,0:0:0:0:
320,224,54223,1,8,0:0:0:0:
146,178,54566,1,0,0:0:0:0:
266,202,54737,1,0,0:0:0:0:
256,192,54909,1,0,0:0:0:0:
256,192,55594,1,8,0:0:0:0:
256,192,55937,1,0,0:0:0:0:
256,192,56109,1,0,0:0:0:0:
256,224,56452,1,0,0:0:0:0:
256,160,56966,1,8,0:0:0:0:
256,160,57480,1,0,0:0:0:0:
256,160,57652,1,0,0:0:0:0:
288,192,58166,1,0,0:0:0:0:
288,192,58337,1,8,0:0:0:0:
256,192,58680,1,0,0:0:0:0:
256,192,58852,1,0,0:0:0:0:
288,192,59194,1,0,0:0:0:0:
288,192,59709,1,8,0:0:0:0:
256,192,60394,1,0,0:0:0:0:
288,192,61080,1,8,0:0:0:0:
256,192,61423,1,0,0:0:0:0:
256,192,61594,1,0,0:0:0:0:
256,192,61937,1,0,0:0:0:0:
288,192,62452,1,8,0:0:0:0:
256,192,62966,1,0,0:0:0:0:
256,192,63137,1,0,0:0:0:0:
288,160,63652,1,0,0:0:0:0:
256,160,63823,1,8,0:0:0:0:
256,160,64166,1,0,0:0:0:0:
256,160,64337,1,0,0:0:0:0:
256,160,64509,1,12,0:0:0:0:
256,192,65880,1,4,0:0:0:0:
224,192,66137,1,0,0:0:0:0:
224,192,66223,1,8,0:0:0:0:
288,192,66394,1,0,0:0:0:0:
256,192,66566,1,8,0:0:0:0:
256,192,66737,1,0,0:0:0:0:
256,192,66823,1,0,0:0:0:0:
256,224,66909,1,8,0:0:0:0:
192,160,66994,1,0,0:0:0:0:
256,192,67080,1,0,0:0:0:0:
256,192,67252,1,8,0:0:0:0:
256,192,67509,1,0,0:0:0:0:
256,192,67594,1,8,0:0:0:0:
256,192,67766,1,0,0:0:0:0:
192,192,67937,1,8,0:0:0:0:
224,192,68023,1,0,0:0:0:0:
224,192,68109,1,0,0:0:0:0:
224,192,68280,1,8,0:0:0:0:
256,224,68452,1,0,0:0:0:0:
288,224,68537,1,0,0:0:0:0:
256,224,68623,1,8,0:0:0:0:
288,224,68880,1,0,0:0:0:0:
256,192,68966,1,8,0:0:0:0:
288,192,69137,1,0,0:0:0:0:
288,192,69223,1,0,0:0:0:0:
288,192,69309,1,8,0:0:0:0:
320,224,69480,1,0,0:0:0:0:
288,192,69652,1,8,0:0:0:0:
256,192,69737,1,0,0:0:0:0:
256,192,69823,1,0,0:0:0:0:
256,192,69994,1,8,0:0:0:0:
224,192,70166,1,0,0:0:0:0:
256,224,70252,1,0,0:0:0:0:
256,192,70337,1,8,0:0:0:0:
224,192,70509,1,0,0:0:0:0:
288,192,70680,1,8,0:0:0:0:
320,224,70766,1,0,0:0:0:0:
320,224,70852,1,8,0:0:0:0:
320,224,70937,1,8,0:0:0:0:
320,224,71023,1,0,0:0:0:0:
288,192,71109,1,8,0:0:0:0:
288,192,71194,1,0,0:0:0:0:
288,192,71280,1,0,0:0:0:0:
288,192,71366,1,8,0:0:0:0:
256,192,71623,1,0,0:0:0:0:
256,192,71709,1,8,0:0:0:0:
288,256,71880,1,0,0:0:0:0:
288,256,71966,1,0,0:0:0:0:
288,256,72052,1,8,0:0:0:0:
288,256,72223,1,0,0:0:0:0:
256,192,72394,1,8,0:0:0:0:
192,192,72480,1,0,0:0:0:0:
288,224,72566,1,0,0:0:0:0:
288,224,72652,1,0,0:0:0:0:
288,224,72737,1,8,0:0:0:0:
288,192,72994,1,0,0:0:0:0:
288,192,73080,1,8,0:0:0:0:
192,192,73252,1,0,0:0:0:0:
256,224,73423,1,8,0:0:0:0:
256,192,73594,1,0,0:0:0:0:
256,192,73680,1,0,0:0:0:0:
256,192,73766,1,8,0:0:0:0:
256,192,73852,1,0,0:0:0:0:
256,192,73937,1,0,0:0:0:0:
256,192,74109,1,8,0:0:0:0:
288,192,74366,1,0,0:0:0:0:
288,192,74452,1,8,0:0:0:0:
192,160,74623,1,0,0:0:0:0:
256,160,74794,1,8,0:0:0:0:
269,193,74880,1,0,0:0:0:0:
271,192,74966,1,8,0:0:0:0:
271,192,75052,1,8,0:0:0:0:
271,192,75137,1,0,0:0:0:0:
256,192,75309,1,0,0:0:0:0:
256,192,75394,1,0,0:0:0:0:
256,192,75480,1,8,0:0:0:0:
256,192,75737,1,0,0:0:0:0:
256,192,75823,1,8,0:0:0:0:
288,224,75994,1,8,0:0:0:0:
256,192,76166,1,0,0:0:0:0:
256,192,76337,1,8,0:0:0:0:
256,192,76423,1,8,0:0:0:0:
256,192,76509,1,0,0:0:0:0:
256,192,76680,1,0,0:0:0:0:
256,192,76852,1,12,0:0:0:0:
256,224,77023,1,0,0:0:0:0:
256,224,77109,1,0,0:0:0:0:
256,224,77194,1,8,0:0:0:0:
256,224,77366,1,0,0:0:0:0:
256,224,77537,1,8,0:0:0:0:
256,192,77709,1,0,0:0:0:0:
256,192,77880,1,8,0:0:0:0:
224,192,77966,1,8,0:0:0:0:
256,192,78052,1,0,0:0:0:0:
256,192,78137,1,0,0:0:0:0:
256,192,78223,1,8,0:0:0:0:
288,192,78394,1,0,0:0:0:0:
288,192,78566,1,8,0:0:0:0:
288,192,78737,1,0,0:0:0:0:
288,224,78823,1,0,0:0:0:0:
288,224,78909,1,8,0:0:0:0:
288,192,79080,1,0,0:0:0:0:
288,192,79252,1,8,0:0:0:0:
288,192,79337,1,0,0:0:0:0:
288,192,79423,1,0,0:0:0:0:
288,192,79509,1,0,0:0:0:0:
288,192,79594,1,8,0:0:0:0:
288,192,79766,1,0,0:0:0:0:
288,192,79937,1,8,0:0:0:0:
256,192,80109,1,0,0:0:0:0:
293,82,80280,1,8,0:0:0:0:
191,213,80366,1,0,0:0:0:0:
288,192,80452,1,8,0:0:0:0:
255,228,80537,1,0,0:0:0:0:
288,192,80623,1,8,0:0:0:0:
192,192,80794,1,0,0:0:0:0:
192,192,80966,1,8,0:0:0:0:
288,160,81137,1,0,0:0:0:0:
291,231,81223,1,0,0:0:0:0:
256,192,81309,1,8,0:0:0:0:
256,192,81480,1,0,0:0:0:0:
256,192,81652,1,8,0:0:0:0:
192,192,81737,1,0,0:0:0:0:
224,192,81823,1,8,0:0:0:0:
256,192,81909,1,8,0:0:0:0:
256,192,81994,1,0,0:0:0:0:
256,192,82166,1,0,0:0:0:0:
256,192,82337,1,12,0:0:0:0:
160,192,82509,1,0,0:0:0:0:
224,192,82594,1,0,0:0:0:0:
224,224,82680,1,8,0:0:0:0:
224,224,82852,1,0,0:0:0:0:
224,224,83023,1,8,0:0:0:0:
192,224,83194,1,0,0:0:0:0:
224,224,83280,1,0,0:0:0:0:
224,224,83366,1,8,0:0:0:0:
224,224,83537,1,0,0:0:0:0:
224,224,83709,1,8,0:0:0:0:
256,192,83794,1,8,0:0:0:0:
224,192,83880,1,0,0:0:0:0:
224,192,83966,1,0,0:0:0:0:
224,192,84052,1,8,0:0:0:0:
224,192,84223,1,0,0:0:0:0:
256,192,84309,1,0,0:0:0:0:
224,192,84394,1,8,0:0:0:0:
256,192,84566,1,0,0:0:0:0:
256,192,84737,1,8,0:0:0:0:
256,192,84823,1,8,0:0:0:0:
256,192,84909,1,0,0:0:0:0:
256,192,85080,1,8,0:0:0:0:
256,192,85166,1,0,0:0:0:0:
256,192,85252,1,0,0:0:0:0:
256,192,85337,1,0,0:0:0:0:
256,192,85423,1,8,0:0:0:0:
256,192,85509,1,0,0:0:0:0:
256,192,85594,1,0,0:0:0:0:
256,192,85680,1,0,0:0:0:0:
320,160,85766,1,8,0:0:0:0:
256,192,85852,1,8,0:0:0:0:
256,192,85937,1,0,0:0:0:0:
256,192,86023,1,0,0:0:0:0:
256,192,86109,1,8,0:0:0:0:
192,192,86194,1,8,0:0:0:0:
224,224,86280,1,0,0:0:0:0:
224,224,86366,1,0,0:0:0:0:
224,224,86452,1,8,0:0:0:0:
288,192,86509,1,8,0:0:0:0:
288,192,86566,1,8,0:0:0:0:
288,192,86623,1,0,0:0:0:0:
256,192,86709,1,0,0:0:0:0:
288,192,86794,1,8,0:0:0:0:
288,192,86852,1,8,0:0:0:0:
288,192,86909,1,8,0:0:0:0:
288,192,86966,1,0,0:0:0:0:
256,192,87052,1,0,0:0:0:0:
288,192,87137,1,8,0:0:0:0:
288,192,87194,1,8,0:0:0:0:
288,192,87252,1,8,0:0:0:0:
288,192,87309,1,0,0:0:0:0:
224,160,87394,1,0,0:0:0:0:
288,192,87480,1,8,0:0:0:0:
288,192,87537,1,8,0:0:0:0:
288,192,87594,1,8,0:0:0:0:
288,192,87652,1,0,0:0:0:0:
288,192,87709,1,0,0:0:0:0:
288,192,87766,1,0,0:0:0:0:
288,192,87823,1,8,0:0:0:0:
256,192,87994,12,0,89537,0:0:0:0:
256,192,89880,5,8,0:0:0:0:
288,192,90566,1,8,0:0:0:0:
320,192,91252,1,0,0:0:0:0:
256,192,91937,1,8,0:0:0:0:
288,192,93309,1,0,0:0:0:0:
288,224,93994,1,8,0:0:0:0:
192,192,94680,1,0,0:0:0:0:
288,192,95366,1,0,0:0:0:0:
288,192,96052,1,8,0:0:0:0:
256,192,97423,1,8,0:0:0:0:
288,192,98109,1,0,0:0:0:0:
288,192,98794,1,8,0:0:0:0:
288,192,99480,1,8,0:0:0:0:
288,192,100166,1,0,0:0:0:0:
320,224,100852,1,8,0:0:0:0:
320,192,101537,1,0,0:0:0:0:
256,192,101880,1,8,0:0:0:0:
256,160,102052,1,0,0:0:0:0:
288,192,102223,1,8,0:0:0:0:
256,192,102566,1,8,0:0:0:0:
256,192,102909,1,0,0:0:0:0:
256,192,103252,1,8,0:0:0:0:
256,192,103594,1,0,0:0:0:0:
256,192,103937,1,8,0:0:0:0:
256,192,104280,1,0,0:0:0:0:
256,224,104623,1,8,0:0:0:0:
160,192,104794,1,8,0:0:0:0:
256,192,104966,1,0,0:0:0:0:
256,192,105309,1,8,0:0:0:0:
256,192,105652,1,0,0:0:0:0:
256,192,105994,1,0,0:0:0:0:
256,192,106337,1,8,0:0:0:0:
256,192,106680,1,8,0:0:0:0:
235,211,106852,1,0,0:0:0:0:
288,224,107023,1,8,0:0:0:0:
256,192,107366,1,0,0:0:0:0:
256,178,107537,1,0,0:0:0:0:
256,192,107709,1,8,0:0:0:0:
269,171,107880,1,0,0:0:0:0:
256,192,108052,1,8,0:0:0:0:
256,192,108394,1,0,0:0:0:0:
224,192,108737,1,8,0:0:0:0:
268,192,108909,1,8,0:0:0:0:
224,192,109080,1,0,0:0:0:0:
256,192,109423,1,8,0:0:0:0:
253,145,109594,1,0,0:0:0:0:
256,192,109766,1,8,0:0:0:0:
288,192,110109,1,0,0:0:0:0:
288,192,110452,1,8,0:0:0:0:
320,224,110794,1,8,0:0:0:0:
320,192,111137,1,4,0:0:0:0:
256,192,111309,12,0,112337,0:0:0:0:
256,192,112509,5,12,0:0:0:0:
288,224,112680,1,0,0:0:0:0:
319,188,113023,1,8,0:0:0:0:
256,256,113194,1,0,0:0:0:0:
192,192,113537,1,8,0:0:0:0:
224,192,113709,1,0,0:0:0:0:
224,192,114052,1,8,0:0:0:0:
224,192,114223,1,0,0:0:0:0:
224,192,114566,1,8,0:0:0:0:
224,192,114737,1,0,0:0:0:0:
224,192,115080,1,8,0:0:0:0:
224,192,115252,1,0,0:0:0:0:
224,160,115594,1,8,0:0:0:0:
224,160,115766,1,0,0:0:0:0:
256,224,116109,1,8,0:0:0:0:
256,224,116280,1,0,0:0:0:0:
256,224,116623,1,8,0:0:0:0:
256,192,116966,1,8,0:0:0:0:
288,256,117137,1,8,0:0:0:0:
288,224,117309,1,0,0:0:0:0:
288,224,117480,1,8,0:0:0:0:
288,224,117652,1,0,0:0:0:0:
288,224,117823,1,0,0:0:0:0:
288,224,117994,1,8,0:0:0:0:
288,224,118166,1,0,0:0:0:0:
288,224,118509,1,8,0:0:0:0:
288,224,118680,1,0,0:0:0:0:
256,224,119023,1,8,0:0:0:0:
256,224,119194,1,0,0:0:0:0:
288,224,119537,1,8,0:0:0:0:
288,224,119709,1,0,0:0:0:0:
288,192,120052,1,8,0:0:0:0:
288,192,120223,1,0,0:0:0:0:
256,192,120566,1,8,0:0:0:0:
256,192,120737,1,0,0:0:0:0:
320,224,121080,1,8,0:0:0:0:
224,192,121252,1,0,0:0:0:0:
288,224,121594,1,8,0:0:0:0:
288,224,121766,1,0,0:0:0:0:
288,224,122109,1,8,0:0:0:0:
288,192,122452,1,8,0:0:0:0:
288,192,122623,1,8,0:0:0:0:
288,192,122794,1,0,0:0:0:0:
288,192,122966,1,8,0:0:0:0:
288,192,123137,1,0,0:0:0:0:
288,192,123480,1,4,0:0:0:0:
288,192,123737,1,8,0:0:0:0:
288,192,123823,1,0,0:0:0:0:
288,192,123994,1,8,0:0:0:0:
288,192,124166,1,0,0:0:0:0:
234,209,124252,1,8,0:0:0:0:
286,202,124337,1,8,0:0:0:0:
288,192,124509,1,0,0:0:0:0:
265,187,124852,1,0,0:0:0:0:
240,176,125109,1,8,0:0:0:0:
240,176,125194,1,0,0:0:0:0:
288,208,125366,1,8,0:0:0:0:
272,192,125537,1,0,0:0:0:0:
224,176,125623,1,8,0:0:0:0:
224,176,125709,1,8,0:0:0:0:
224,176,125880,1,0,0:0:0:0:
256,224,126052,1,8,0:0:0:0:
256,224,126223,1,4,0:0:0:0:
192,192,126480,1,8,0:0:0:0:
272,208,126566,1,0,0:0:0:0:
256,224,126737,1,8,0:0:0:0:
272,224,126909,1,0,0:0:0:0:
272,208,126994,1,8,0:0:0:0:
272,208,127080,1,8,0:0:0:0:
272,208,127252,1,0,0:0:0:0:
288,224,127594,1,8,0:0:0:0:
320,208,127852,1,0,0:0:0:0:
320,208,127937,1,8,0:0:0:0:
240,224,128109,1,8,0:0:0:0:
272,208,128280,1,0,0:0:0:0:
171,187,128366,1,8,0:0:0:0:
336,240,128452,1,8,0:0:0:0:
304,240,128623,1,0,0:0:0:0:
176,192,128794,1,0,0:0:0:0:
256,176,128966,1,12,0:0:0:0:
240,208,129137,1,0,0:0:0:0:
240,208,129309,1,0,0:0:0:0:
240,208,129480,1,8,0:0:0:0:
240,208,129652,1,0,0:0:0:0:
256,192,129823,1,0,0:0:0:0:
256,192,129994,1,8,0:0:0:0:
256,192,130166,1,0,0:0:0:0:
256,192,130337,1,4,0:0:0:0:
208,192,130509,1,8,0:0:0:0:
224,192,130680,1,0,0:0:0:0:
224,192,130852,1,0,0:0:0:0:
224,192,131023,1,8,0:0:0:0:
224,192,131194,1,0,0:0:0:0:
224,192,131366,1,0,0:0:0:0:
224,192,131537,1,8,0:0:0:0:
224,160,131709,1,8,0:0:0:0:
272,192,131794,1,8,0:0:0:0:
272,192,131880,1,0,0:0:0:0:
272,192,131966,1,0,0:0:0:0:
272,192,132052,1,8,0:0:0:0:
224,192,132137,1,0,0:0:0:0:
224,208,132223,1,0,0:0:0:0:
224,208,132309,1,0,0:0:0:0:
224,208,132394,1,8,0:0:0:0:
224,208,132480,1,0,0:0:0:0:
224,208,132566,1,0,0:0:0:0:
224,208,132652,1,0,0:0:0:0:
224,208,132737,1,8,0:0:0:0:
256,192,132823,1,0,0:0:0:0:
256,192,132909,1,0,0:0:0:0:
256,192,132994,1,0,0:0:0:0:
208,192,133423,1,8,0:0:0:0:
272,224,133594,1,0,0:0:0:0:
288,224,133766,1,8,0:0:0:0:
288,224,133937,1,8,0:0:0:0:
304,208,134452,1,4,0:0:0:0:
272,224,134623,1,8,0:0:0:0:
272,224,134709,1,8,0:0:0:0:
272,224,134794,1,0,0:0:0:0:
288,224,134966,1,8,0:0:0:0:
272,224,135137,1,8,0:0:0:0:
272,224,135223,1,0,0:0:0:0:
272,240,135309,1,0,0:0:0:0:
208,176,135480,1,8,0:0:0:0:
272,224,135652,1,8,0:0:0:0:
272,224,135737,1,8,0:0:0:0:
272,224,135823,1,0,0:0:0:0:
272,224,135994,1,8,0:0:0:0:
272,224,136166,1,8,0:0:0:0:
276,182,136252,1,0,0:0:0:0:
288,256,136337,1,0,0:0:0:0:
256,208,136509,1,8,0:0:0:0:
304,208,136680,1,8,0:0:0:0:
304,208,136766,1,8,0:0:0:0:
304,208,136852,1,0,0:0:0:0:
256,208,137023,1,8,0:0:0:0:
256,208,137194,1,8,0:0:0:0:
208,208,137280,1,0,0:0:0:0:
272,224,137366,1,0,0:0:0:0:
256,192,137537,1,8,0:0:0:0:
272,208,137709,1,8,0:0:0:0:
272,208,137794,1,8,0:0:0:0:
272,208,137880,1,0,0:0:0:0:
224,192,138052,1,8,0:0:0:0:
224,192,138223,1,8,0:0:0:0:
224,192,138309,1,0,0:0:0:0:
224,192,138394,1,0,0:0:0:0:
224,192,138566,1,8,0:0:0:0:
240,208,138737,1,0,0:0:0:0:
240,208,138823,1,0,0:0:0:0:
240,208,138909,1,8,0:0:0:0:
256,192,139080,1,8,0:0:0:0:
240,208,139252,1,0,0:0:0:0:
256,192,139337,1,0,0:0:0:0:
240,208,139423,1,8,0:0:0:0:
240,208,139509,1,0,0:0:0:0:
240,208,139594,1,8,0:0:0:0:
240,208,139680,1,8,0:0:0:0:
240,208,139766,1,0,0:0:0:0:
304,224,139852,1,0,0:0:0:0:
240,208,139937,1,8,0:0:0:0:
144,224,140109,1,8,0:0:0:0:
208,224,140194,1,0,0:0:0:0:
208,224,140280,1,0,0:0:0:0:
208,224,140452,1,8,0:0:0:0:
208,224,140623,1,8,0:0:0:0:
208,224,140709,1,8,0:0:0:0:
208,224,140794,1,0,0:0:0:0:
240,192,140966,1,8,0:0:0:0:
240,192,141137,1,8,0:0:0:0:
240,192,141223,1,0,0:0:0:0:
240,192,141309,1,0,0:0:0:0:
240,192,141480,1,8,0:0:0:0:
240,192,141652,1,8,0:0:0:0:
240,192,141737,1,8,0:0:0:0:
240,192,141823,1,0,0:0:0:0:
336,256,141909,1,0,0:0:0:0:
336,256,141994,1,8,0:0:0:0:
272,192,142166,1,8,0:0:0:0:
272,192,142252,1,0,0:0:0:0:
272,192,142337,1,0,0:0:0:0:
320,208,142509,1,8,0:0:0:0:
320,208,142680,1,8,0:0:0:0:
256,208,142766,1,8,0:0:0:0:
384,208,142852,1,0,0:0:0:0:
272,192,143023,1,8,0:0:0:0:
288,176,143194,1,8,0:0:0:0:
288,176,143280,1,0,0:0:0:0:
288,176,143366,1,0,0:0:0:0:
272,160,143537,1,8,0:0:0:0:
272,160,143709,1,8,0:0:0:0:
272,160,143794,1,8,0:0:0:0:
272,160,143880,1,0,0:0:0:0:
261,168,143966,1,0,0:0:0:0:
272,160,144052,1,8,0:0:0:0:
256,176,144223,1,0,0:0:0:0:
256,176,144309,1,0,0:0:0:0:
256,176,144394,1,8,0:0:0:0:
320,224,144566,1,8,0:0:0:0:
288,208,144737,1,0,0:0:0:0:
216,177,144823,1,0,0:0:0:0:
288,192,144909,1,8,0:0:0:0:
288,192,144994,1,8,0:0:0:0:
288,192,145080,1,0,0:0:0:0:
288,208,145166,1,8,0:0:0:0:
288,208,145252,1,8,0:0:0:0:
288,208,145337,1,8,0:0:0:0:
288,208,145423,1,4,0:0:0:0:
176,208,145594,1,8,0:0:0:0:
272,224,145680,1,8,0:0:0:0:
272,240,145766,1,0,0:0:0:0:
240,208,145937,1,8,0:0:0:0:
240,208,146109,1,8,0:0:0:0:
224,192,146194,1,0,0:0:0:0:
224,208,146280,1,0,0:0:0:0:
224,208,146366,1,0,0:0:0:0:
224,208,146452,1,8,0:0:0:0:
352,256,146623,1,8,0:0:0:0:
352,256,146709,1,8,0:0:0:0:
352,256,146794,1,0,0:0:0:0:
352,256,146966,1,8,0:0:0:0:
224,192,147137,1,8,0:0:0:0:
272,208,147223,1,0,0:0:0:0:
272,208,147309,1,0,0:0:0:0:
272,208,147394,1,0,0:0:0:0:
272,208,147480,1,8,0:0:0:0:
304,208,147652,1,8,0:0:0:0:
304,208,147737,1,8,0:0:0:0:
304,208,147823,1,0,0:0:0:0:
304,208,147994,1,8,0:0:0:0:
304,208,148166,1,8,0:0:0:0:
288,224,148252,1,0,0:0:0:0:
288,224,148337,1,0,0:0:0:0:
288,224,148423,1,0,0:0:0:0:
288,224,148509,1,8,0:0:0:0:
320,224,148680,1,8,0:0:0:0:
320,224,148766,1,8,0:0:0:0:
320,224,148852,1,0,0:0:0:0:
320,240,149023,1,8,0:0:0:0:
320,224,149194,1,8,0:0:0:0:
320,224,149280,1,0,0:0:0:0:
320,224,149366,1,0,0:0:0:0:
320,240,149452,1,0,0:0:0:0:
320,224,149537,1,8,0:0:0:0:
288,192,149709,1,0,0:0:0:0:
288,208,149794,1,0,0:0:0:0:
288,208,149880,1,8,0:0:0:0:
288,256,150052,1,8,0:0:0:0:
288,256,150223,1,0,0:0:0:0:
256,208,150309,1,0,0:0:0:0:
288,256,150394,1,8,0:0:0:0:
256,208,150480,1,0,0:0:0:0:
288,256,150566,1,8,0:0:0:0:
288,224,150652,1,8,0:0:0:0:
288,256,150737,1,8,0:0:0:0:
288,224,150823,1,8,0:0:0:0:
288,256,150909,1,4,0:0:0:0:
240,192,151080,1,8,0:0:0:0:
240,192,151166,1,8,0:0:0:0:
246,195,151252,1,0,0:0:0:0:
299,200,151423,1,8,0:0:0:0:
299,200,151509,1,0,0:0:0:0:
299,200,151594,1,8,0:0:0:0:
299,200,151680,1,0,0:0:0:0:
299,200,151766,1,0,0:0:0:0:
299,200,151852,1,0,0:0:0:0:
299,200,151937,1,8,0:0:0:0:
289,202,152109,1,8,0:0:0:0:
289,202,152194,1,8,0:0:0:0:
290,202,152280,1,0,0:0:0:0:
290,202,152452,1,8,0:0:0:0:
290,202,152537,1,0,0:0:0:0:
290,202,152623,1,8,0:0:0:0:
290,202,152709,1,0,0:0:0:0:
290,202,152794,1,0,0:0:0:0:
290,202,152880,1,0,0:0:0:0:
290,202,152966,1,8,0:0:0:0:
310,217,153137,1,8,0:0:0:0:
310,217,153223,1,8,0:0:0:0:
310,217,153309,1,0,0:0:0:0:
274,197,153480,1,8,0:0:0:0:
274,197,153566,1,0,0:0:0:0:
274,197,153652,1,8,0:0:0:0:
274,197,153737,1,0,0:0:0:0:
274,197,153823,1,0,0:0:0:0:
274,197,153909,1,0,0:0:0:0:
274,197,153994,1,8,0:0:0:0:
318,210,154166,1,8,0:0:0:0:
318,210,154252,1,8,0:0:0:0:
318,210,154337,1,0,0:0:0:0:
301,207,154509,1,8,0:0:0:0:
301,207,154594,1,0,0:0:0:0:
301,207,154680,1,8,0:0:0:0:
301,207,154766,1,0,0:0:0:0:
301,207,154852,1,0,0:0:0:0:
301,207,154937,1,0,0:0:0:0:
301,207,155023,1,8,0:0:0:0:
286,199,155366,1,8,0:0:0:0:
286,199,155537,1,0,0:0:0:0:
286,199,155709,1,8,0:0:0:0:
286,199,155880,1,8,0:0:0:0:
276,206,156394,1,4,0:0:0:0:
286,206,156566,1,0,0:0:0:0:
286,206,156652,1,0,0:0:0:0:
285,206,156737,1,8,0:0:0:0:
285,206,156909,1,0,0:0:0:0:
285,206,157080,1,8,0:0:0:0:
273,203,157252,1,8,0:0:0:0:
278,203,157337,1,8,0:0:0:0:
278,203,157423,1,0,0:0:0:0:
278,203,157594,1,8,0:0:0:0:
278,203,157766,1,0,0:0:0:0:
283,222,157852,1,0,0:0:0:0:
283,222,157937,1,8,0:0:0:0:
286,222,158023,1,8,0:0:0:0:
286,222,158109,1,0,0:0:0:0:
283,222,158280,1,0,0:0:0:0:
283,222,158366,1,0,0:0:0:0:
283,222,158452,1,8,0:0:0:0:
276,206,158623,1,0,0:0:0:0:
276,206,158794,1,8,0:0:0:0:
212,183,158880,1,8,0:0:0:0:
212,183,158966,1,0,0:0:0:0:
212,183,159052,1,0,0:0:0:0:
212,183,159137,1,8,0:0:0:0:
305,224,159309,1,0,0:0:0:0:
305,224,159394,1,0,0:0:0:0:
305,224,159480,1,8,0:0:0:0:
211,218,159652,1,0,0:0:0:0:
276,219,159823,1,0,0:0:0:0:
230,212,159909,1,0,0:0:0:0:
276,219,159994,1,8,0:0:0:0:
276,219,160080,1,8,0:0:0:0:
271,196,160166,1,0,0:0:0:0:
248,214,160337,1,0,0:0:0:0:
248,214,160423,1,0,0:0:0:0:
248,214,160509,1,8,0:0:0:0:
244,212,160680,1,0,0:0:0:0:
273,225,160852,1,8,0:0:0:0:
217,203,160937,1,0,0:0:0:0:
257,250,161023,1,0,0:0:0:0:
261,244,161109,1,0,0:0:0:0:
278,202,161194,1,8,0:0:0:0:
296,193,161366,1,0,0:0:0:0:
296,193,161537,1,8,0:0:0:0:
281,176,161623,1,0,0:0:0:0:
281,176,161709,1,8,0:0:0:0:
281,176,161794,1,8,0:0:0:0:
281,176,161880,1,0,0:0:0:0:
265,200,162052,1,0,0:0:0:0:
265,200,162137,1,0,0:0:0:0:
265,200,162223,1,8,0:0:0:0:
265,200,162394,1,0,0:0:0:0:
265,200,162480,1,0,0:0:0:0:
265,200,162566,1,8,0:0:0:0:
250,194,162652,1,8,0:0:0:0:
250,195,162737,1,0,0:0:0:0:
250,195,162823,1,0,0:0:0:0:
250,195,162909,1,8,0:0:0:0:
284,182,163080,1,8,0:0:0:0:
284,182,163166,1,8,0:0:0:0:
284,182,163252,1,0,0:0:0:0:
292,183,163423,1,0,0:0:0:0:
292,184,163509,1,0,0:0:0:0:
292,184,163594,1,8,0:0:0:0:
282,187,163766,1,0,0:0:0:0:
282,187,163937,1,8,0:0:0:0:
269,153,164109,1,8,0:0:0:0:
269,153,164194,1,0,0:0:0:0:
269,153,164280,1,8,0:0:0:0:
250,147,164366,1,8,0:0:0:0:
249,154,164452,1,0,0:0:0:0:
249,154,164537,1,0,0:0:0:0:
249,154,164623,1,8,0:0:0:0:
251,219,164794,1,0,0:0:0:0:
282,187,164880,1,0,0:0:0:0:
259,154,164966,1,8,0:0:0:0:
240,184,165137,1,0,0:0:0:0:
255,189,165309,1,8,0:0:0:0:
277,183,165394,1,0,0:0:0:0:
251,219,165480,1,8,0:0:0:0:
278,207,165566,1,8,0:0:0:0:
278,207,165652,1,0,0:0:0:0:
270,210,165823,1,0,0:0:0:0:
270,210,165909,1,0,0:0:0:0:
268,205,165994,1,8,0:0:0:0:
276,181,166166,1,0,0:0:0:0:
276,181,166337,1,8,0:0:0:0:
276,181,166423,1,8,0:0:0:0:
276,181,166509,1,0,0:0:0:0:
276,181,166680,1,8,0:0:0:0:
274,200,166852,1,0,0:0:0:0:
274,200,166937,1,0,0:0:0:0:
290,178,167023,1,8,0:0:0:0:
290,178,167109,1,0,0:0:0:0:
290,178,167194,1,8,0:0:0:0:
290,178,167280,1,8,0:0:0:0:
290,178,167366,1,4,0:0:0:0:
264,191,167537,1,8,0:0:0:0:
266,191,167623,1,8,0:0:0:0:
266,191,167709,1,0,0:0:0:0:
266,191,167880,1,8,0:0:0:0:
264,191,168052,1,0,0:0:0:0:
228,199,168137,1,0,0:0:0:0:
264,191,168223,1,8,0:0:0:0:
241,213,168309,1,8,0:0:0:0:
264,191,168394,1,0,0:0:0:0:
246,194,168566,1,8,0:0:0:0:
248,192,168652,1,8,0:0:0:0:
248,192,168737,1,0,0:0:0:0:
248,192,168909,1,0,0:0:0:0:
248,192,168994,1,0,0:0:0:0:
248,192,169080,1,8,0:0:0:0:
248,205,169166,1,0,0:0:0:0:
248,176,169252,1,8,0:0:0:0:
248,176,169423,1,0,0:0:0:0:
248,176,169594,1,0,0:0:0:0:
248,176,169680,1,0,0:0:0:0:
248,176,169766,1,8,0:0:0:0:
268,191,169852,1,8,0:0:0:0:
268,191,169937,1,8,0:0:0:0:
268,191,170023,1,8,0:0:0:0:
268,191,170109,1,0,0:0:0:0:
256,185,170280,1,0,0:0:0:0:
256,185,170366,1,0,0:0:0:0:
256,185,170452,1,8,0:0:0:0:
264,192,170623,1,0,0:0:0:0:
263,192,170794,1,8,0:0:0:0:
286,194,170880,1,8,0:0:0:0:
294,215,170966,1,0,0:0:0:0:
294,215,171137,1,8,0:0:0:0:
179,198,171223,1,0,0:0:0:0:
292,189,171309,1,0,0:0:0:0:
292,189,171394,1,0,0:0:0:0:
292,189,171480,1,8,0:0:0:0:
215,173,171652,1,0,0:0:0:0:
206,166,171737,1,0,0:0:0:0:
211,166,171823,1,8,0:0:0:0:
211,166,171994,1,8,0:0:0:0:
211,166,172166,1,0,0:0:0:0:
268,205,172337,1,8,0:0:0:0:
292,205,172423,1,8,0:0:0:0:
292,205,172509,1,0,0:0:0:0:
254,209,172594,1,8,0:0:0:0:
264,212,172680,1,8,0:0:0:0:
264,212,172766,1,8,0:0:0:0:
264,212,172852,1,4,0:0:0:0:
204,207,173023,1,8,0:0:0:0:
231,209,173109,1,8,0:0:0:0:
231,209,173194,1,0,0:0:0:0:
276,209,173366,1,8,0:0:0:0:
282,200,173452,1,8,0:0:0:0:
277,215,173537,1,0,0:0:0:0:
313,204,173623,1,0,0:0:0:0:
275,211,173709,1,8,0:0:0:0:
275,211,173880,1,8,0:0:0:0:
281,163,173966,1,8,0:0:0:0:
263,191,174052,1,0,0:0:0:0:
263,191,174137,1,0,0:0:0:0:
263,191,174223,1,0,0:0:0:0:
283,184,174394,1,8,0:0:0:0:
283,184,174480,1,8,0:0:0:0:
283,184,174566,1,0,0:0:0:0:
283,184,174737,1,0,0:0:0:0:
283,184,174823,1,0,0:0:0:0:
283,184,174909,1,8,0:0:0:0:
275,191,174994,1,8,0:0:0:0:
276,190,175080,1,0,0:0:0:0:
283,184,175252,1,8,0:0:0:0:
213,158,175337,1,8,0:0:0:0:
186,199,175423,1,0,0:0:0:0:
255,216,175594,1,8,0:0:0:0:
290,201,175680,1,0,0:0:0:0:
288,201,175766,1,0,0:0:0:0:
288,201,175852,1,0,0:0:0:0:
288,201,175937,1,8,0:0:0:0:
288,201,176023,1,8,0:0:0:0:
288,201,176109,1,0,0:0:0:0:
288,201,176194,1,0,0:0:0:0:
288,201,176280,1,8,0:0:0:0:
290,201,176366,1,0,0:0:0:0:
290,201,176452,1,0,0:0:0:0:
290,201,176537,1,0,0:0:0:0:
290,201,176623,1,8,0:0:0:0:
290,201,176709,1,8,0:0:0:0:
288,201,176794,1,0,0:0:0:0:
288,201,176880,1,0,0:0:0:0:
288,201,176966,1,12,0:0:0:0:
275,205,177309,1,8,0:0:0:0:
276,205,177480,1,0,0:0:0:0:
276,205,177652,1,8,0:0:0:0:
276,205,177823,1,8,0:0:0:0:
268,191,178337,1,4,0:0:0:0:
256,192,187937,12,0,189137,0:0:0:0:
363,177,189309,5,4,0:0:0:0:
261,197,189652,1,8,0:0:0:0:
261,197,189823,1,0,0:0:0:0:
261,197,190166,1,0,0:0:0:0:
277,210,190337,1,8,0:0:0:0:
249,178,190680,1,0,0:0:0:0:
271,189,191023,1,8,0:0:0:0:
271,189,191194,1,0,0:0:0:0:
271,189,191537,1,0,0:0:0:0:
276,210,191709,1,8,0:0:0:0:
276,210,191880,1,0,0:0:0:0:
314,205,192052,1,8,0:0:0:0:
274,205,192394,1,8,0:0:0:0:
273,205,192566,1,0,0:0:0:0:
237,202,192909,1,0,0:0:0:0:
266,191,193080,1,8,0:0:0:0:
232,200,193252,1,8,0:0:0:0:
277,208,193423,1,0,0:0:0:0:
272,179,193766,1,8,0:0:0:0:
301,212,193937,1,0,0:0:0:0:
295,211,194280,1,0,0:0:0:0:
286,196,194452,1,8,0:0:0:0:
255,184,194623,1,0,0:0:0:0:
286,196,194794,1,0,0:0:0:0:
281,179,195137,1,8,0:0:0:0:
281,179,195309,1,0,0:0:0:0:
281,179,195652,1,0,0:0:0:0:
232,166,195823,1,8,0:0:0:0:
251,184,196166,1,0,0:0:0:0:
254,180,196509,1,8,0:0:0:0:
254,177,196680,1,0,0:0:0:0:
189,199,196766,1,0,0:0:0:0:
295,212,196852,1,0,0:0:0:0:
266,181,197194,1,8,0:0:0:0:
275,195,197537,1,0,0:0:0:0:
275,195,197880,1,8,0:0:0:0:
291,206,198052,1,0,0:0:0:0:
291,206,198394,1,0,0:0:0:0:
291,206,198566,1,8,0:0:0:0:
331,212,198909,1,0,0:0:0:0:
279,206,199080,1,0,0:0:0:0:
298,203,199252,1,8,0:0:0:0:
298,203,199423,1,0,0:0:0:0:
262,188,199766,1,0,0:0:0:0:
285,224,199852,1,0,0:0:0:0:
298,203,199937,1,8,0:0:0:0:
240,197,200280,1,4,0:0:0:0:
250,247,200452,1,0,0:0:0:0:
261,228,200623,1,8,0:0:0:0:
262,227,200794,1,0,0:0:0:0:
264,180,201137,1,0,0:0:0:0:
264,180,201309,1,8,0:0:0:0:
258,155,201480,1,0,0:0:0:0:
258,155,201566,1,0,0:0:0:0:
258,155,201652,1,0,0:0:0:0:
301,199,201823,1,0,0:0:0:0:
301,199,201994,1,8,0:0:0:0:
301,199,202166,1,0,0:0:0:0:
278,168,202509,1,0,0:0:0:0:
278,168,202680,1,8,0:0:0:0:
278,168,202852,1,0,0:0:0:0:
278,168,203023,1,0,0:0:0:0:
301,137,203280,1,0,0:0:0:0:
285,177,203366,1,8,0:0:0:0:
285,182,203537,1,0,0:0:0:0:
284,218,203880,1,0,0:0:0:0:
287,204,204052,1,8,0:0:0:0:
302,226,204223,1,0,0:0:0:0:
235,203,204394,1,8,0:0:0:0:
233,182,204652,1,0,0:0:0:0:
238,179,204737,1,8,0:0:0:0:
214,188,204909,1,0,0:0:0:0:
246,202,204994,1,0,0:0:0:0:
358,207,205080,1,8,0:0:0:0:
190,196,205252,1,0,0:0:0:0:
218,199,205423,1,8,0:0:0:0:
213,198,205766,1,0,0:0:0:0:
290,188,205937,1,0,0:0:0:0:
238,183,206109,1,8,0:0:0:0:
238,183,206280,1,0,0:0:0:0:
281,190,206623,1,0,0:0:0:0:
281,190,206794,1,8,0:0:0:0:
281,190,206966,1,0,0:0:0:0:
281,190,207052,1,0,0:0:0:0:
281,190,207137,1,0,0:0:0:0:
260,184,207480,1,8,0:0:0:0:
260,184,207652,1,0,0:0:0:0:
287,169,207737,1,0,0:0:0:0:
287,169,207823,1,0,0:0:0:0:
273,199,207994,1,0,0:0:0:0:
272,176,208166,1,8,0:0:0:0:
280,180,208509,1,0,0:0:0:0:
275,187,208680,1,0,0:0:0:0:
277,186,208852,1,8,0:0:0:0:
277,184,209023,1,0,0:0:0:0:
302,205,209366,1,0,0:0:0:0:
266,186,209452,1,0,0:0:0:0:
302,205,209537,1,8,0:0:0:0:
280,182,209880,1,4,0:0:0:0:
201,187,211252,1,8,0:0:0:0:
296,230,211594,1,0,0:0:0:0:
277,233,211937,1,0,0:0:0:0:
277,233,212280,1,8,0:0:0:0:
240,180,212623,1,0,0:0:0:0:
260,174,212966,1,8,0:0:0:0:
282,180,213309,1,0,0:0:0:0:
282,180,213652,1,0,0:0:0:0:
282,180,213994,1,8,0:0:0:0:
281,160,214337,1,0,0:0:0:0:
349,128,214680,1,8,0:0:0:0:
294,183,215023,1,8,0:0:0:0:
294,183,215366,1,0,0:0:0:0:
214,206,215709,1,8,0:0:0:0:
272,183,215880,1,8,0:0:0:0:
286,203,216052,1,0,0:0:0:0:
288,209,216223,1,8,0:0:0:0:
286,203,216394,1,0,0:0:0:0:
235,191,216566,1,0,0:0:0:0:
243,189,216737,1,8,0:0:0:0:
248,182,217080,1,0,0:0:0:0:
286,203,217423,1,8,0:0:0:0:
289,172,217766,1,0,0:0:0:0:
289,172,218109,1,8,0:0:0:0:
230,182,218452,1,8,0:0:0:0:
230,182,218794,1,0,0:0:0:0:
230,182,219137,1,0,0:0:0:0:
230,182,219480,1,8,0:0:0:0:
237,192,219823,1,0,0:0:0:0:
237,192,220166,1,8,0:0:0:0:
268,196,220509,1,8,0:0:0:0:
260,195,220852,1,0,0:0:0:0:
258,195,221194,1,8,0:0:0:0:
279,221,221366,1,8,0:0:0:0:
250,181,221537,1,0,0:0:0:0:
267,199,221709,1,8,0:0:0:0:
250,181,221880,1,0,0:0:0:0:
250,181,222223,1,12,0:0:0:0:
247,184,222566,1,8,0:0:0:0:
247,184,222909,1,8,0:0:0:0:
276,175,223252,1,8,0:0:0:0:
274,194,223423,1,0,0:0:0:0:
276,175,223594,1,8,0:0:0:0:
256,190,223937,1,8,0:0:0:0:
256,190,224280,1,8,0:0:0:0:
255,185,224623,1,8,0:0:0:0:
240,167,224794,1,0,0:0:0:0:
260,189,224966,1,12,0:0:0:0:
299,175,225309,1,8,0:0:0:0:
299,170,225652,1,8,0:0:0:0:
278,181,225823,1,0,0:0:0:0:
297,170,225994,1,8,0:0:0:0:
294,170,226337,1,8,0:0:0:0:
286,172,226680,1,8,0:0:0:0:
286,172,227023,1,8,0:0:0:0:
252,165,227194,1,0,0:0:0:0:
286,172,227366,1,8,0:0:0:0:
286,172,227709,1,12,0:0:0:0:
281,142,227880,1,0,0:0:0:0:
287,157,228052,1,0,0:0:0:0:
287,157,228223,1,0,0:0:0:0:
274,158,228394,1,8,0:0:0:0:
303,210,228566,1,0,0:0:0:0:
303,210,228737,1,0,0:0:0:0:
303,210,228909,1,0,0:0:0:0:
266,206,228994,1,0,0:0:0:0:
303,210,229080,1,12,0:0:0:0:
292,196,229252,1,0,0:0:0:0:
292,198,229423,1,0,0:0:0:0:
292,198,229594,1,0,0:0:0:0:
292,197,229766,1,8,0:0:0:0:
292,197,229937,1,0,0:0:0:0:
292,197,230109,1,0,0:0:0:0:
292,196,230280,1,0,0:0:0:0:
292,198,230366,1,0,0:0:0:0:
292,198,230452,1,8,0:0:0:0:
258,193,230537,1,0,0:0:0:0:
262,195,230623,1,0,0:0:0:0:
262,195,230709,1,0,0:0:0:0:
262,195,230794,1,0,0:0:0:0:
261,195,230880,1,0,0:0:0:0:
261,195,230966,1,0,0:0:0:0:
261,195,231052,1,0,0:0:0:0:
261,195,231137,1,8,0:0:0:0:
279,217,231223,1,0,0:0:0:0:
279,217,231309,1,0,0:0:0:0:
279,217,231394,1,0,0:0:0:0:
279,217,231480,1,0,0:0:0:0:
279,217,231566,1,0,0:0:0:0:
279,217,231652,1,0,0:0:0:0:
279,217,231737,1,0,0:0:0:0:
279,217,231823,1,8,0:0:0:0:
298,193,231909,1,0,0:0:0:0:
235,217,231994,1,0,0:0:0:0:
253,207,232080,1,0,0:0:0:0:
253,207,232166,1,8,0:0:0:0:
253,207,232252,1,0,0:0:0:0:
253,207,232337,1,0,0:0:0:0:
253,207,232423,1,0,0:0:0:0:
304,207,232509,1,8,0:0:0:0:
278,221,232566,1,8,0:0:0:0:
280,222,232623,1,8,0:0:0:0:
281,224,232680,1,0,0:0:0:0:
264,186,232766,1,0,0:0:0:0:
277,194,232852,1,8,0:0:0:0:
277,194,232909,1,8,0:0:0:0:
277,194,232966,1,8,0:0:0:0:
277,194,233023,1,0,0:0:0:0:
277,194,233080,1,0,0:0:0:0:
277,194,233137,1,0,0:0:0:0:
277,194,233194,1,8,0:0:0:0:
261,194,233537,1,8,0:0:0:0:
278,189,234566,1,4,0:0:0:0:
272,229,234737,1,8,0:0:0:0:
272,229,234823,1,8,0:0:0:0:
206,202,234909,1,0,0:0:0:0:
264,217,235080,1,8,0:0:0:0:
264,217,235252,1,0,0:0:0:0:
279,229,235423,1,0,0:0:0:0:
279,229,235509,1,0,0:0:0:0:
279,229,235594,1,8,0:0:0:0:
279,229,235766,1,8,0:0:0:0:
279,231,235937,1,0,0:0:0:0:
248,202,236109,1,8,0:0:0:0:
248,202,236194,1,0,0:0:0:0:
252,196,236280,1,8,0:0:0:0:
191,187,236366,1,8,0:0:0:0:
243,197,236452,1,0,0:0:0:0:
295,224,236623,1,8,0:0:0:0:
304,240,236794,1,0,0:0:0:0:
248,163,236880,1,0,0:0:0:0:
304,240,236966,1,8,0:0:0:0:
252,202,237137,1,0,0:0:0:0:
252,202,237309,1,8,0:0:0:0:
216,181,237394,1,0,0:0:0:0:
301,244,237480,1,0,0:0:0:0:
301,244,237566,1,0,0:0:0:0:
301,244,237652,1,8,0:0:0:0:
252,200,237823,1,0,0:0:0:0:
242,200,237994,1,8,0:0:0:0:
245,221,238166,1,8,0:0:0:0:
256,215,238252,1,8,0:0:0:0:
256,215,238337,1,0,0:0:0:0:
277,190,238509,1,0,0:0:0:0:
113,190,238594,1,0,0:0:0:0:
237,185,238680,1,8,0:0:0:0:
148,191,238852,1,0,0:0:0:0:
274,202,239023,1,8,0:0:0:0:
274,175,239109,1,8,0:0:0:0:
274,202,239194,1,0,0:0:0:0:
274,202,239280,1,0,0:0:0:0:
274,202,239366,1,8,0:0:0:0:
253,187,239537,1,0,0:0:0:0:
253,187,239623,1,0,0:0:0:0:
253,187,239709,1,8,0:0:0:0:
175,181,239794,1,0,0:0:0:0:
175,181,239880,1,0,0:0:0:0:
175,181,239966,1,0,0:0:0:0:
175,181,240052,1,8,0:0:0:0:
183,206,240223,1,0,0:0:0:0:
203,215,240309,1,0,0:0:0:0:
203,215,240394,1,8,0:0:0:0:
203,215,240566,1,0,0:0:0:0:
203,215,240737,1,8,0:0:0:0:
203,215,240823,1,8,0:0:0:0:
203,215,240909,1,0,0:0:0:0:
203,215,241080,1,8,0:0:0:0:
206,205,241166,1,8,0:0:0:0:
210,207,241252,1,0,0:0:0:0:
210,207,241337,1,0,0:0:0:0:
210,207,241423,1,8,0:0:0:0:
263,232,241594,1,0,0:0:0:0:
263,232,241766,1,8,0:0:0:0:
263,232,241852,1,8,0:0:0:0:
272,231,241937,1,0,0:0:0:0:
272,231,242109,1,8,0:0:0:0:
279,207,242280,1,0,0:0:0:0:
279,207,242366,1,0,0:0:0:0:
279,207,242452,1,8,0:0:0:0:
279,207,242623,1,8,0:0:0:0:
280,211,242794,1,0,0:0:0:0:
241,208,242966,1,0,0:0:0:0:
248,208,243052,1,0,0:0:0:0:
248,208,243137,1,8,0:0:0:0:
248,208,243309,1,0,0:0:0:0:
248,206,243480,1,8,0:0:0:0:
235,210,243652,1,8,0:0:0:0:
235,210,243737,1,8,0:0:0:0:
235,210,243823,1,0,0:0:0:0:
250,196,243994,1,0,0:0:0:0:
250,196,244166,1,8,0:0:0:0:
243,198,244252,1,8,0:0:0:0:
243,198,244337,1,0,0:0:0:0:
395,187,244423,1,0,0:0:0:0:
271,232,244509,1,8,0:0:0:0:
271,232,244680,1,0,0:0:0:0:
271,232,244766,1,0,0:0:0:0:
271,232,244852,1,8,0:0:0:0:
259,210,245023,1,0,0:0:0:0:
259,210,245109,1,0,0:0:0:0:
259,210,245194,1,8,0:0:0:0:
273,203,245280,1,0,0:0:0:0:
273,203,245366,1,8,0:0:0:0:
273,203,245452,1,8,0:0:0:0:
273,203,245537,1,4,0:0:0:0:
271,173,245709,1,8,0:0:0:0:
271,173,245794,1,8,0:0:0:0:
271,173,245880,1,0,0:0:0:0:
271,173,246052,1,8,0:0:0:0:
289,167,246137,1,8,0:0:0:0:
271,173,246223,1,0,0:0:0:0:
330,233,246394,1,0,0:0:0:0:
330,233,246566,1,8,0:0:0:0:
283,196,246737,1,8,0:0:0:0:
283,196,246823,1,8,0:0:0:0:
283,196,246909,1,0,0:0:0:0:
283,196,247080,1,0,0:0:0:0:
283,196,247166,1,0,0:0:0:0:
283,196,247252,1,8,0:0:0:0:
269,204,247423,1,0,0:0:0:0:
269,204,247594,1,8,0:0:0:0:
163,201,247766,1,0,0:0:0:0:
276,213,247852,1,0,0:0:0:0:
276,213,247937,1,8,0:0:0:0:
276,213,248023,1,8,0:0:0:0:
276,213,248109,1,0,0:0:0:0:
276,213,248280,1,8,0:0:0:0:
275,201,248452,1,0,0:0:0:0:
275,201,248537,1,0,0:0:0:0:
275,201,248623,1,8,0:0:0:0:
293,189,248794,1,0,0:0:0:0:
296,192,248966,1,8,0:0:0:0:
296,192,249137,1,8,0:0:0:0:
296,192,249223,1,0,0:0:0:0:
296,192,249309,1,8,0:0:0:0:
263,178,249394,1,8,0:0:0:0:
263,178,249480,1,0,0:0:0:0:
274,153,249566,1,0,0:0:0:0:
263,178,249652,1,8,0:0:0:0:
230,193,249823,1,0,0:0:0:0:
264,210,249909,1,0,0:0:0:0:
264,210,249994,1,8,0:0:0:0:
264,210,250166,1,8,0:0:0:0:
264,210,250337,1,0,0:0:0:0:
264,210,250423,1,0,0:0:0:0:
264,210,250509,1,8,0:0:0:0:
257,201,250594,1,8,0:0:0:0:
268,220,250680,1,0,0:0:0:0:
204,213,250766,1,8,0:0:0:0:
191,228,250852,1,8,0:0:0:0:
231,191,250937,1,8,0:0:0:0:
222,239,251023,1,4,0:0:0:0:
166,209,251194,1,0,0:0:0:0:
187,216,251280,1,0,0:0:0:0:
187,216,251366,1,8,0:0:0:0:
243,224,251537,1,0,0:0:0:0:
243,224,251709,1,8,0:0:0:0:
243,224,251794,1,8,0:0:0:0:
243,224,251880,1,0,0:0:0:0:
251,177,252052,1,8,0:0:0:0:
251,177,252223,1,0,0:0:0:0:
251,177,252309,1,0,0:0:0:0:
251,177,252394,1,8,0:0:0:0:
251,177,252566,1,0,0:0:0:0:
251,177,252737,1,8,0:0:0:0:
251,177,252823,1,8,0:0:0:0:
251,177,252909,1,0,0:0:0:0:
251,177,253080,1,8,0:0:0:0:
257,173,253252,1,0,0:0:0:0:
257,173,253337,1,8,0:0:0:0:
257,173,253423,1,8,0:0:0:0:
287,184,253509,1,0,0:0:0:0:
287,184,253594,1,8,0:0:0:0:
287,184,253680,1,8,0:0:0:0:
287,184,253766,1,0,0:0:0:0:
265,146,253937,1,0,0:0:0:0:
265,146,254023,1,0,0:0:0:0:
253,136,254109,1,8,0:0:0:0:
298,179,254280,1,0,0:0:0:0:
298,179,254452,1,8,0:0:0:0:
176,197,254537,1,0,0:0:0:0:
298,179,254623,1,0,0:0:0:0:
219,178,254709,1,0,0:0:0:0:
298,179,254794,1,8,0:0:0:0:
275,169,254966,1,0,0:0:0:0:
264,170,255052,1,0,0:0:0:0:
275,164,255137,1,8,0:0:0:0:
374,189,255480,1,8,0:0:0:0:
285,183,255652,1,0,0:0:0:0:
285,183,255823,1,8,0:0:0:0:
285,183,255994,1,8,0:0:0:0:
272,177,256509,1,4,0:0:0:0:
311,183,256852,1,8,0:0:0:0:
271,232,257023,1,0,0:0:0:0:
271,232,257109,1,0,0:0:0:0:
271,232,257194,1,8,0:0:0:0:
284,241,257366,1,0,0:0:0:0:
284,239,257537,1,8,0:0:0:0:
298,221,257709,1,0,0:0:0:0:
298,221,257794,1,0,0:0:0:0:
298,221,257880,1,8,0:0:0:0:
203,205,257966,1,0,0:0:0:0:
301,218,258137,1,0,0:0:0:0:
301,218,258223,1,8,0:0:0:0:
276,182,258394,1,0,0:0:0:0:
276,182,258480,1,8,0:0:0:0:
276,182,258566,1,8,0:0:0:0:
325,215,258652,1,0,0:0:0:0:
276,182,258823,1,0,0:0:0:0:
258,205,258909,1,8,0:0:0:0:
258,205,258994,1,0,0:0:0:0:
258,205,259080,1,0,0:0:0:0:
258,205,259166,1,8,0:0:0:0:
258,205,259252,1,0,0:0:0:0:
285,216,259423,1,0,0:0:0:0:
285,216,259509,1,0,0:0:0:0:
258,205,259594,1,8,0:0:0:0:
302,223,259766,1,0,0:0:0:0:
271,253,259937,1,8,0:0:0:0:
261,199,260023,1,8,0:0:0:0:
266,221,260109,1,0,0:0:0:0:
266,221,260280,1,8,0:0:0:0:
266,221,260452,1,0,0:0:0:0:
266,221,260537,1,0,0:0:0:0:
266,221,260623,1,8,0:0:0:0:
249,241,260794,1,0,0:0:0:0:
274,244,260966,1,8,0:0:0:0:
196,207,261137,1,0,0:0:0:0:
272,223,261223,1,0,0:0:0:0:
272,223,261309,1,8,0:0:0:0:
242,206,261394,1,0,0:0:0:0:
176,197,261566,1,0,0:0:0:0:
242,206,261652,1,8,0:0:0:0:
242,206,261737,1,8,0:0:0:0:
242,206,261823,1,8,0:0:0:0:
242,206,261909,1,8,0:0:0:0:
242,206,261994,1,4,0:0:0:0:
280,213,262337,1,8,0:0:0:0:
211,216,262509,1,0,0:0:0:0:
186,218,262594,1,0,0:0:0:0:
211,216,262680,1,8,0:0:0:0:
267,221,262852,1,0,0:0:0:0:
237,197,263023,1,8,0:0:0:0:
237,197,263194,1,0,0:0:0:0:
237,197,263280,1,0,0:0:0:0:
237,197,263366,1,8,0:0:0:0:
261,226,263452,1,0,0:0:0:0:
196,177,263623,1,0,0:0:0:0:
260,224,263709,1,8,0:0:0:0:
260,224,263794,1,8,0:0:0:0:
260,224,263880,1,0,0:0:0:0:
261,226,263966,1,0,0:0:0:0:
261,226,264052,1,8,0:0:0:0:
281,222,264137,1,0,0:0:0:0:
432,198,264309,1,0,0:0:0:0:
281,222,264394,1,8,0:0:0:0:
278,218,264480,1,0,0:0:0:0:
278,218,264566,1,8,0:0:0:0:
278,218,264652,1,8,0:0:0:0:
278,218,264737,1,0,0:0:0:0:
295,212,264909,1,0,0:0:0:0:
295,212,264994,1,0,0:0:0:0:
256,179,265080,1,8,0:0:0:0:
249,189,265252,1,0,0:0:0:0:
249,189,265423,1,8,0:0:0:0:
248,184,265594,1,0,0:0:0:0:
248,184,265680,1,0,0:0:0:0:
248,184,265766,1,8,0:0:0:0:
248,184,265937,1,0,0:0:0:0:
280,196,266109,1,8,0:0:0:0:
285,207,266280,1,0,0:0:0:0:
285,207,266366,1,0,0:0:0:0:
285,207,266452,1,8,0:0:0:0:
205,169,266537,1,0,0:0:0:0:
298,217,266709,1,0,0:0:0:0:
298,217,266794,1,8,0:0:0:0:
298,213,266966,1,0,0:0:0:0:
298,213,267052,1,8,0:0:0:0:
298,213,267137,1,0,0:0:0:0:
475,213,267223,1,8,0:0:0:0:
298,213,267309,1,8,0:0:0:0:
298,213,267394,1,8,0:0:0:0:
298,213,267480,1,4,0:0:0:0:
174,192,267823,1,8,0:0:0:0:
200,197,267994,1,0,0:0:0:0:
201,200,268080,1,0,0:0:0:0:
201,200,268166,1,8,0:0:0:0:
217,209,268252,1,0,0:0:0:0:
201,200,268423,1,0,0:0:0:0:
201,200,268509,1,8,0:0:0:0:
428,193,268680,1,0,0:0:0:0:
241,202,268852,1,8,0:0:0:0:
127,175,268937,1,0,0:0:0:0:
241,202,269109,1,0,0:0:0:0:
241,202,269194,1,8,0:0:0:0:
274,217,269366,1,0,0:0:0:0:
274,217,269537,1,8,0:0:0:0:
323,231,269623,1,0,0:0:0:0:
285,234,269794,1,0,0:0:0:0:
285,234,269880,1,8,0:0:0:0:
274,217,270052,1,8,0:0:0:0:
274,217,270137,1,8,0:0:0:0:
274,217,270223,1,0,0:0:0:0:
273,238,270394,1,8,0:0:0:0:
291,247,270566,1,0,0:0:0:0:
231,217,270652,1,0,0:0:0:0:
241,214,270737,1,8,0:0:0:0:
266,209,270823,1,8,0:0:0:0:
165,161,270909,1,0,0:0:0:0:
266,182,271080,1,8,0:0:0:0:
266,182,271252,1,0,0:0:0:0:
298,187,271337,1,8,0:0:0:0:
285,171,271509,1,8,0:0:0:0:
285,171,271594,1,0,0:0:0:0:
271,157,271766,1,8,0:0:0:0:
195,181,271937,1,0,0:0:0:0:
231,181,272109,1,8,0:0:0:0:
231,181,272194,1,8,0:0:0:0:
262,217,272280,1,0,0:0:0:0:
183,192,272452,1,8,0:0:0:0:
185,192,272537,1,8,0:0:0:0:
185,192,272623,1,0,0:0:0:0:
281,203,272709,1,8,0:0:0:0:
281,203,272794,1,8,0:0:0:0:
281,203,272880,1,8,0:0:0:0:
281,203,272966,1,4,0:0:0:0:
220,190,273309,1,8,0:0:0:0:
101,200,273480,1,8,0:0:0:0:
237,209,273566,1,8,0:0:0:0:
237,209,273652,1,0,0:0:0:0:
237,209,273823,1,0,0:0:0:0:
237,209,273909,1,0,0:0:0:0:
237,209,273994,1,8,0:0:0:0:
260,223,274166,1,8,0:0:0:0:
260,223,274252,1,8,0:0:0:0:
260,223,274337,1,0,0:0:0:0:
212,186,274423,1,8,0:0:0:0:
246,185,274594,1,8,0:0:0:0:
250,198,274680,1,0,0:0:0:0:
242,177,274852,1,0,0:0:0:0:
242,177,274937,1,0,0:0:0:0:
242,177,275023,1,8,0:0:0:0:
261,197,275109,1,0,0:0:0:0:
251,167,275280,1,0,0:0:0:0:
251,167,275366,1,8,0:0:0:0:
276,225,275537,1,8,0:0:0:0:
276,225,275623,1,8,0:0:0:0:
278,221,275709,1,4,0:0:0:0:
288,208,275880,1,8,0:0:0:0:
245,174,275966,1,8,0:0:0:0:
284,235,276052,1,0,0:0:0:0:
236,210,276223,1,8,0:0:0:0:
236,210,276394,1,0,0:0:0:0:
283,210,276480,1,0,0:0:0:0:
293,184,276566,1,8,0:0:0:0:
227,174,276652,1,8,0:0:0:0:
247,183,276737,1,0,0:0:0:0:
262,191,276909,1,8,0:0:0:0:
244,195,276994,1,8,0:0:0:0:
256,192,277080,12,0,278109,0:0:0:0:
254,177,278452,5,4,0:0:0:0:
256,207,278623,1,8,0:0:0:0:
256,207,278709,1,8,0:0:0:0:
256,207,278794,1,0,0:0:0:0:
256,207,278880,1,8,0:0:0:0:
278,200,279052,1,8,0:0:0:0:
278,200,279137,1,0,0:0:0:0:
278,200,279309,1,8,0:0:0:0:
314,225,279394,1,8,0:0:0:0:
314,225,279480,1,0,0:0:0:0:
300,212,279652,1,8,0:0:0:0:
300,212,279737,1,0,0:0:0:0:
300,212,279823,1,0,0:0:0:0:
300,212,279909,1,8,0:0:0:0:
261,234,280080,1,8,0:0:0:0:
381,203,280166,1,0,0:0:0:0:
333,229,280337,1,8,0:0:0:0:
333,229,280423,1,8,0:0:0:0:
256,183,280509,1,0,0:0:0:0:
289,196,280680,1,0,0:0:0:0:
258,147,280766,1,8,0:0:0:0:
231,200,280852,1,8,0:0:0:0:
259,223,280937,1,0,0:0:0:0:
262,219,281023,1,8,0:0:0:0:
307,226,281109,1,8,0:0:0:0:
259,223,281194,1,0,0:0:0:0:
231,213,281366,1,8,0:0:0:0:
231,214,281452,1,0,0:0:0:0:
231,214,281537,1,8,0:0:0:0:
282,199,281709,1,8,0:0:0:0:
269,197,281794,1,0,0:0:0:0:
275,200,281966,1,0,0:0:0:0:
93,192,282052,1,8,0:0:0:0:
235,172,282223,1,0,0:0:0:0:
247,161,282394,1,8,0:0:0:0:
247,161,282480,1,8,0:0:0:0:
247,161,282566,1,0,0:0:0:0:
167,184,282737,1,0,0:0:0:0:
272,183,282909,1,8,0:0:0:0:
250,194,283080,1,0,0:0:0:0:
250,194,283166,1,0,0:0:0:0:
250,194,283252,1,8,0:0:0:0:
243,196,283423,1,0,0:0:0:0:
243,196,283594,1,8,0:0:0:0:
243,195,283680,1,0,0:0:0:0:
243,195,283766,1,8,0:0:0:0:
243,195,283852,1,8,0:0:0:0:
243,195,283937,1,4,0:0:0:0:
216,185,284109,1,0,0:0:0:0:
280,196,284194,1,0,0:0:0:0:
280,196,284280,1,8,0:0:0:0:
280,196,284452,1,0,0:0:0:0:
231,228,284623,1,8,0:0:0:0:
231,228,284709,1,8,0:0:0:0:
231,228,284794,1,8,0:0:0:0:
231,228,284880,1,8,0:0:0:0:
231,228,284966,1,0,0:0:0:0:
250,214,285137,1,8,0:0:0:0:
268,195,285309,1,0,0:0:0:0:
319,217,285480,1,0,0:0:0:0:
319,217,285566,1,0,0:0:0:0:
319,217,285652,1,8,0:0:0:0:
319,217,285737,1,0,0:0:0:0:
319,217,285823,1,0,0:0:0:0:
319,217,285909,1,0,0:0:0:0:
319,217,285994,1,8,0:0:0:0:
198,199,286166,1,8,0:0:0:0:
206,198,286252,1,8,0:0:0:0:
206,198,286337,1,0,0:0:0:0:
297,221,286509,1,0,0:0:0:0:
297,221,286680,1,8,0:0:0:0:
294,194,286852,1,0,0:0:0:0:
294,194,286937,1,0,0:0:0:0:
294,194,287023,1,8,0:0:0:0:
294,194,287194,1,8,0:0:0:0:
294,194,287366,1,0,0:0:0:0:
281,184,287537,1,8,0:0:0:0:
216,205,287623,1,8,0:0:0:0:
216,205,287709,1,0,0:0:0:0:
241,212,287880,1,0,0:0:0:0:
244,217,288052,1,8,0:0:0:0:
261,213,288137,1,8,0:0:0:0:
261,213,288223,1,0,0:0:0:0:
259,209,288309,1,0,0:0:0:0:
259,209,288394,1,8,0:0:0:0:
259,209,288566,1,0,0:0:0:0:
259,209,288737,1,8,0:0:0:0:
206,172,288823,1,8,0:0:0:0:
301,252,288909,1,0,0:0:0:0:
301,252,288994,1,0,0:0:0:0:
301,252,289080,1,8,0:0:0:0:
304,219,289166,1,0,0:0:0:0:
304,219,289252,1,8,0:0:0:0:
304,219,289337,1,8,0:0:0:0:
304,219,289423,1,4,0:0:0:0:
254,197,289594,1,8,0:0:0:0:
254,197,289680,1,8,0:0:0:0:
254,197,289766,1,0,0:0:0:0:
254,197,289852,1,8,0:0:0:0:
301,203,290023,1,8,0:0:0:0:
301,202,290109,1,0,0:0:0:0:
297,213,290280,1,0,0:0:0:0:
297,213,290366,1,8,0:0:0:0:
297,213,290452,1,0,0:0:0:0:
291,193,290623,1,0,0:0:0:0:
291,193,290709,1,0,0:0:0:0:
291,193,290794,1,8,0:0:0:0:
328,199,290880,1,0,0:0:0:0:
320,205,291052,1,0,0:0:0:0:
320,205,291137,1,8,0:0:0:0:
320,205,291309,1,8,0:0:0:0:
320,205,291394,1,0,0:0:0:0:
301,229,291480,1,8,0:0:0:0:
274,183,291652,1,0,0:0:0:0:
274,183,291737,1,8,0:0:0:0:
274,183,291823,1,8,0:0:0:0:
300,179,291909,1,8,0:0:0:0:
226,185,291994,1,0,0:0:0:0:
344,183,292080,1,0,0:0:0:0:
274,187,292166,1,8,0:0:0:0:
259,168,292337,1,0,0:0:0:0:
275,175,292423,1,0,0:0:0:0:
275,175,292509,1,8,0:0:0:0:
261,187,292680,1,0,0:0:0:0:
240,202,292852,1,8,0:0:0:0:
153,183,292937,1,0,0:0:0:0:
277,213,293109,1,0,0:0:0:0:
267,224,293194,1,8,0:0:0:0:
266,199,293366,1,8,0:0:0:0:
266,199,293452,1,8,0:0:0:0:
266,199,293537,1,0,0:0:0:0:
288,216,293709,1,0,0:0:0:0:
288,216,293794,1,0,0:0:0:0:
288,216,293880,1,8,0:0:0:0:
258,142,293966,1,0,0:0:0:0:
276,193,294137,1,0,0:0:0:0:
274,192,294223,1,8,0:0:0:0:
294,175,294394,1,0,0:0:0:0:
308,189,294480,1,8,0:0:0:0:
266,192,294566,1,8,0:0:0:0:
262,173,294652,1,0,0:0:0:0:
262,173,294737,1,8,0:0:0:0:
262,173,294823,1,8,0:0:0:0:
262,173,294909,1,4,0:0:0:0:
253,211,295080,1,8,0:0:0:0:
253,211,295166,1,8,0:0:0:0:
253,211,295252,1,0,0:0:0:0:
266,207,295423,1,8,0:0:0:0:
266,207,295594,1,0,0:0:0:0:
351,249,295680,1,0,0:0:0:0:
266,207,295766,1,8,0:0:0:0:
266,207,295852,1,8,0:0:0:0:
266,207,295937,1,0,0:0:0:0:
257,202,296109,1,0,0:0:0:0:
291,218,296194,1,0,0:0:0:0:
306,220,296280,1,8,0:0:0:0:
306,226,296452,1,0,0:0:0:0:
306,226,296623,1,8,0:0:0:0:
266,207,296794,1,8,0:0:0:0:
323,205,296880,1,8,0:0:0:0:
266,207,296966,1,0,0:0:0:0:
266,207,297137,1,0,0:0:0:0:
266,207,297223,1,0,0:0:0:0:
293,189,297309,1,8,0:0:0:0:
161,175,297394,1,0,0:0:0:0:
321,231,297480,1,8,0:0:0:0:
321,231,297566,1,8,0:0:0:0:
321,231,297652,1,0,0:0:0:0:
345,237,297823,1,8,0:0:0:0:
241,188,297909,1,8,0:0:0:0:
345,237,297994,1,0,0:0:0:0:
281,164,298166,1,8,0:0:0:0:
273,187,298337,1,0,0:0:0:0:
273,187,298509,1,8,0:0:0:0:
206,173,298594,1,8,0:0:0:0:
273,187,298680,1,0,0:0:0:0:
273,187,298852,1,8,0:0:0:0:
273,186,299023,1,0,0:0:0:0:
271,172,299194,1,8,0:0:0:0:
272,177,299280,1,8,0:0:0:0:
272,177,299366,1,0,0:0:0:0:
272,177,299452,1,0,0:0:0:0:
272,177,299537,1,8,0:0:0:0:
235,201,299709,1,0,0:0:0:0:
235,201,299880,1,8,0:0:0:0:
235,182,299966,1,8,0:0:0:0:
235,201,300052,1,0,0:0:0:0:
235,182,300137,1,0,0:0:0:0:
230,191,300223,1,8,0:0:0:0:
230,191,300394,1,4,0:0:0:0:
256,192,300566,8,0,301594,0:0:0:0:
225,198,301766,5,0,0:0:0:0:
246,204,302109,1,0,0:0:0:0:
260,204,302452,1,8,0:0:0:0:
260,204,302794,1,8,0:0:0:0:
260,204,303137,1,4,0:0:0:0:
245,195,303309,1,0,0:0:0:0:
245,195,303394,1,0,0:0:0:0:
245,195,303480,1,8,0:0:0:0:
245,195,303652,1,0,0:0:0:0:
260,204,303823,1,8,0:0:0:0:
226,195,303909,1,8,0:0:0:0:
260,204,303994,1,0,0:0:0:0:
245,195,304080,1,0,0:0:0:0:
245,195,304166,1,8,0:0:0:0:
292,194,304337,1,8,0:0:0:0:
249,195,304423,1,8,0:0:0:0:
249,189,304509,1,0,0:0:0:0:
247,197,304680,1,0,0:0:0:0:
288,210,304766,1,0,0:0:0:0:
225,206,304852,1,8,0:0:0:0:
272,194,305023,1,0,0:0:0:0:
252,187,305194,1,8,0:0:0:0:
229,194,305280,1,0,0:0:0:0:
256,202,305366,1,0,0:0:0:0:
296,208,305452,1,0,0:0:0:0:
259,202,305537,1,8,0:0:0:0:
312,217,305709,1,8,0:0:0:0:
263,184,305794,1,8,0:0:0:0:
263,183,305880,1,0,0:0:0:0:
246,197,306052,1,0,0:0:0:0:
257,204,306137,1,0,0:0:0:0:
257,203,306223,1,8,0:0:0:0:
183,181,306309,1,0,0:0:0:0:
203,201,306394,1,0,0:0:0:0:
211,201,306480,1,0,0:0:0:0:
212,198,306566,1,8,0:0:0:0:
225,197,306737,1,8,0:0:0:0:
262,220,306823,1,8,0:0:0:0:
246,207,306909,1,0,0:0:0:0:
276,202,307080,1,0,0:0:0:0:
276,202,307252,1,8,0:0:0:0:
300,182,307423,1,0,0:0:0:0:
244,220,307509,1,0,0:0:0:0:
299,222,307594,1,8,0:0:0:0:
255,205,307680,1,8,0:0:0:0:
217,239,307766,1,8,0:0:0:0:
255,191,307852,1,0,0:0:0:0:
253,191,307937,1,8,0:0:0:0:
258,190,308109,1,0,0:0:0:0:
263,189,308280,1,8,0:0:0:0:
322,192,308366,1,0,0:0:0:0:
239,206,308452,1,8,0:0:0:0:
239,206,308537,1,8,0:0:0:0:
246,201,308623,1,4,0:0:0:0:
213,197,308794,1,8,0:0:0:0:
234,198,308880,1,8,0:0:0:0:
233,199,308966,1,0,0:0:0:0:
237,184,309137,1,0,0:0:0:0:
240,184,309223,1,0,0:0:0:0:
240,184,309309,1,8,0:0:0:0:
241,184,309394,1,8,0:0:0:0:
241,184,309480,1,0,0:0:0:0:
243,184,309566,1,0,0:0:0:0:
243,184,309652,1,8,0:0:0:0:
270,188,309823,1,8,0:0:0:0:
270,188,309909,1,8,0:0:0:0:
270,188,309994,1,0,0:0:0:0:
261,181,310166,1,0,0:0:0:0:
261,181,310337,1,8,0:0:0:0:
271,195,310509,1,0,0:0:0:0:
271,194,310594,1,0,0:0:0:0:
271,194,310680,1,8,0:0:0:0:
247,205,310766,1,0,0:0:0:0:
253,182,310852,1,8,0:0:0:0:
253,182,311023,1,0,0:0:0:0:
235,167,311194,1,8,0:0:0:0:
235,167,311280,1,8,0:0:0:0:
236,167,311366,1,0,0:0:0:0:
255,212,311537,1,0,0:0:0:0:
101,190,311623,1,0,0:0:0:0:
257,218,311709,1,8,0:0:0:0:
259,214,311880,1,0,0:0:0:0:
259,214,312052,1,8,0:0:0:0:
259,214,312137,1,8,0:0:0:0:
259,214,312223,1,0,0:0:0:0:
259,214,312309,1,0,0:0:0:0:
259,212,312394,1,8,0:0:0:0:
238,204,312566,1,0,0:0:0:0:
238,204,312737,1,8,0:0:0:0:
238,204,312823,1,8,0:0:0:0:
238,204,312909,1,0,0:0:0:0:
280,193,313080,1,8,0:0:0:0:
289,223,313252,1,0,0:0:0:0:
293,223,313337,1,0,0:0:0:0:
295,222,313423,1,8,0:0:0:0:
296,216,313594,1,0,0:0:0:0:
290,201,313680,1,8,0:0:0:0:
290,201,313766,1,8,0:0:0:0:
266,193,313852,1,0,0:0:0:0:
290,201,313937,1,8,0:0:0:0:
266,193,314023,1,8,0:0:0:0:
248,182,314109,1,4,0:0:0:0:
253,180,314280,1,0,0:0:0:0:
256,177,314366,1,0,0:0:0:0:
214,175,314452,1,8,0:0:0:0:
235,174,314537,1,8,0:0:0:0:
216,169,314623,1,0,0:0:0:0:
217,167,314794,1,8,0:0:0:0:
217,167,314966,1,0,0:0:0:0:
232,161,315052,1,0,0:0:0:0:
229,178,315137,1,8,0:0:0:0:
231,173,315309,1,8,0:0:0:0:
247,185,315480,1,0,0:0:0:0:
248,187,315652,1,0,0:0:0:0:
294,183,315737,1,0,0:0:0:0:
211,185,315823,1,8,0:0:0:0:
262,177,315994,1,0,0:0:0:0:
260,173,316166,1,8,0:0:0:0:
257,160,316337,1,0,0:0:0:0:
294,183,316423,1,0,0:0:0:0:
294,183,316509,1,8,0:0:0:0:
294,183,316594,1,0,0:0:0:0:
297,176,316680,1,8,0:0:0:0:
297,176,316766,1,8,0:0:0:0:
297,176,316852,1,0,0:0:0:0:
162,168,317023,1,0,0:0:0:0:
259,198,317109,1,0,0:0:0:0:
260,198,317194,1,8,0:0:0:0:
278,175,317366,1,0,0:0:0:0:
281,203,317537,1,8,0:0:0:0:
271,201,317709,1,8,0:0:0:0:
271,201,317794,1,8,0:0:0:0:
271,201,317880,1,0,0:0:0:0:
270,183,318052,1,0,0:0:0:0:
248,171,318223,1,8,0:0:0:0:
194,208,318394,1,0,0:0:0:0:
291,187,318480,1,0,0:0:0:0:
318,197,318566,1,8,0:0:0:0:
255,169,318737,1,8,0:0:0:0:
260,167,318909,1,0,0:0:0:0:
223,167,319080,1,8,0:0:0:0:
224,192,319166,1,8,0:0:0:0:
227,161,319252,1,0,0:0:0:0:
225,155,319337,1,8,0:0:0:0:
225,154,319423,1,8,0:0:0:0:
226,153,319509,1,8,0:0:0:0:
226,153,319594,1,4,0:0:0:0:
271,167,319766,1,0,0:0:0:0:
241,169,319852,1,0,0:0:0:0:
237,168,319937,1,8,0:0:0:0:
236,168,320109,1,0,0:0:0:0:
236,168,320280,1,8,0:0:0:0:
246,193,320366,1,8,0:0:0:0:
246,193,320452,1,0,0:0:0:0:
246,193,320537,1,0,0:0:0:0:
246,193,320623,1,8,0:0:0:0:
200,207,320794,1,8,0:0:0:0:
214,207,320880,1,8,0:0:0:0:
221,204,320966,1,0,0:0:0:0:
235,189,321137,1,0,0:0:0:0:
231,189,321309,1,8,0:0:0:0:
177,173,321394,1,0,0:0:0:0:
176,192,321480,1,0,0:0:0:0:
232,220,321566,1,0,0:0:0:0:
232,220,321652,1,8,0:0:0:0:
241,203,321823,1,0,0:0:0:0:
240,202,321994,1,8,0:0:0:0:
202,178,322080,1,0,0:0:0:0:
249,185,322166,1,8,0:0:0:0:
249,185,322252,1,8,0:0:0:0:
250,187,322337,1,0,0:0:0:0:
244,189,322509,1,0,0:0:0:0:
252,189,322594,1,0,0:0:0:0:
252,189,322680,1,8,0:0:0:0:
272,209,322852,1,0,0:0:0:0:
272,209,323023,1,8,0:0:0:0:
222,191,323109,1,8,0:0:0:0:
259,205,323194,1,0,0:0:0:0:
259,205,323280,1,0,0:0:0:0:
259,205,323366,1,8,0:0:0:0:
259,205,323452,1,0,0:0:0:0:
259,205,323537,1,0,0:0:0:0:
259,205,323623,1,0,0:0:0:0:
259,205,323709,1,12,0:0:0:0:
276,204,324052,1,8,0:0:0:0:
276,204,324223,1,0,0:0:0:0:
275,200,324394,1,8,0:0:0:0:
275,200,324566,1,8,0:0:0:0:
269,189,325080,1,12,0:0:0:0:
216,168,325423,1,8,0:0:0:0:
238,175,325594,1,0,0:0:0:0:
237,179,325766,1,8,0:0:0:0:
248,170,326109,1,8,0:0:0:0:
261,209,326452,1,8,0:0:0:0:
237,179,326794,1,8,0:0:0:0:
266,190,326966,1,0,0:0:0:0:
290,247,327052,1,0,0:0:0:0:
282,185,327137,1,8,0:0:0:0:
282,185,327480,1,8,0:0:0:0:
282,185,327823,1,8,0:0:0:0:
250,179,328166,1,8,0:0:0:0:
278,182,328337,1,0,0:0:0:0:
278,182,328509,1,8,0:0:0:0:
250,179,328852,1,8,0:0:0:0:
274,178,329194,1,8,0:0:0:0:
292,214,329537,1,8,0:0:0:0:
134,194,329709,1,0,0:0:0:0:
247,197,329794,1,0,0:0:0:0:
231,214,329880,1,8,0:0:0:0:
234,210,330052,1,0,0:0:0:0:
222,179,330223,1,8,0:0:0:0:
263,199,330566,1,8,0:0:0:0:
218,201,330737,1,0,0:0:0:0:
216,178,330909,1,8,0:0:0:0:
208,177,331080,1,0,0:0:0:0:
252,187,331166,1,0,0:0:0:0:
252,188,331252,1,8,0:0:0:0:
266,205,331423,1,0,0:0:0:0:
266,204,331594,1,8,0:0:0:0:
266,205,331766,1,0,0:0:0:0:
266,205,331937,1,8,0:0:0:0:
266,205,332023,1,0,0:0:0:0:
266,205,332109,1,0,0:0:0:0:
266,205,332280,1,8,0:0:0:0:
266,205,332452,1,0,0:0:0:0:
266,204,332623,1,8,0:0:0:0:
266,205,332794,1,0,0:0:0:0:
266,205,332880,1,0,0:0:0:0:
264,201,332966,1,8,0:0:0:0:
264,201,333137,1,0,0:0:0:0:
264,201,333309,1,8,0:0:0:0:
238,197,333394,1,8,0:0:0:0:
238,197,333480,1,0,0:0:0:0:
241,203,333566,1,0,0:0:0:0:
241,202,333652,1,8,0:0:0:0:
264,208,333737,1,8,0:0:0:0:
266,205,333823,1,0,0:0:0:0:
266,205,333909,1,0,0:0:0:0:
268,207,333994,1,8,0:0:0:0:
287,205,334052,1,8,0:0:0:0:
287,205,334109,1,8,0:0:0:0:
286,200,334166,1,0,0:0:0:0:
261,171,334252,1,0,0:0:0:0:
282,197,334337,1,8,0:0:0:0:
282,197,334394,1,8,0:0:0:0:
282,197,334452,1,8,0:0:0:0:
282,196,334509,1,0,0:0:0:0:
330,173,334566,1,0,0:0:0:0:
330,173,334623,1,0,0:0:0:0:
326,173,334680,1,8,0:0:0:0:
256,192,334852,12,0,335880,0:0:0:0:
273,201,336052,5,4,0:0:0:0:
231,192,336737,1,8,0:0:0:0:
247,190,337080,1,0,0:0:0:0:
259,184,337252,1,0,0:0:0:0:
289,190,337594,1,0,0:0:0:0:
235,192,338109,1,8,0:0:0:0:
233,222,338623,1,0,0:0:0:0:
303,201,338794,1,0,0:0:0:0:
253,197,339309,1,0,0:0:0:0:
253,197,339480,1,8,0:0:0:0:
282,208,339823,1,0,0:0:0:0:
294,197,339994,1,0,0:0:0:0:
299,225,340337,1,0,0:0:0:0:
299,225,340852,1,8,0:0:0:0:
283,169,341537,1,0,0:0:0:0:
222,179,342223,1,8,0:0:0:0:
286,202,342566,1,0,0:0:0:0:
291,208,342737,1,0,0:0:0:0:
295,218,343080,1,0,0:0:0:0:
254,189,343594,1,8,0:0:0:0:
275,197,344109,1,0,0:0:0:0:
275,197,344280,1,0,0:0:0:0:
298,207,344794,1,0,0:0:0:0:
298,207,344966,1,8,0:0:0:0:
267,184,345309,1,0,0:0:0:0:
267,184,345480,1,0,0:0:0:0:
289,217,345823,1,0,0:0:0:0:
288,217,346337,1,8,0:0:0:0:
256,192,346509,12,8,346852,0:0:0:0:
251,192,347023,5,4,0:0:0:0:
