osu file format v14

[General]
AudioFilename: audio.mp3
AudioLeadIn: 0
PreviewTime: 133744
Countdown: 0
SampleSet: None
StackLeniency: 0.7
Mode: 0
LetterboxInBreaks: 0
WidescreenStoryboard: 0

[Editor]
Bookmarks: 4489,134382,211298
DistanceSpacing: 0.6
BeatDivisor: 8
GridSize: 16
TimelineZoom: 3.999999

[Metadata]
Title:Noir! Noir!
TitleUnicode:Noir! Noir!
Artist:Aimer
ArtistUnicode:Aimer
Creator:Deca
Version:Kageu
Source:
Tags:
BeatmapID:2168999
BeatmapSetID:1037470

[Difficulty]
HPDrainRate:6.8
CircleSize:4
OverallDifficulty:7.8
ApproachRate:8.8
SliderMultiplier:2.2
SliderTickRate:1

[Events]
//Background and Video events
0,0,"68135789_p0.jpg",0,0
//Break Periods
//Storyboard Layer 0 (Background)
//Storyboard Layer 1 (Fail)
//Storyboard Layer 2 (Pass)
//Storyboard Layer 3 (Foreground)
//Storyboard Layer 4 (Overlay)
//Storyboard Sound Samples

[TimingPoints]
-936,638.297872340426,4,2,1,75,1,0
1617,-71.4285714285714,4,2,1,75,0,0
22042,-83.3333333333333,4,2,1,75,0,0
42468,-76.9230769230769,4,2,1,75,0,0
62893,-71.4285714285714,4,2,1,75,0,0
93531,-83.3333333333333,4,2,1,75,0,0
113957,-83.3333333333333,4,2,1,75,0,0
131829,-71.4285714285714,4,2,1,75,0,0
155127,-83.3333333333333,4,2,1,75,0,0
165659,-68.9655172413793,4,2,1,75,0,0
231404,-117.647058823529,4,2,1,75,0,0
231484,-117.647058823529,4,2,2,25,0,0

[Colours]
Combo1 : 136,169,170
Combo2 : 112,187,209
Combo3 : 130,148,170
Combo4 : 152,172,224

[HitObjects]
241,185,181,5,0,0:0:0:0:
241,185,260,1,0,0:0:0:0:
241,185,340,2,0,P|289:181|336:167,1,55
381,156,659,1,0,0:0:0:0:
257,106,978,1,0,0:0:0:0:
160,206,1137,1,0,0:0:0:0:
288,252,1298,1,0,0:0:0:0:
241,185,1617,6,0,B|270:90|207:121|246:3,2,153.999995300293
448,118,2574,2,0,P|408:107|355:92,1,76.9999976501466
250,190,2893,1,0,0:0:0:0:
171,133,3053,1,0,0:0:0:0:
290,98,3212,1,0,0:0:0:0:
290,98,3532,2,0,B|305:59|305:59|284:0,1,76.9999976501466
353,173,3851,6,0,B|322:244|322:244|353:299,1,115.49999647522
350,292,4170,2,0,P|303:276|253:272,1,76.9999976501466
198,250,4489,1,0,0:0:0:0:
128,298,4649,1,0,0:0:0:0:
219,170,4808,6,0,P|225:136|225:88,1,76.9999976501466
54,230,5127,1,0,0:0:0:0:
2,159,5287,1,0,0:0:0:0:
52,88,5446,1,0,0:0:0:0:
135,114,5606,1,0,0:0:0:0:
136,201,5765,1,0,0:0:0:0:
136,201,6085,2,0,P|188:190|323:178,1,153.999995300293
302,188,6564,1,0,0:0:0:0:
349,383,6723,6,0,P|358:299|369:207,1,153.999995300293
435,16,7361,2,0,B|452:54|452:54|435:105,1,76.9999976501466
294,132,7681,1,0,0:0:0:0:
235,70,7840,1,0,0:0:0:0:
83,134,8000,5,0,0:0:0:0:
152,95,8159,1,0,0:0:0:0:
226,62,8319,1,0,0:0:0:0:
226,62,8638,2,0,B|310:66|273:114|387:112,1,153.999995300293
512,298,9117,5,0,0:0:0:0:
512,298,9196,1,0,0:0:0:0:
512,298,9276,2,0,B|518:204|415:178,1,153.999995300293
403,258,9755,1,0,0:0:0:0:
307,372,9915,2,0,P|263:380|213:386,1,76.9999976501466
164,325,10234,1,0,0:0:0:0:
110,259,10393,1,0,0:0:0:0:
214,146,10553,5,0,0:0:0:0:
280,218,10712,1,0,0:0:0:0:
360,165,10872,1,0,0:0:0:0:
294,99,11032,1,0,0:0:0:0:
202,155,11191,5,0,0:0:0:0:
286,231,11351,1,0,0:0:0:0:
372,156,11511,1,0,0:0:0:0:
282,81,11670,1,0,0:0:0:0:
153,232,11829,6,0,P|113:240|-18:278,1,153.999995300293
113,161,12308,1,0,0:0:0:0:
153,89,12468,2,0,P|109:81|63:64,1,76.9999976501466
243,166,12787,2,0,B|269:70|210:117|242:0,2,153.999995300293
400,340,13744,6,0,P|387:277|379:168,1,153.999995300293
381,177,14223,1,0,0:0:0:0:
455,58,14383,6,0,B|467:99|467:99|450:147,1,76.9999976501466
314,135,14702,2,0,P|305:105|410:21,1,153.999995300293
480,244,15340,1,0,0:0:0:0:
405,289,15500,1,0,0:0:0:0:
287,233,15659,5,0,0:0:0:0:
365,210,15819,1,0,0:0:0:0:
398,299,15978,2,0,P|387:354|385:391,1,76.9999976501466
184,327,16298,2,0,P|175:269|232:175,1,153.999995300293
468,148,16936,6,0,B|377:147|423:89|313:87,1,153.999995300293
227,107,17415,1,0,0:0:0:0:
138,70,17574,2,0,P|144:121|144:164,1,76.9999976501466
52,15,17893,6,0,P|53:89|26:192,1,153.999995300293
0,322,18372,1,0,0:0:0:0:
84,275,18532,1,0,0:0:0:0:
93,369,18691,1,0,0:0:0:0:
5,235,18851,2,0,P|68:254|171:253,1,153.999995300293
308,223,19329,5,0,0:0:0:0:
308,223,19409,1,0,0:0:0:0:
308,223,19489,2,0,P|292:292|354:379,1,153.999995300293
498,219,20127,1,0,0:0:0:0:
488,137,20287,1,0,0:0:0:0:
489,50,20446,2,0,P|439:48|402:42,1,76.9999976501466
304,208,20766,6,0,B|345:117|268:134|318:30,1,153.999995300293
313,222,21244,1,0,0:0:0:0:
232,176,21404,1,0,0:0:0:0:
119,298,21564,5,0,0:0:0:0:
157,215,21723,1,0,0:0:0:0:
72,191,21883,1,0,0:0:0:0:
39,276,22042,2,0,P|99:262|254:287,1,197.99999395752
320,366,22681,2,0,P|332:294|351:221,1,131.99999597168
417,145,23159,1,0,0:0:0:0:
417,145,23239,1,0,0:0:0:0:
417,145,23319,2,0,P|365:159|330:158,1,65.9999979858399
274,117,23638,1,0,0:0:0:0:
71,232,23957,6,0,P|123:201|210:201,1,131.99999597168
167,328,24436,1,0,0:0:0:0:
167,328,24595,2,0,P|214:347|310:344,2,131.99999597168
363,156,25553,6,0,P|370:190|383:238,1,65.9999979858399
387,240,25792,1,0,0:0:0:0:
387,240,25872,1,0,0:0:0:0:
296,245,26032,1,0,0:0:0:0:
276,160,26191,1,0,0:0:0:0:
363,156,26351,1,0,0:0:0:0:
293,254,26510,2,0,P|236:256|154:286,1,131.99999597168
59,180,26989,5,0,0:0:0:0:
59,180,27069,1,0,0:0:0:0:
59,180,27149,2,0,P|65:233|70:266,1,65.9999979858399
156,352,27468,2,0,B|166:319|166:319|149:271,1,65.9999979858399
245,199,27787,2,0,B|172:181|226:146|118:132,1,131.99999597168
124,122,28266,1,0,0:0:0:0:
301,122,28425,2,0,P|325:114|377:111,2,65.9999979858399
299,370,29064,6,0,P|304:315|322:218,1,131.99999597168
456,193,29542,5,0,0:0:0:0:
456,193,29622,1,0,0:0:0:0:
456,193,29702,2,0,P|408:205|388:216,1,65.9999979858399
261,294,30021,2,0,P|211:276|179:190,1,131.99999597168
340,163,30659,5,0,0:0:0:0:
379,81,30819,1,0,0:0:0:0:
289,22,30978,2,0,P|296:74|304:112,1,65.9999979858399
247,157,31298,2,0,P|187:152|89:141,1,131.99999597168
361,276,31936,6,0,P|403:264|461:257,1,98.9999969787599
471,241,32255,2,0,P|475:198|497:99,1,131.99999597168
305,185,32893,6,0,P|300:144|290:106,1,65.9999979858399
265,39,33212,1,0,0:0:0:0:
209,108,33372,1,0,0:0:0:0:
209,108,33452,1,0,0:0:0:0:
209,108,33532,2,0,P|172:97|130:90,1,65.9999979858399
64,114,33851,1,0,0:0:0:0:
64,114,34170,2,0,P|72:174|82:254,1,131.99999597168
28,305,34649,1,0,0:0:0:0:
167,249,34808,6,0,P|211:263|242:268,1,65.9999979858399
283,368,35127,2,0,P|335:355|428:340,1,131.99999597168
230,296,35766,1,0,0:0:0:0:
308,254,35925,1,0,0:0:0:0:
308,254,36005,1,0,0:0:0:0:
308,254,36085,2,0,P|311:218|319:168,1,65.9999979858399
353,116,36404,1,0,0:0:0:0:
308,46,36564,1,0,0:0:0:0:
242,174,36723,6,0,P|183:181|89:215,1,131.99999597168
308,254,37202,1,0,0:0:0:0:
308,254,37282,1,0,0:0:0:0:
308,254,37361,2,0,P|337:262|378:259,1,65.9999979858399
402,338,37681,2,0,P|429:327|454:286,1,65.9999979858399
504,218,38000,2,0,P|492:181|472:83,1,131.99999597168
418,33,38478,1,0,0:0:0:0:
322,96,38638,6,0,P|354:101|400:110,1,65.9999979858399
285,201,38957,2,0,P|331:191|364:182,1,65.9999979858399
257,82,39276,2,0,P|307:100|402:120,1,131.99999597168
275,214,39755,1,0,0:0:0:0:
191,334,39915,2,0,B|182:303|182:303|199:268,1,65.9999979858399
146,124,40234,2,0,B|172:158|172:158|118:250,1,131.99999597168
276,311,40872,6,0,P|323:317|362:321,1,65.9999979858399
361,334,41111,1,0,0:0:0:0:
361,334,41191,1,0,0:0:0:0:
428,265,41351,1,0,0:0:0:0:
338,181,41510,1,0,0:0:0:0:
415,54,41670,1,0,0:0:0:0:
326,3,41829,5,0,0:0:0:0:
340,95,41989,1,0,0:0:0:0:
349,185,42149,2,0,P|385:184|433:131,1,98.9999969787599
424,124,42468,6,0,B|301:116|374:52|224:40,1,214.49999018097
163,103,43106,2,0,P|135:112|92:115,1,71.4999967269899
28,273,43425,6,0,P|23:234|7:189,1,71.4999967269899
103,329,43744,1,0,0:0:0:0:
102,247,43904,1,0,0:0:0:0:
113,337,44064,2,0,P|160:303|180:233,1,107.249995090485
180,239,44383,2,0,P|254:250|326:264,1,142.99999345398
243,329,44861,1,0,0:0:0:0:
415,375,45021,6,0,B|477:359|510:266|394:205,1,214.49999018097
298,122,45659,2,0,P|309:164|320:283,1,142.99999345398
380,81,46138,1,0,0:0:0:0:
282,28,46298,1,0,0:0:0:0:
201,106,46457,1,0,0:0:0:0:
140,34,46617,1,0,0:0:0:0:
184,244,46936,6,0,B|220:157|148:188|198:80,1,142.99999345398
86,277,47415,1,0,0:0:0:0:
86,277,47494,1,0,0:0:0:0:
86,277,47574,2,0,B|222:256|151:342|297:328,1,214.49999018097
372,305,48212,2,0,B|385:272|385:272|359:230,1,71.4999967269899
273,220,48532,2,0,B|259:192|259:192|276:149,1,71.4999967269899
349,98,48851,5,0,0:0:0:0:
146,51,49170,2,0,P|83:58|37:144,1,142.99999345398
77,186,49649,1,0,0:0:0:0:
0,281,49808,2,0,P|40:270|82:267,1,71.4999967269899
91,272,50048,1,0,0:0:0:0:
91,272,50127,2,0,B|205:274|126:359|283:360,1,214.49999018097
434,229,50766,2,0,B|351:232|402:285|292:288,1,142.99999345398
242,231,51244,1,0,0:0:0:0:
233,101,51404,6,0,P|218:60|197:12,1,71.4999967269899
328,150,51723,2,0,P|346:106|368:64,1,71.4999967269899
231,224,52042,2,0,P|204:194|116:110,1,142.99999345398
379,216,52521,1,0,0:0:0:0:
204,303,52681,6,0,B|125:316|125:316|82:304|82:304|-8:321,1,214.49999018097
39,207,53319,2,0,P|66:214|140:215,1,71.4999967269899
140,138,53638,1,0,0:0:0:0:
204,186,53798,1,0,0:0:0:0:
242,60,53957,2,0,P|262:99|266:147,1,71.4999967269899
394,116,54276,2,0,P|399:159|386:205,1,71.4999967269899,0|0,3:0|3:0,3:0:0:0:
416,325,54595,2,0,P|373:354|284:353,1,142.99999345398
131,235,55074,5,0,0:0:0:0:
131,235,55154,1,0,0:0:0:0:
131,235,55234,2,0,P|192:234|261:277,1,142.99999345398
391,81,55872,2,0,B|412:129|412:129|377:186,1,107.249995090485
370,176,56191,2,0,P|320:170|268:170,1,71.4999967269899
120,145,56510,5,0,0:0:0:0:
70,53,56670,1,0,0:0:0:0:
184,18,56829,2,0,P|172:71|172:112,1,71.4999967269899
185,197,57149,1,0,0:0:0:0:
369,351,57468,5,0,0:0:0:0:
369,351,57548,1,0,0:0:0:0:
369,351,57627,1,0,0:0:0:0:
442,291,57787,2,0,P|342:252|234:315,1,214.49999018097
176,384,58425,2,0,B|156:353|156:353|171:312,1,71.4999967269899
195,204,58744,5,0,0:0:0:0:
241,118,58904,1,0,0:0:0:0:
88,99,59064,1,0,0:0:0:0:
192,194,59223,1,0,0:0:0:0:
344,125,59383,1,0,0:0:0:0:
344,125,59702,2,0,P|400:107|493:114,1,142.99999345398
300,200,60181,5,0,0:0:0:0:
300,200,60260,1,0,0:0:0:0:
300,200,60340,2,0,P|247:184|190:180,1,107.249995090485
185,180,60659,2,0,B|172:145|172:145|194:104,1,71.4999967269899
275,30,60978,2,0,B|288:70|288:70|270:109,1,71.4999967269899
12,95,61298,2,0,P|44:57|187:36,1,178.749991817475
176,35,61776,1,0,0:0:0:0:
352,70,61936,2,0,P|302:84|249:85,1,71.4999967269899
114,132,62255,5,0,0:0:0:0:
244,168,62414,1,0,0:0:0:0:
153,246,62574,5,0,0:0:0:0:
195,73,62734,1,0,0:0:0:0:
250,251,62893,6,0,P|263:215|247:162,1,76.9999976501466
23,318,63212,2,0,B|113:306|61:265|178:253,1,153.999995300293
447,337,63851,6,0,P|382:319|380:232,1,153.999995300293
459,176,64329,1,0,0:0:0:0:
459,176,64489,2,0,P|407:163|369:156,1,76.9999976501466
244,121,64808,6,0,B|306:104|306:104|319:89|319:89|411:64,1,153.999995300293
392,61,65207,1,0,0:0:0:0:
391,61,65287,1,0,0:0:0:0:
195,50,65446,6,0,P|140:56|154:229,1,230.99999295044
72,319,66085,2,0,B|178:298|111:263|222:252,1,153.999995300293
276,302,66563,1,0,0:0:0:0:
413,249,66723,2,0,P|424:213|400:175,1,76.9999976501466
282,95,67042,1,0,0:0:0:0:
196,156,67202,1,0,0:0:0:0:
196,156,67281,1,0,0:0:0:0:
196,156,67361,1,0,0:0:0:0:
291,193,67521,1,0,0:0:0:0:
352,44,67680,5,0,0:0:0:0:
291,193,67840,1,0,0:0:0:0:
142,63,67999,6,0,P|198:41|245:41,1,76.9999976501466
423,144,68319,2,0,B|315:135|386:100|269:94,1,153.999995300293
487,384,68957,2,0,P|500:313|515:218,1,153.999995300293
408,350,69436,1,0,0:0:0:0:
408,350,69595,2,0,P|416:302|436:174,1,153.999995300293
181,260,70234,6,0,P|253:267|275:267,1,76.9999976501466
280,276,70473,1,0,0:0:0:0:
280,276,70553,2,0,B|293:160|235:222|251:92,2,153.999995300293
0,200,71510,5,0,0:0:0:0:
21,295,71670,1,0,0:0:0:0:
0,25,71829,6,0,P|69:14|144:78,1,153.999995300293
231,12,72308,1,0,0:0:0:0:
217,197,72468,5,0,0:0:0:0:
260,90,72627,1,0,0:0:0:0:
138,47,72787,1,0,0:0:0:0:
96,156,72946,1,0,0:0:0:0:
185,125,73106,6,0,P|238:108|267:110,1,76.9999976501466
130,282,73425,2,0,B|48:263|92:222|-4:205,1,153.999995300293
96,156,73904,1,0,0:0:0:0:
110,370,74063,6,0,P|166:368|217:286,1,153.999995300293
218,182,74542,1,0,0:0:0:0:
309,257,74702,2,0,P|359:267|397:275,1,76.9999976501466
285,126,75021,2,0,P|244:104|146:112,1,115.49999647522
170,105,75340,2,0,B|153:70|153:70|173:31,1,76.9999976501466
413,131,75659,6,0,P|417:221|283:289,1,230.99999295044,0|0,0:0|0:0,3:0:0:0:
60,328,76297,2,0,B|48:289|87:222|195:241,1,153.999995300293
242,243,76776,1,0,0:0:0:0:
418,365,76936,5,0,0:0:0:0:
334,175,77095,1,0,0:0:0:0:
313,301,77255,2,0,P|376:297|409:284,1,76.9999976501466
229,160,77574,2,0,B|175:143|175:143|153:122|153:122|82:98,1,153.999995300293
0,295,78053,1,0,0:0:0:0:
70,194,78212,2,0,P|46:261|241:318,1,307.999990600586
473,323,79170,6,0,P|460:276|456:245,1,76.9999976501466
422,115,79489,1,0,0:0:0:0:
478,171,79648,1,0,0:0:0:0:
323,211,79808,2,0,P|340:146|346:125,1,76.9999976501466
456,248,80127,2,0,P|391:263|369:269,1,76.9999976501466
430,105,80446,2,0,P|476:152|492:167,1,76.9999976501466
478,171,80686,1,0,0:0:0:0:
478,171,80765,2,0,B|347:179|425:101|236:109,1,230.99999295044
188,239,81404,2,0,P|203:200|188:162,1,76.9999976501466
257,36,81723,6,0,P|247:73|262:108,1,76.9999976501466
338,269,82042,2,0,P|272:250|165:237,1,153.999995300293
50,260,82521,1,0,0:0:0:0:
83,344,82680,2,0,P|116:317|125:278,1,76.9999976501466
131,147,82999,5,0,0:0:0:0:
45,248,83159,1,0,0:0:0:0:
0,94,83319,1,0,0:0:0:0:
0,94,83638,2,0,P|56:80|135:69,1,115.49999647522
126,76,83957,2,0,B|143:109|143:109|121:173,1,76.9999976501466
312,268,84276,6,0,P|278:226|186:238,1,153.999995300293
144,331,84755,1,0,0:0:0:0:
220,357,84914,2,0,P|278:348|311:348,1,76.9999976501466
408,379,85234,2,0,B|392:341|392:341|412:300,1,76.9999976501466
344,170,85553,5,0,0:0:0:0:
422,117,85712,1,0,0:0:0:0:
456,213,85872,2,0,B|320:196|398:122|253:112,1,230.99999295044
154,86,86510,2,0,P|174:120|180:167,1,76.9999976501466
0,266,86829,1,0,0:0:0:0:
75,217,86989,1,0,0:0:0:0:
138,301,87148,1,0,0:0:0:0:
196,244,87308,1,0,0:0:0:0:
257,319,87468,2,0,P|312:309|439:315,1,153.999995300293
423,315,88106,6,0,P|433:267|444:235,1,76.9999976501466
283,186,88425,2,0,P|355:190|418:110,1,153.999995300293
406,49,88904,1,0,0:0:0:0:
236,36,89063,2,0,B|220:73|220:73|241:116,1,76.9999976501466
175,307,89382,6,0,B|201:213|133:244|172:135,1,153.999995300293
132,78,89861,1,0,0:0:0:0:
10,125,90021,2,0,P|65:138|96:151,1,76.9999976501466
334,260,90340,6,0,P|297:272|260:280,1,76.9999976501466
101,286,90659,2,0,P|138:294|175:307,1,76.9999976501466
252,358,90978,2,0,B|276:257|212:296|259:181,1,153.999995300293
412,49,91617,6,0,P|434:84|422:131,1,76.9999976501466
361,186,91936,2,0,P|339:151|351:104,1,76.9999976501466
349,0,92255,6,0,P|290:6|234:14,1,115.49999647522
216,15,92574,1,0,0:0:0:0:
168,93,92734,1,0,0:0:0:0:
24,52,92893,5,0,0:0:0:0:
124,1,93053,1,0,0:0:0:0:
172,104,93212,1,0,0:0:0:0:
72,154,93372,1,0,0:0:0:0:
98,78,93531,6,0,P|160:85|201:154,1,131.99999597168
254,220,94170,1,0,0:0:0:0:
450,129,94489,2,0,P|416:132|376:137,1,65.9999979858399
368,132,94728,1,0,0:0:0:0:
368,132,94808,2,0,P|375:187|382:275,1,131.99999597168
254,384,95446,2,0,P|215:367|198:318,1,65.9999979858399
184,266,95765,1,0,0:0:0:0:
346,321,95925,1,0,0:0:0:0:
378,243,96085,6,0,P|436:266|498:329,1,131.99999597168
481,199,96723,2,0,B|490:172|490:172|480:135,1,65.9999979858399
441,57,97042,1,0,0:0:0:0:
354,112,97202,1,0,0:0:0:0:
354,112,97281,1,0,0:0:0:0:
354,112,97361,2,0,P|320:100|269:92,1,65.9999979858399
315,14,97680,2,0,P|257:14|178:35,1,131.99999597168
193,42,98319,6,0,P|186:74|178:117,1,65.9999979858399
0,218,98638,2,0,B|74:207|29:184|138:171,1,131.99999597168
254,311,99276,2,0,P|209:292|195:205,1,131.99999597168
271,131,99755,1,0,0:0:0:0:
271,131,99914,2,0,P|307:147|340:153,1,65.9999979858399
340,237,100234,2,0,P|375:222|399:196,1,65.9999979858399
462,246,100553,2,0,P|475:203|433:112,1,131.99999597168
318,59,101031,6,0,P|340:54|366:54,1,32.99999899292
363,63,101191,2,0,B|355:30|355:30|376:-3,1,65.9999979858399
273,135,101510,2,0,P|210:117|159:112,1,98.9999969787599
169,118,101829,2,0,P|180:151|176:197,1,65.9999979858399
31,322,102148,2,0,P|36:289|60:249,1,65.9999979858399
45,250,102388,1,0,0:0:0:0:
45,250,102468,2,0,P|88:237|166:300,1,131.99999597168
332,365,103106,2,0,B|316:304|316:304|350:238,1,131.99999597168
471,203,103585,5,0,0:0:0:0:
471,203,103744,2,0,P|437:204|400:179,1,65.9999979858399
263,129,104063,2,0,P|310:125|406:107,2,131.99999597168
134,308,104861,1,0,0:0:0:0:
134,308,104941,1,0,0:0:0:0:
134,308,105021,2,0,P|136:271|158:222,1,65.9999979858399
99,43,105340,2,0,B|108:96|108:96|115:106|115:106|125:172,1,131.99999597168
198,114,105819,1,0,0:0:0:0:
198,114,105978,2,0,P|242:121|271:132,1,65.9999979858399
371,19,106297,6,0,P|355:45|358:92,1,65.9999979858399
397,169,106617,1,0,0:0:0:0:
512,119,106776,1,0,0:0:0:0:
512,206,106936,2,0,B|437:193|477:154|386:139,1,131.99999597168
323,145,107414,5,0,0:0:0:0:
323,145,107494,1,0,0:0:0:0:
323,145,107574,1,0,0:0:0:0:
251,74,107734,1,0,0:0:0:0:
169,147,107893,1,0,0:0:0:0:
249,227,108053,1,0,0:0:0:0:
242,152,108212,6,0,B|203:147|169:160,1,65.9999979858399
0,253,108531,2,0,B|26:263|65:258,1,65.9999979858399
85,273,108771,1,0,0:0:0:0:
85,273,108851,2,0,B|60:202|115:227|85:138,1,131.99999597168
265,25,109489,6,0,P|240:92|243:161,1,131.99999597168
344,54,109968,1,0,0:0:0:0:
371,152,110127,2,0,P|384:191|392:240,1,65.9999979858399
464,17,110446,2,0,P|453:66|447:122,1,98.9999969787599
455,124,110765,6,0,B|474:99|474:99|471:60,1,65.9999979858399
320,41,111085,1,0,0:0:0:0:
243,110,111244,1,0,0:0:0:0:
243,110,111324,1,0,0:0:0:0:
243,110,111404,2,0,P|196:105|160:101,1,65.9999979858399
0,204,111723,2,0,B|72:191|21:162|134:148,2,131.99999597168
130,292,112521,1,0,0:0:0:0:
130,292,112680,2,0,P|143:248|139:211,1,65.9999979858399
295,313,112999,5,0,0:0:0:0:
270,214,113159,1,0,0:0:0:0:
221,284,113319,5,0,0:0:0:0:
353,245,113478,1,0,0:0:0:0:
476,343,113638,1,0,0:0:0:0:
407,307,113797,1,0,0:0:0:0:
290,321,113957,6,0,B|152:321|242:390|52:387,1,197.99999395752
36,335,114595,2,0,P|24:300|38:266,1,65.9999979858399
258,188,114914,6,0,P|271:139|282:109,1,65.9999979858399
398,270,115234,2,0,P|383:230|376:197,1,65.9999979858399
436,122,115553,2,0,P|445:77|462:12,1,98.9999969787599
464,14,115872,6,0,P|398:29|317:35,1,131.99999597168
263,3,116351,1,0,0:0:0:0:
137,156,116510,2,0,B|171:98|249:73|318:125,1,197.99999395752
372,363,117148,2,0,B|361:259|432:286|419:167,1,197.99999395752
412,160,117707,1,0,0:0:0:0:
412,160,117787,2,0,P|373:174|327:197,1,65.9999979858399
372,363,118106,2,0,P|325:352|192:331,1,131.99999597168
11,236,118744,5,0,0:0:0:0:
74,318,118904,1,0,0:0:0:0:
0,357,119063,2,0,P|-6:319|62:239,1,131.99999597168
68,74,119702,2,0,P|99:120|107:208,1,131.99999597168
197,300,120180,1,0,0:0:0:0:
197,300,120340,2,0,B|160:289|160:289|133:256,1,65.9999979858399
251,97,120659,6,0,P|244:176|235:247,1,131.99999597168
401,42,121138,1,0,0:0:0:0:
401,42,121297,2,0,P|408:83|418:123,1,65.9999979858399
325,253,121617,2,0,P|348:213|466:202,1,131.99999597168
123,329,122255,6,0,B|39:321|102:283|-42:264,1,131.99999597168
130,336,122734,1,0,0:0:0:0:
233,244,122893,2,0,P|210:220|187:184,1,65.9999979858399
275,347,123212,2,0,P|252:357|218:389,1,65.9999979858399
362,230,123531,2,0,P|337:182|329:85,1,131.99999597168
439,179,124010,1,0,0:0:0:0:
228,256,124170,6,0,B|145:274|145:274|120:291|120:291|24:311,1,197.99999395752
0,237,124808,2,0,P|7:216|14:167,1,65.9999979858399
45,302,125127,1,0,0:0:0:0:
192,185,125446,6,0,P|171:155|46:149,1,131.99999597168
118,228,125925,1,0,0:0:0:0:
226,268,126085,2,0,P|266:261|302:258,1,65.9999979858399
296,173,126404,2,0,P|352:182|402:224,1,98.9999969787599
397,216,126723,2,0,B|440:114|361:140|419:5,1,197.99999395752
324,71,127361,1,0,0:0:0:0:
492,67,127521,1,0,0:0:0:0:
492,67,127680,2,0,B|514:100|514:100|509:146,1,65.9999979858399
445,256,127999,5,0,0:0:0:0:
305,188,128159,1,0,0:0:0:0:
276,271,128319,2,0,P|318:267|361:242,1,65.9999979858399
404,156,128638,5,0,0:0:0:0:
312,99,128797,1,0,0:0:0:0:
293,177,128957,1,0,0:0:0:0:
406,77,129117,5,0,0:0:0:0:
406,77,129196,1,0,0:0:0:0:
406,77,129276,2,0,P|390:42|228:24,1,197.99999395752
123,84,129914,1,0,0:0:0:0:
188,140,130074,1,0,0:0:0:0:
312,99,130234,1,0,0:0:0:0:
312,99,130553,6,0,P|301:154|297:191,1,65.9999979858399
387,353,130872,1,0,0:0:0:0:
502,292,131031,1,0,0:0:0:0:
391,183,131191,1,0,0:0:0:0:
298,247,131351,1,0,0:0:0:0:
214,143,131510,1,0,0:0:0:0:
317,86,131670,1,0,0:0:0:0:
301,256,131829,6,0,P|242:241|171:234,1,115.49999647522
172,242,132148,2,0,B|148:276|148:276|160:332,1,76.9999976501466
331,372,132468,1,0,0:0:0:0:
401,196,132627,1,0,0:0:0:0:
326,95,132787,6,0,B|320:214|394:147|380:291,1,192.499994125366
381,284,133265,1,0,0:0:0:0:
301,256,133425,2,0,P|260:240|195:245,1,76.9999976501466
412,105,133744,5,0,0:0:0:0:
499,57,133904,1,0,0:0:0:0:
406,89,134063,5,0,0:0:0:0:
267,33,134223,1,0,0:0:0:0:
161,149,134382,6,0,P|153:119|169:70,1,76.9999976501466
365,212,134702,2,0,P|305:251|196:208,1,153.999995300293
16,341,135180,5,0,0:0:0:0:
16,341,135260,1,0,0:0:0:0:
16,341,135340,2,0,P|59:324|193:344,1,153.999995300293
248,370,135819,1,0,0:0:0:0:
358,384,135978,2,0,B|372:347|372:347|354:308,1,76.9999976501466
315,157,136297,2,0,P|271:212|286:306,1,153.999995300293
39,216,136776,5,0,0:0:0:0:
39,216,136856,1,0,0:0:0:0:
39,216,136936,2,0,B|126:201|78:166|199:161,1,153.999995300293
433,170,137574,6,0,P|368:141|344:51,1,153.999995300293
205,62,138053,1,0,0:0:0:0:
257,198,138212,2,0,B|270:160|270:160|254:118,1,76.9999976501466
103,43,138531,1,0,0:0:0:0:
6,156,138691,5,0,0:0:0:0:
6,156,138771,1,0,0:0:0:0:
6,156,138851,1,0,0:0:0:0:
155,244,139010,1,0,0:0:0:0:
256,125,139170,5,0,0:0:0:0:
91,184,139329,1,0,0:0:0:0:
236,276,139489,6,0,B|244:241|244:241|224:192,1,76.9999976501466
21,384,139808,2,0,B|109:382|54:334|184:326,1,153.999995300293
454,340,140446,2,0,P|403:320|384:202,1,153.999995300293
437,85,140925,1,0,0:0:0:0:
482,161,141085,2,0,B|488:202|488:202|467:233,1,76.9999976501466
306,288,141404,1,0,0:0:0:0:
32,71,141723,6,0,P|70:79|108:97,1,76.9999976501466
118,104,141962,1,0,0:0:0:0:
118,104,142042,2,0,B|119:188|65:152|83:264,2,153.999995300293
291,202,142840,1,0,0:0:0:0:
160,230,142999,2,0,P|199:238|239:257,1,76.9999976501466
407,357,143319,5,0,0:0:0:0:
487,315,143478,1,0,0:0:0:0:
419,241,143638,1,0,0:0:0:0:
337,287,143797,1,0,0:0:0:0:
121,384,143957,5,0,0:0:0:0:
38,279,144117,1,0,0:0:0:0:
157,222,144276,1,0,0:0:0:0:
238,327,144436,1,0,0:0:0:0:
458,173,144595,6,0,P|426:159|354:177,1,76.9999976501466
157,222,144914,2,0,B|263:202|190:167|327:158,1,153.999995300293
24,379,145553,6,0,P|19:326|9:284,1,76.9999976501466
15,286,145792,1,0,0:0:0:0:
15,286,145872,2,0,B|49:270|49:270|97:285,1,76.9999976501466
232,384,146191,2,0,P|177:356|188:256,1,153.999995300293
340,24,146829,6,0,B|352:63|352:63|338:107,1,76.9999976501466
84,195,147148,2,0,B|39:172|25:104|124:54|183:81|219:129,1,230.99999295044
386,216,147787,2,0,B|286:212|358:171|224:160,1,153.999995300293
92,203,148265,1,0,0:0:0:0:
262,310,148425,1,0,0:0:0:0:
177,211,148585,2,0,P|181:287|182:382,1,153.999995300293
323,384,149063,5,0,0:0:0:0:
369,273,149223,1,0,0:0:0:0:
411,360,149382,5,0,0:0:0:0:
274,306,149542,1,0,0:0:0:0:
371,190,149702,2,0,P|432:190|473:310,1,153.999995300293
247,233,150340,6,0,B|184:226|184:226|182:223|182:223|85:213,1,153.999995300293
7,252,150819,1,0,0:0:0:0:
79,137,150978,2,0,B|93:104|93:104|77:61,1,76.9999976501466
202,15,151297,2,0,P|145:5|112:-6,1,76.9999976501466
256,151,151617,6,0,B|359:137|291:102|413:91,1,153.999995300293
465,198,152095,1,0,0:0:0:0:
465,198,152175,1,0,0:0:0:0:
465,198,152255,2,0,P|477:130|498:34,2,153.999995300293
314,292,153212,6,0,P|347:279|401:278,1,76.9999976501466
126,336,153531,2,0,P|183:354|308:374,1,153.999995300293
108,250,154010,1,0,0:0:0:0:
180,192,154170,2,0,B|199:228|199:228|184:275,1,76.9999976501466
43,332,154489,1,0,0:0:0:0:
3,156,154648,1,0,0:0:0:0:
189,184,154808,1,0,0:0:0:0:
189,184,155127,2,0,P|235:195|342:222,1,131.99999597168
449,331,155765,6,0,P|421:303|416:268,1,65.9999979858399
403,178,156085,1,0,0:0:0:0:
480,224,156244,1,0,0:0:0:0:
403,270,156404,2,0,P|351:284|242:317,1,131.99999597168
262,314,157042,2,0,P|267:274|290:227,1,65.9999979858399
293,77,157361,6,0,B|337:114|337:114|345:223,2,131.99999597168
192,157,158159,1,0,0:0:0:0:
117,182,158319,2,0,P|201:198|266:146,1,131.99999597168
290,63,158797,1,0,0:0:0:0:
177,14,158957,1,0,0:0:0:0:
177,14,159276,2,0,B|82:-10|5:80|40:170,1,230.99999295044
39,158,159914,6,0,P|75:147|116:144,1,65.9999979858399
188,180,160234,1,0,0:0:0:0:
328,335,160553,1,0,0:0:0:0:
295,190,160872,2,0,P|274:246|284:268,1,65.9999979858399
286,266,161111,1,0,0:0:0:0:
286,265,161191,1,0,0:0:0:0:
375,248,161351,1,0,0:0:0:0:
456,310,161510,2,0,B|464:261|464:261|458:234|458:234|472:157,2,131.99999597168
412,113,162308,5,0,0:0:0:0:
412,113,162468,2,0,P|367:121|322:134,1,65.9999979858399
283,76,162787,2,0,P|247:69|210:60,1,65.9999979858399
239,244,163106,2,0,P|258:203|254:174,1,65.9999979858399
136,99,163425,1,0,0:0:0:0:
128,112,163531,2,0,P|128:131|139:161,1,43.9999986572266
210,54,163744,1,0,0:0:0:0:
268,166,163904,1,0,0:0:0:0:
81,227,164063,1,0,0:0:0:0:
7,188,164382,5,0,0:0:0:0:
91,236,164542,1,0,0:0:0:0:
262,328,164702,5,0,0:0:0:0:
418,217,164861,1,0,0:0:0:0:
190,218,165021,2,0,P|249:230|295:244,1,65.9999979858399
368,299,165340,5,0,0:0:0:0:
394,316,165446,1,0,0:0:0:0:
421,310,165553,1,0,0:0:0:0:
421,310,165659,2,0,B|437:215|382:249|416:134,1,159.500004867554
289,75,166138,5,0,0:0:0:0:
289,75,166218,1,0,0:0:0:0:
289,75,166297,1,0,0:0:0:0:
435,60,166457,2,0,B|336:60|383:127|260:122,1,159.500004867554
72,158,166936,2,0,B|70:98|131:60|198:103,1,159.500004867554
289,198,167361,1,0,0:0:0:0:
256,209,167468,1,0,0:0:0:0:
235,199,167574,2,0,P|316:226|426:243,1,159.500004867554
146,259,168212,6,0,P|98:276|60:287,1,79.7500024337769
0,244,168531,1,0,0:0:0:0:
131,347,168691,2,0,P|187:361|248:263,1,159.500004867554
410,165,169170,2,0,P|388:208|389:245,1,79.7500024337769
435,317,169489,1,0,0:0:0:0:
509,246,169648,1,0,0:0:0:0:
474,96,169808,5,0,0:0:0:0:
387,61,169968,1,0,0:0:0:0:
280,154,170127,6,0,P|213:168|137:192,1,119.625003650665
155,181,170446,2,0,B|128:151|128:151|140:106,1,79.7500024337769
284,0,170765,2,0,B|311:30|311:30|299:75,1,79.7500024337769
264,255,171085,1,0,0:0:0:0:
386,315,171244,5,0,0:0:0:0:
386,315,171324,1,0,0:0:0:0:
386,315,171404,2,0,P|392:283|437:195,1,119.625003650665
439,200,171723,2,0,B|399:180|399:180|349:191,1,79.7500024337769
163,182,172042,2,0,B|257:170|202:124|323:114,1,159.500004867554
390,107,172521,5,0,0:0:0:0:
221,55,172680,1,0,0:0:0:0:
146,97,172840,1,0,0:0:0:0:
74,143,172999,2,0,P|58:123|68:54,1,79.7500024337769
202,170,173319,2,0,B|247:259|155:326|155:326,1,159.500004867554
0,331,173797,5,0,0:0:0:0:
0,331,173877,1,0,0:0:0:0:
0,331,173957,2,0,P|41:314|97:327,1,79.7500024337769
245,354,174276,2,0,P|191:340|168:316,1,79.7500024337769
133,153,174595,5,0,0:0:0:0:
203,96,174755,1,0,0:0:0:0:
263,167,174914,1,0,0:0:0:0:
186,228,175074,1,0,0:0:0:0:
204,85,175234,6,0,B|289:59|376:113|359:223,1,239.250007301331
338,349,175872,2,0,B|311:316|311:316|325:277,1,79.7500024337769
465,181,176191,5,0,0:0:0:0:
369,95,176351,1,0,0:0:0:0:
250,188,176510,1,0,0:0:0:0:
234,177,176670,1,0,0:0:0:0:
277,73,176829,5,0,0:0:0:0:
360,207,176989,1,0,0:0:0:0:
293,280,177148,1,0,0:0:0:0:
306,291,177308,1,0,0:0:0:0:
439,334,177468,6,0,P|428:299|425:244,1,79.7500024337769
434,248,177707,1,0,0:0:0:0:
434,247,177787,1,0,0:0:0:0:
97,188,177946,5,0,0:0:0:0:
169,133,178106,1,0,0:0:0:0:
228,198,178265,1,0,0:0:0:0:
290,337,178425,5,0,0:0:0:0:
369,369,178585,1,0,0:0:0:0:
429,309,178744,1,0,0:0:0:0:
349,272,178904,1,0,0:0:0:0:
349,272,179223,5,0,0:0:0:0:
324,191,179383,1,0,0:0:0:0:
298,111,179542,1,0,0:0:0:0:
228,198,179702,5,0,0:0:0:0:
361,269,179861,1,0,0:0:0:0:
419,97,180021,1,0,0:0:0:0:
259,37,180180,1,0,0:0:0:0:
324,191,180340,5,0,0:0:0:0:
423,80,180499,2,0,B|451:174|371:136|422:268,1,159.500004867554
135,97,180978,2,0,P|190:106|228:112,1,79.7500024337769
489,229,181297,1,0,0:0:0:0:
300,341,181457,2,0,P|354:326|442:316,1,119.625003650665
437,321,181776,1,0,0:0:0:0:
310,246,181936,1,0,0:0:0:0:
217,302,182095,1,0,0:0:0:0:
111,106,182255,5,0,0:0:0:0:
36,273,182414,1,0,0:0:0:0:
222,134,182574,5,0,0:0:0:0:
302,350,182734,1,0,0:0:0:0:
302,350,184010,5,0,0:0:0:0:
302,350,184090,1,0,0:0:0:0:
302,350,184170,2,0,P|295:315|289:268,1,79.7500024337769
297,89,184489,1,0,0:0:0:0:
179,323,184808,2,0,P|195:281|205:234,1,79.7500024337769
200,118,185127,1,0,0:0:0:0:
304,210,185287,1,0,0:0:0:0:
384,105,185446,6,0,B|387:66|387:66|357:15,1,79.7500024337769
512,188,185765,2,0,P|442:253|340:256,1,159.500004867554
144,296,186404,2,0,B|91:283|88:199|175:179,1,159.500004867554
307,134,186882,1,0,0:0:0:0:
307,134,187042,2,0,P|321:164|308:221,1,79.7500024337769
422,332,187361,2,0,P|359:340|292:359,1,119.625003650665
287,352,187680,2,0,P|273:322|286:265,1,79.7500024337769
471,215,187999,6,0,P|481:187|410:69,1,159.500004867554
245,56,188478,1,0,0:0:0:0:
190,118,188638,2,0,P|247:104|355:99,1,159.500004867554
258,232,189117,5,0,0:0:0:0:
258,232,189196,1,0,0:0:0:0:
258,232,189276,1,0,0:0:0:0:
360,301,189436,1,0,0:0:0:0:
368,202,189595,1,0,0:0:0:0:
247,327,189755,1,0,0:0:0:0:
134,196,189914,5,0,0:0:0:0:
262,151,190074,1,0,0:0:0:0:
231,326,190234,1,0,0:0:0:0:
117,289,190393,1,0,0:0:0:0:
231,326,190553,6,0,B|250:292|250:292|234:241,1,79.7500024337769
128,93,190872,2,0,P|78:115|61:235,1,159.500004867554
420,165,191510,2,0,P|369:155|254:151,1,159.500004867554
142,100,191989,1,0,0:0:0:0:
272,73,192148,2,0,P|244:53|208:1,1,79.7500024337769
46,101,192468,1,0,0:0:0:0:
184,287,192627,1,0,0:0:0:0:
184,287,192707,1,0,0:0:0:0:
184,287,192787,2,0,P|195:239|152:184,1,119.625003650665
141,181,193106,6,0,B|250:180|188:133|309:131,2,159.500004867554
413,246,194063,1,0,0:0:0:0:
326,208,194223,1,0,0:0:0:0:
459,20,194382,2,0,P|407:61|299:39,1,159.500004867554
233,24,194861,1,0,0:0:0:0:
74,174,195021,5,0,0:0:0:0:
127,52,195180,1,0,0:0:0:0:
252,109,195340,1,0,0:0:0:0:
197,226,195499,1,0,0:0:0:0:
160,136,195659,6,0,B|147:101|147:101|172:55,1,79.7500024337769
347,218,195978,2,0,P|325:268|201:291,1,159.500004867554
114,237,196457,5,0,0:0:0:0:
19,108,196617,2,0,B|104:112|72:170|176:169,1,159.500004867554
277,120,197095,1,0,0:0:0:0:
226,30,197255,2,0,P|199:63|200:125,1,79.7500024337769
301,204,197574,2,0,P|350:196|478:181,1,159.500004867554
189,373,198053,5,0,0:0:0:0:
189,373,198132,1,0,0:0:0:0:
189,373,198212,2,0,B|96:332|120:216|209:182,1,239.250007301331
41,94,198851,2,0,P|60:162|36:267,1,159.500004867554
174,90,199329,1,0,0:0:0:0:
329,267,199489,5,0,0:0:0:0:
354,122,199648,1,0,0:0:0:0:
430,170,199808,2,0,B|446:136|446:136|435:84,1,79.7500024337769
279,91,200127,1,0,0:0:0:0:
206,174,200287,2,0,B|298:164|237:134|362:121,1,159.500004867554
193,350,200765,6,0,P|114:347|114:177,1,239.250007301331
217,270,201404,2,0,P|296:267|337:175,1,159.500004867554
359,49,201882,1,0,0:0:0:0:
359,49,202042,2,0,B|340:84|340:84|353:122,1,79.7500024337769
450,219,202361,1,0,0:0:0:0:
505,61,202521,1,0,0:0:0:0:
372,128,202680,2,0,P|420:137|450:147,1,79.7500024337769
306,223,202999,2,0,P|245:238|208:238,1,79.7500024337769
204,229,203239,5,0,0:0:0:0:
204,229,203319,2,0,B|177:90|278:152|252:-13,1,239.250007301331
66,58,203957,2,0,B|49:93|49:93|64:131,1,79.7500024337769
100,282,204276,1,0,0:0:0:0:
228,238,204436,1,0,0:0:0:0:
44,217,204595,2,0,P|105:202|134:199,1,79.7500024337769
304,193,204914,1,0,0:0:0:0:
389,284,205074,5,0,0:0:0:0:
389,284,205154,1,0,0:0:0:0:
389,284,205234,1,0,0:0:0:0:
478,192,205393,1,0,0:0:0:0:
323,182,205553,1,0,0:0:0:0:
415,93,205712,1,0,0:0:0:0:
393,302,205872,6,0,B|236:290|326:216|168:203,1,239.250007301331
102,315,206510,2,0,B|124:282|124:282|107:237,1,79.7500024337769
54,147,206829,2,0,P|35:175|38:231,1,79.7500024337769
232,129,207148,2,0,P|291:122|408:110,1,159.500004867554
464,185,207627,1,0,0:0:0:0:
358,305,207787,2,0,P|331:270|326:216,1,79.7500024337769
463,346,208106,2,0,P|492:323|512:273,1,79.7500024337769
327,384,208425,2,0,P|270:354|209:188,1,239.250007301331
315,68,209064,2,0,B|329:102|329:102|313:154,1,79.7500024337769
203,185,209383,1,0,0:0:0:0:
129,143,209542,1,0,0:0:0:0:
60,348,209702,5,0,0:0:0:0:
206,280,209861,1,0,0:0:0:0:
201,383,210021,1,0,0:0:0:0:
110,286,210181,1,0,0:0:0:0:
279,194,210340,5,0,0:0:0:0:
383,263,210500,1,0,0:0:0:0:
316,354,210659,1,0,0:0:0:0:
217,290,210819,1,0,0:0:0:0:
304,273,210978,1,0,0:0:0:0:
304,273,211298,2,0,P|350:281|443:310,1,119.625003650665
427,309,211617,2,0,B|420:267|420:267|445:229,1,79.7500024337769
417,58,211936,6,0,P|466:82|503:205,2,159.500004867554
158,153,212893,2,0,P|198:147|238:146,1,79.7500024337769
310,67,213212,1,0,0:0:0:0:
348,183,213372,1,0,0:0:0:0:
348,183,213452,1,0,0:0:0:0:
348,183,213532,2,0,B|353:277|401:217|396:344,1,159.500004867554
268,263,214010,1,0,0:0:0:0:
159,327,214170,2,0,P|215:333|262:352,1,79.7500024337769
402,339,214489,5,0,0:0:0:0:
468,289,214649,1,0,0:0:0:0:
380,210,214808,1,0,0:0:0:0:
281,267,214968,1,0,0:0:0:0:
224,207,215127,2,0,P|164:195|51:190,1,159.500004867554
346,95,215766,5,0,0:0:0:0:
281,31,215925,1,0,0:0:0:0:
404,30,216085,2,0,P|440:95|410:227,1,159.500004867554
393,246,216564,1,0,0:0:0:0:
239,239,216723,2,0,P|283:227|327:220,1,79.7500024337769
160,312,217042,2,0,P|231:321|335:359,1,159.500004867554
428,344,217521,1,0,0:0:0:0:
502,299,217681,2,0,P|511:280|491:217,1,79.7500024337769
412,85,218000,6,0,B|300:98|385:145|234:159,1,159.500004867554
136,220,218478,1,0,0:0:0:0:
136,220,218558,1,0,0:0:0:0:
136,220,218638,2,0,P|168:198|171:80,1,159.500004867554
307,228,219276,2,0,B|274:206|274:206|266:152,1,79.7500024337769
356,27,219595,5,0,0:0:0:0:
384,110,219755,1,0,0:0:0:0:
315,236,219915,1,0,0:0:0:0:
438,208,220074,1,0,0:0:0:0:
416,354,220234,2,0,P|404:331|396:274,1,79.7500024337769
481,40,220553,5,0,0:0:0:0:
385,119,220712,1,0,0:0:0:0:
231,68,220872,1,0,0:0:0:0:
231,68,221191,2,0,P|176:47|84:49,1,119.625003650665
109,48,221510,2,0,B|93:84|93:84|118:141,1,79.7500024337769
0,252,221829,2,0,B|40:247|40:247|63:215,1,79.7500024337769
241,267,222149,1,0,0:0:0:0:
147,200,222308,5,0,0:0:0:0:
147,200,222388,1,0,0:0:0:0:
147,200,222468,1,0,0:0:0:0:
97,303,222627,1,0,0:0:0:0:
189,366,222787,1,0,0:0:0:0:
189,366,223106,2,0,B|286:342|215:304|352:278,1,159.500004867554
510,343,223585,5,0,0:0:0:0:
510,343,223665,1,0,0:0:0:0:
510,343,223744,2,0,P|438:312|414:208,1,159.500004867554
242,208,224383,2,0,P|283:179|294:143,1,79.7500024337769
462,104,224702,1,0,0:0:0:0:
389,69,224861,1,0,0:0:0:0:
289,0,225021,1,0,0:0:0:0:
233,60,225181,1,0,0:0:0:0:
289,0,225340,2,0,B|268:87|334:58|299:188,1,159.500004867554
141,245,225978,6,0,P|112:233|43:284,1,119.625003650665
45,288,226298,2,0,B|96:252|96:252|94:196|46:164,1,159.500004867554
173,0,226776,1,0,0:0:0:0:
173,0,226936,2,0,B|150:34|150:34|160:77,1,79.7500024337769
305,189,227255,2,0,P|241:157|139:156,2,159.500004867554
487,30,228212,6,0,P|471:83|465:122,1,79.7500024337769
431,245,228532,2,0,P|423:193|402:154,1,79.7500024337769
279,88,228851,2,0,P|337:93|408:14,1,159.500004867554
243,11,229329,1,0,0:0:0:0:
189,78,229489,2,0,P|168:118|197:220,1,119.625003650665
185,200,229808,2,0,P|150:188|91:169,1,79.7500024337769
336,223,230127,6,0,P|301:235|242:254,1,79.7500024337769
74,289,230446,1,0,0:0:0:0:
144,352,230606,1,0,0:0:0:0:
345,233,230766,1,0,0:0:0:0:
274,366,230925,1,0,0:0:0:0:
238,258,231085,1,0,0:0:0:0:
392,347,231245,1,0,0:0:0:0:
481,105,231404,6,0,B|390:169|282:125|277:58|277:58|363:108|362:193|326:263|207:293|207:293|247:313|267:373|267:373|299:349|324:305|324:253|284:210|220:201|167:222|167:222|80:261|-11:232|-19:138|27:64|181:58|192:233|97:336|27:368|-24:346,1,1496.00002853394
