osu file format v14

[General]
AudioFilename: audio.mp3
AudioLeadIn: 0
PreviewTime: 62703
Countdown: 0
SampleSet: Soft
StackLeniency: 0.8
Mode: 0
LetterboxInBreaks: 0
WidescreenStoryboard: 1

[Editor]
Bookmarks: 353,13153,38753,64353,89953,93153,105953,131553,157153,182753,185953,189153,201953,214753,217953,230753,233953,243553,246753,262753,266053
DistanceSpacing: 0.7
BeatDivisor: 8
GridSize: 32
TimelineZoom: 1.7

[Metadata]
Title:March of Time
TitleUnicode:March of Time
Artist:Aimer
ArtistUnicode:Aimer
Creator:SeaRasp
Version:Will's Insane
Source:
Tags:エメ BEST SELECTION blanc japanese j-pop jpop pop 新録曲 William K
BeatmapID:2944554
BeatmapSetID:1420718

[Difficulty]
HPDrainRate:5.5
CircleSize:4
OverallDifficulty:7.5
ApproachRate:8.3
SliderMultiplier:2.8
SliderTickRate:1

[Events]
//Background and Video events
0,0,"March of Time.jpg",0,0
//Break Periods
2,96553,104249
//Storyboard Layer 0 (Background)
//Storyboard Layer 1 (Fail)
//Storyboard Layer 2 (Pass)
//Storyboard Layer 3 (Foreground)
//Storyboard Layer 4 (Overlay)
//Storyboard Sound Samples

[TimingPoints]
353,800,4,2,1,20,1,0
353,-250,4,2,1,20,0,0
13153,-125,4,2,1,30,0,0
15153,-250,4,2,1,30,0,0
15953,-125,4,2,1,30,0,0
18353,-250,4,2,1,30,0,0
19153,-125,4,2,1,30,0,0
20753,-250,4,2,1,30,0,0
21553,-125,4,2,1,30,0,0
23053,-125,4,2,1,5,0,0
23153,-125,4,2,1,30,0,0
27953,-250,4,2,1,30,0,0
28753,-125,4,2,1,30,0,0
31153,-250,4,2,1,30,0,0
31953,-125,4,2,1,30,0,0
33553,-250,4,2,1,30,0,0
33853,-250,4,2,1,5,0,0
33953,-250,4,2,1,30,0,0
34753,-125,4,2,1,30,0,0
38353,-100,4,2,1,40,0,0
38653,-100,4,2,1,5,0,0
38753,-100,4,2,1,45,0,0
39853,-100,4,2,1,5,0,0
39953,-100,4,2,1,45,0,0
45053,-100,4,2,1,5,0,0
45153,-100,4,2,1,45,0,0
46653,-100,4,2,1,5,0,0
46753,-100,4,2,1,45,0,0
51453,-100,4,2,1,5,0,0
51553,-100,4,2,1,45,0,0
56353,-142.857142857143,4,2,1,45,0,0
57853,-142.857142857143,4,2,1,5,0,0
57953,-100,4,2,1,45,0,0
58753,-90.9090909090909,4,2,1,45,0,0
59553,-83.3333333333333,4,2,1,55,0,0
60353,-76.9230769230769,4,2,1,65,0,0
61153,-50,4,2,1,75,0,0
61353,-50,4,2,1,5,0,0
61553,-50,4,2,1,75,0,0
61753,-50,4,2,1,5,0,0
61953,-50,4,2,1,75,0,0
62153,-50,4,2,1,5,0,0
62353,-50,4,2,1,75,0,0
62553,-50,4,2,1,5,0,0
62753,-50,4,2,1,60,0,0
63553,-333.333333333333,4,2,1,60,0,0
63853,-333.333333333333,4,2,1,5,0,0
63953,-333.333333333333,4,2,1,65,0,0
64253,-333.333333333333,4,2,1,5,0,0
64353,-83.3333333333333,4,2,1,75,0,1
64653,-83.3333333333333,4,2,1,5,0,1
64753,-83.3333333333333,4,2,1,75,0,1
66753,-166.666666666667,4,2,1,75,0,1
67553,-58.8235294117647,4,2,1,75,0,1
68553,-83.3333333333333,4,2,1,75,0,1
70253,-83.3333333333333,4,2,1,5,0,1
70353,-83.3333333333333,4,2,1,75,0,1
72253,-83.3333333333333,4,2,1,5,0,1
72353,-83.3333333333333,4,2,1,75,0,1
73453,-83.3333333333333,4,2,1,5,0,1
73553,-83.3333333333333,4,2,1,75,0,1
74353,-71.4285714285714,4,2,1,75,0,1
74753,-62.5,4,2,1,75,0,1
75153,-55.5555555555556,4,2,1,75,0,1
75453,-55.5555555555556,4,2,1,5,0,1
75553,-83.3333333333333,4,2,1,75,0,1
76753,-166.666666666667,4,2,1,75,0,0
77053,-166.666666666667,4,2,1,5,0,0
77153,-83.3333333333333,4,2,1,75,0,1
79553,-166.666666666667,4,2,1,75,0,1
79853,-166.666666666667,4,2,1,5,0,1
79953,-166.666666666667,4,2,1,75,0,1
80353,-58.8235294117647,4,2,1,75,0,1
81553,-83.3333333333333,4,2,1,75,0,1
83053,-83.3333333333333,4,2,1,5,0,1
83153,-83.3333333333333,4,2,1,75,0,1
83453,-83.3333333333333,4,2,1,5,0,1
83553,-83.3333333333333,4,2,1,75,0,1
85453,-83.3333333333333,4,2,1,5,0,1
85553,-83.3333333333333,4,2,1,75,0,1
86253,-83.3333333333333,4,2,1,5,0,1
86353,-83.3333333333333,4,2,1,75,0,1
86653,-83.3333333333333,4,2,1,5,0,1
86753,-71.4285714285714,4,2,1,75,0,1
87053,-71.4285714285714,4,2,1,5,0,1
87153,-125,4,2,1,75,0,1
87553,-71.4285714285714,4,2,1,75,0,1
87853,-71.4285714285714,4,2,1,5,0,1
87953,-125,4,2,1,75,0,1
88353,-83.3333333333333,4,2,1,75,0,1
88653,-83.3333333333333,4,2,1,5,0,1
88753,-83.3333333333333,4,2,1,75,0,1
89553,-166.666666666667,4,2,1,75,0,1
89853,-166.666666666667,4,2,1,5,0,1
89953,-166.666666666667,4,2,1,25,0,0
92353,-166.666666666667,4,2,1,75,0,0
93153,-166.666666666667,4,2,1,65,0,0
98253,-166.666666666667,4,2,1,5,0,0
98353,-166.666666666667,4,2,1,65,0,0
101453,-166.666666666667,4,2,1,5,0,0
101553,-166.666666666667,4,2,1,65,0,0
105553,-111.111111111111,4,2,1,65,0,0
105953,-111.111111111111,4,2,1,45,0,0
107953,-166.666666666666,4,2,1,45,0,0
108753,-111.111111111111,4,2,1,45,0,0
111153,-166.666666666666,4,2,1,45,0,0
111953,-111.111111111111,4,2,1,45,0,0
113553,-166.666666666666,4,2,1,45,0,0
114353,-111.111111111111,4,2,1,45,0,0
118353,-99.9999999999999,4,2,1,40,0,0
118653,-99.9999999999999,4,2,1,5,0,0
118753,-99.9999999999999,4,2,1,40,0,0
118853,-99.9999999999999,4,2,1,5,0,0
119153,-99.9999999999999,4,2,1,40,0,0
119553,-76.9230769230769,4,2,1,40,0,0
120353,-111.111111111111,4,2,1,40,0,0
120753,-166.666666666666,4,2,1,40,0,0
121553,-111.111111111111,4,2,1,40,0,0
121953,-99.9999999999999,4,2,1,40,0,0
122053,-99.9999999999999,4,2,1,5,0,0
122353,-99.9999999999999,4,2,1,40,0,0
122753,-76.9230769230769,4,2,1,40,0,0
123553,-111.111111111111,4,2,1,40,0,0
123953,-166.666666666666,4,2,1,40,0,0
124753,-111.111111111111,4,2,1,40,0,0
125153,-99.9999999999999,4,2,1,40,0,0
125253,-99.9999999999999,4,2,1,5,0,0
125553,-99.9999999999999,4,2,1,40,0,0
125953,-76.9230769230769,4,2,1,40,0,0
127153,-111.111111111111,4,2,1,40,0,0
129153,-76.9230769230769,4,2,1,40,0,0
130353,-111.111111111111,4,2,1,40,0,0
131153,-99.9999999999999,4,2,1,40,0,0
131453,-99.9999999999999,4,2,1,5,0,0
131553,-90.9090909090909,4,2,1,55,0,0
136353,-76.9230769230769,4,2,1,55,0,0
137153,-66.6666666666667,4,2,1,55,0,0
137953,-90.9090909090909,4,2,1,55,0,0
141853,-90.9090909090909,4,2,1,5,0,0
141953,-90.9090909090909,4,2,1,55,0,0
142753,-111.111111111111,4,2,1,55,0,0
143553,-142.857142857143,4,2,1,55,0,0
143853,-142.857142857143,4,2,1,5,0,0
143953,-90.9090909090909,4,2,1,55,0,0
144253,-90.9090909090909,4,2,1,5,0,0
144353,-90.9090909090909,4,2,1,55,0,0
147853,-90.9090909090909,4,2,1,5,0,0
147953,-90.9090909090909,4,2,1,55,0,0
148253,-90.9090909090909,4,2,1,5,0,0
148353,-90.9090909090909,4,2,1,55,0,0
148753,-125,4,2,1,55,0,0
150653,-125,4,2,1,5,0,0
150753,-125,4,2,1,55,0,0
151553,-83.3333333333333,4,2,1,55,0,0
152353,-125,4,2,1,65,0,0
153153,-71.4285714285714,4,2,1,65,0,0
153953,-50,4,2,1,75,0,0
154553,-50,4,2,1,5,0,0
154753,-50,4,2,1,75,0,0
154953,-50,4,2,1,5,0,0
155153,-50,4,2,1,75,0,0
155353,-50,4,2,1,5,0,0
155553,-50,4,2,1,60,0,0
156153,-50,4,2,1,65,0,0
156753,-142.857142857143,4,2,1,65,0,0
157053,-142.857142857143,4,2,1,5,0,0
157153,-76.9230769230769,4,2,1,75,0,1
157453,-76.9230769230769,4,2,1,5,0,1
157553,-76.9230769230769,4,2,1,75,0,1
159553,-153.846153846154,4,2,1,75,0,1
160353,-52.6315789473684,4,2,1,75,0,1
161553,-76.9230769230769,4,2,1,75,0,1
163053,-76.9230769230769,4,2,1,5,0,1
163153,-76.9230769230769,4,2,1,75,0,1
166253,-76.9230769230769,4,2,1,5,0,1
166353,-76.9230769230769,4,2,1,75,0,1
167153,-66.6666666666667,4,2,1,75,0,1
167553,-58.8235294117647,4,2,1,75,0,1
167953,-52.6315789473684,4,2,1,75,0,1
168253,-52.6315789473684,4,2,1,5,0,1
168353,-76.9230769230769,4,2,1,75,0,1
169553,-142.857142857143,4,2,1,75,0,0
169853,-142.857142857143,4,2,1,5,0,0
169953,-76.9230769230769,4,2,1,75,0,1
172353,-153.846153846154,4,2,1,75,0,1
172653,-153.846153846154,4,2,1,5,0,1
172753,-153.846153846154,4,2,1,75,0,1
173153,-52.6315789473684,4,2,1,75,0,1
174353,-76.9230769230769,4,2,1,75,0,1
175853,-76.9230769230769,4,2,1,5,0,1
175953,-76.9230769230769,4,2,1,75,0,1
176253,-76.9230769230769,4,2,1,5,0,1
176353,-76.9230769230769,4,2,1,75,0,1
176653,-76.9230769230769,4,2,1,5,0,1
176753,-76.9230769230769,4,2,1,75,0,1
179053,-76.9230769230769,4,2,1,5,0,1
179153,-76.9230769230769,4,2,1,75,0,1
179453,-76.9230769230769,4,2,1,5,0,1
179553,-66.6666666666667,4,2,1,75,0,1
179853,-66.6666666666667,4,2,1,5,0,1
179953,-125,4,2,1,75,0,1
180353,-66.6666666666667,4,2,1,75,0,1
180653,-66.6666666666667,4,2,1,5,0,1
180753,-125,4,2,1,75,0,1
181153,-76.9230769230769,4,2,1,75,0,1
181453,-76.9230769230769,4,2,1,5,0,1
181553,-76.9230769230769,4,2,1,75,0,1
182353,-142.857142857143,4,2,1,75,0,1
182653,-142.857142857143,4,2,1,5,0,1
182753,-142.857142857143,4,2,1,25,0,0
184953,-142.857142857143,4,2,1,75,0,0
185853,-142.857142857143,4,2,1,5,0,0
185953,-83.3333333333334,4,2,1,75,0,0
188653,-83.3333333333334,4,2,1,5,0,0
188753,-83.3333333333334,4,2,1,75,0,0
189553,-83.3333333333334,4,2,1,65,0,0
190653,-83.3333333333334,4,2,1,5,0,0
190753,-83.3333333333334,4,2,1,65,0,0
191053,-83.3333333333334,4,2,1,5,0,0
191153,-83.3333333333334,4,2,1,65,0,0
191453,-83.3333333333334,4,2,1,5,0,0
191553,-83.3333333333334,4,2,1,65,0,0
194653,-83.3333333333334,4,2,1,5,0,0
194753,-83.3333333333334,4,2,1,65,0,0
195853,-83.3333333333334,4,2,1,5,0,0
195953,-83.3333333333334,4,2,1,65,0,0
197053,-83.3333333333334,4,2,1,5,0,0
197153,-83.3333333333334,4,2,1,65,0,0
197853,-83.3333333333334,4,2,1,5,0,0
197953,-83.3333333333334,4,2,1,65,0,0
199053,-83.3333333333334,4,2,1,5,0,0
199153,-83.3333333333334,4,2,1,65,0,0
201053,-83.3333333333334,4,2,1,5,0,0
201153,-83.3333333333334,4,2,1,65,0,0
201953,-83.3333333333334,4,2,1,85,0,0
203153,-111.111111111111,4,2,1,85,0,0
203753,-83.3333333333334,4,2,1,85,0,0
205453,-83.3333333333334,4,2,1,5,0,0
205553,-83.3333333333334,4,2,1,85,0,0
205853,-83.3333333333334,4,2,1,5,0,0
205953,-83.3333333333334,4,2,1,85,0,0
206353,-111.111111111111,4,2,1,85,0,0
207153,-83.3333333333334,4,2,1,85,0,0
207453,-83.3333333333334,4,2,1,5,0,0
207553,-83.3333333333334,4,2,1,85,0,0
208653,-83.3333333333334,4,2,1,5,0,0
208753,-83.3333333333334,4,2,2,75,0,0
209853,-83.3333333333334,4,2,2,5,0,0
209953,-83.3333333333334,4,2,2,75,0,0
211453,-83.3333333333334,4,2,2,5,0,0
211553,-83.3333333333334,4,2,2,75,0,0
212353,-83.3333333333334,4,2,1,75,0,0
213853,-83.3333333333334,4,2,1,5,0,0
213953,-83.3333333333334,4,2,1,75,0,0
216653,-83.3333333333334,4,2,1,5,0,0
216753,-83.3333333333334,4,2,1,75,0,0
219153,-66.6666666666667,4,2,1,75,0,0
221153,-83.3333333333334,4,2,1,75,0,0
222353,-66.6666666666667,4,2,1,75,0,0
223553,-58.8235294117647,4,2,1,75,0,0
224353,-83.3333333333334,4,2,1,75,0,0
225153,-66.6666666666667,4,2,1,75,0,0
225853,-66.6666666666667,4,2,1,5,0,0
225953,-83.3333333333334,4,2,1,75,0,0
226653,-83.3333333333334,4,2,1,5,0,0
226753,-58.8235294117647,4,2,1,75,0,0
227453,-58.8235294117647,4,2,1,5,0,0
227553,-83.3333333333334,4,2,1,85,0,0
227953,-83.3333333333334,4,2,1,75,0,0
229153,-66.6666666666667,4,2,1,75,0,0
230653,-66.6666666666667,4,2,1,5,0,0
230753,-66.6666666666667,4,2,1,10,0,0
233953,-166.666666666667,4,2,1,20,0,0
243153,-66.6666666666667,4,2,1,20,0,0
243453,-66.6666666666667,4,2,1,5,0,0
243553,-111.111111111111,4,2,1,60,0,0
243953,-90.9090909090908,4,2,1,60,0,0
244253,-90.9090909090908,4,2,1,5,0,0
244353,-76.9230769230769,4,2,1,60,0,0
246753,-71.4285714285714,4,2,1,75,0,1
247053,-71.4285714285714,4,2,1,5,0,1
247153,-71.4285714285714,4,2,2,75,0,1
247353,-71.4285714285714,4,2,1,75,0,1
247453,-71.4285714285714,4,2,1,5,0,1
247553,-76.9230769230769,4,2,1,75,0,1
248753,-71.4285714285714,4,2,1,75,0,1
249053,-71.4285714285714,4,2,1,5,0,1
249153,-125,4,2,1,75,0,1
249453,-125,4,2,1,5,0,1
249553,-125,4,2,1,75,0,1
249953,-50,4,2,1,75,0,1
251153,-76.9230769230769,4,2,1,75,0,1
251953,-71.4285714285714,4,2,2,75,0,1
252153,-71.4285714285714,4,2,1,75,0,1
252253,-71.4285714285714,4,2,1,5,0,1
252353,-76.9230769230769,4,2,1,75,0,1
252653,-76.9230769230769,4,2,1,5,0,1
252753,-76.9230769230769,4,2,1,75,0,1
253053,-76.9230769230769,4,2,1,5,0,1
253153,-76.9230769230769,4,2,1,75,0,1
253453,-76.9230769230769,4,2,1,5,0,1
253553,-71.4285714285714,4,2,2,75,0,1
253753,-71.4285714285714,4,2,1,75,0,1
253853,-71.4285714285714,4,2,1,5,0,1
253953,-76.9230769230769,4,2,1,75,0,1
255153,-71.4285714285714,4,2,2,75,0,1
255353,-71.4285714285714,4,2,1,75,0,1
255453,-71.4285714285714,4,2,1,5,0,1
255553,-76.9230769230769,4,2,1,75,0,1
255853,-76.9230769230769,4,2,1,5,0,1
255953,-76.9230769230769,4,2,1,75,0,1
262753,-76.9230769230769,4,2,1,5,0,0
262853,-76.9230769230769,4,2,1,30,0,0
266053,923.076923076923,4,2,1,20,1,0

[Colours]
Combo1 : 245,140,135
Combo2 : 206,206,206
Combo3 : 191,223,249
Combo4 : 162,221,155

[HitObjects]
38,290,353,5,2,0:3:0:0:
97,237,753,1,2,0:0:0:0:
177,239,1153,1,2,0:0:0:0:
97,237,1553,2,0,P|101:206|106:174,1,56,2|0,0:3|0:0,0:0:0:0:
27,363,2353,5,2,0:0:0:0:
97,237,2753,1,2,0:0:0:0:
236,283,3153,1,2,0:0:0:0:
501,227,3553,5,2,0:3:0:0:
442,280,3953,1,2,0:0:0:0:
362,278,4353,1,2,0:0:0:0:
442,280,4753,2,0,P|438:311|433:343,1,56,2|0,0:3|0:3,0:0:0:0:
512,154,5553,5,2,0:0:0:0:
442,280,5953,1,2,0:0:0:0:
303,234,6353,1,2,0:0:0:0:
19,125,6753,5,2,0:3:0:0:
78,72,7153,1,2,0:0:0:0:
158,74,7553,1,2,0:0:0:0:
78,72,7953,2,0,P|82:41|87:9,1,56,2|0,0:3|0:0,0:0:0:0:
8,198,8753,5,2,0:0:0:0:
78,72,9153,1,2,0:0:0:0:
8,198,9553,1,2,0:0:0:0:
211,357,9953,6,0,P|223:338|229:298,1,56,2|2,0:3|0:0,0:0:0:0:
103,113,10753,2,0,P|120:129|157:143,1,56,2|2,0:3|0:0,0:0:0:0:
421,148,11553,2,0,P|398:147|327:209,1,112,2|0,0:0|0:0,0:0:0:0:
330,198,12953,1,2,0:0:0:0:
293,274,13153,6,0,P|265:278|237:283,2,56,2|0|2,0:3|0:0|0:0,0:0:0:0:
365,323,13753,1,2,0:0:0:0:
365,323,13953,2,0,P|392:328|420:332,1,56,2|0,0:3|0:0,0:0:0:0:
458,255,14353,2,0,P|430:249|402:245,1,56,2|0,0:0|0:0,0:0:0:0:
330,198,14753,1,2,0:0:0:0:
330,198,14953,1,2,0:0:0:0:
470,113,15153,6,0,P|477:80|483:50,1,56,2|2,0:0|0:3,0:0:0:0:
473,56,15953,2,0,P|467:83|461:110,1,56,2|0,0:3|0:0,0:0:0:0:
330,198,16353,6,0,P|284:187|266:183,2,56,2|0|0,0:3|0:0|0:0,0:0:0:0:
209,150,16953,2,0,P|239:202|226:263,2,112,2|2|2,0:0|0:0|0:0,0:0:0:0:
106,202,17953,2,0,P|133:208|160:214,1,56,2|2,0:0|0:0,0:0:0:0:
42,113,18353,6,0,P|35:80|29:50,1,56,2|2,0:0|0:3,0:0:0:0:
39,56,19153,2,0,P|44:83|50:110,1,56,2|0,0:0|0:0,0:0:0:0:
106,202,19553,6,0,P|98:251|84:331,2,112,2|2|2,0:3|0:0|0:0,0:0:0:0:
265,384,20753,2,0,P|269:359|276:319,1,56,2|2,0:0|0:3,0:0:0:0:
274,328,21553,2,0,P|314:347|390:330,1,112,2|2,0:0|0:3,0:0:0:0:
481,142,22353,1,2,0:0:0:0:
407,228,22753,6,0,P|395:171|384:103,1,112,2|2,0:3|0:0,0:0:0:0:
146,164,23553,2,0,P|157:109|166:53,1,112,2|2,0:0|0:0,0:0:0:0:
351,17,24353,2,0,P|335:46|158:44,1,224,2|2,0:3|0:3,0:0:0:0:
167,54,25553,2,0,P|162:81|156:109,1,56,2|0,0:3|0:0,0:0:0:0:
33,240,25953,6,0,P|64:230|100:223,1,56,2|2,0:3|0:0,0:0:0:0:
195,280,26353,2,0,P|140:291|86:308,1,112,2|2,0:0|0:3,0:0:0:0:
86,308,26953,1,2,0:0:0:0:
24,372,27153,2,0,P|7:336|-7:313,1,56,2|0,0:0|0:0,0:0:0:0:
7,190,27553,2,0,P|24:226|38:249,1,56,2|2,0:0|0:0,0:0:0:0:
73,84,27953,6,0,P|80:51|86:21,1,56,2|2,0:0|0:3,0:0:0:0:
76,27,28753,2,0,P|71:54|65:81,1,56,2|0,0:3|0:0,0:0:0:0:
99,186,29153,6,0,P|135:178|171:175,2,56,2|2|2,0:3|0:0|0:0,0:0:0:0:
234,147,29753,2,0,P|203:175|198:261,1,112,2|2,0:0|0:0,0:0:0:0:
331,228,30353,2,0,P|303:224|276:217,1,56,2|2,0:0|0:0,0:0:0:0:
319,144,30753,2,0,P|325:116|329:89,1,56,2|2,0:0|0:0,0:0:0:0:
499,58,31153,6,0,P|492:25|486:-5,1,56,2|2,0:0|0:3,0:0:0:0:
496,1,31953,2,0,P|501:28|507:55,1,56,2|0,0:0|0:0,0:0:0:0:
496,205,32353,6,0,P|482:255|466:326,2,112,2|2|2,0:3|0:0|0:3,0:0:0:0:
278,364,33553,2,0,P|285:338|293:303,1,56,2|2,0:0|0:3,0:0:0:0:
410,187,34353,1,2,0:0:0:0:
410,187,34753,2,0,P|396:237|380:308,1,112,2|2,0:0|0:0,0:0:0:0:
185,357,35553,5,2,0:3:0:0:
185,357,36353,1,2,0:3:0:0:
185,357,37153,2,0,P|149:335|70:341,1,112,2|2,0:3|0:0,0:0:0:0:
345,262,37953,2,0,P|383:256|420:234,1,56,6|0,0:3|0:0,0:0:0:0:
232,159,38353,2,0,P|240:227|246:290,1,105,4|0,0:3|0:0,0:0:0:0:
246,281,38753,5,6,3:2:0:0:
449,146,39153,2,0,P|443:108|438:73,1,70,2|2,0:0|0:0,0:0:0:0:
319,42,39553,2,0,P|348:76|452:65,1,140,6|2,0:3|0:0,0:0:0:0:
394,6,40153,1,0,0:0:0:0:
266,111,40353,6,0,P|232:100|195:95,1,70,2|0,0:0|0:0,0:0:0:0:
63,50,40753,2,0,P|97:44|130:34,1,70,2|0,0:0|0:0,0:0:0:0:
266,111,41153,2,0,P|214:112|161:195,1,140,6|2,0:3|3:2,0:0:0:0:
161,176,41953,6,0,P|169:230|174:263,1,70,2|0,3:0|0:0,0:0:0:0:
46,368,42353,2,0,P|63:308|69:228,2,140,2|6|0,0:0|0:3|0:0,0:0:0:0:
46,368,43553,6,0,P|84:358|125:351,1,70,2|0,0:0|0:0,0:0:0:0:
137,215,43953,2,0,P|99:225|58:232,1,70,2|0,0:0|0:0,0:0:0:0:
210,372,44353,2,0,P|200:334|193:293,1,70,6|0,0:3|0:0,0:0:0:0:
246,145,44753,2,0,P|256:183|274:253,1,105,2|0,0:0|0:0,0:0:0:0:
278,265,45153,5,2,3:0:0:0:
474,58,45553,2,0,P|469:100|465:141,1,70,2|2,0:0|0:0,0:0:0:0:
355,69,45953,2,0,P|411:69|468:139,1,140,6|2,0:3|0:0,0:0:0:0:
382,150,46553,1,0,0:0:0:0:
459,283,46753,6,0,P|465:245|481:202,1,70,2|0,0:0|0:0,0:0:0:0:
361,317,47153,2,0,P|355:355|339:398,1,70,2|0,0:0|0:0,0:0:0:0:
459,283,47553,2,0,P|444:248|455:143,1,140,6|0,0:3|3:0,0:0:0:0:
452,148,48353,6,0,P|395:141|362:139,1,70,2|0,3:0|0:0,0:0:0:0:
271,66,48753,2,0,P|320:63|405:31,2,140,2|6|0,0:0|0:3|0:0,0:0:0:0:
271,66,49953,6,0,P|262:111|255:149,1,70,2|0,0:0|0:0,0:0:0:0:
106,197,50353,2,0,P|115:152|122:114,1,70,2|0,0:0|0:0,0:0:0:0:
271,228,50753,2,0,P|226:219|188:211,1,70,6|0,0:3|0:0,0:0:0:0:
17,277,51153,2,0,P|83:290|140:300,1,105,2|0,0:0|0:0,0:0:0:0:
138,301,51553,5,2,3:0:0:0:
455,336,51953,2,0,P|470:293|483:258,1,70,2|0,0:0|0:0,0:0:0:0:
392,242,52353,2,0,P|377:285|364:320,1,70,6|0,0:3|0:0,0:0:0:0:
260,368,52753,2,0,P|273:338|381:313,1,140,2|0,0:0|0:0,0:0:0:0:
353,108,53553,2,0,P|385:104|461:185,1,140,2|6,0:0|0:3,0:0:0:0:
459,171,54353,2,0,P|474:128|487:93,1,70,2|2,0:0|0:0,0:0:0:0:
313,186,54753,6,0,P|256:192|174:202,1,140,2|2,3:0|0:0,0:0:0:0:
113,131,55353,2,0,P|133:98|145:43,1,70,2|6,0:0|0:3,0:0:0:0:
24,180,55753,1,2,0:0:0:0:
24,180,55953,2,0,P|44:213|56:268,1,70,2|0,0:0|0:0,0:0:0:0:
30,363,56353,6,0,P|87:357|141:351,1,97.9999970092774
197,159,57153,2,0,P|254:165|308:171,1,97.9999970092774,6|2,0:3|0:0,0:0:0:0:
492,354,57953,6,0,P|466:324|345:331,1,140,2|0,3:0|0:0,0:0:0:0:
6,243,58753,6,0,P|40:223|155:274,1,154.000004699707,6|0,3:0|0:0,0:0:0:0:
512,123,59553,6,0,P|472:116|385:207,1,167.999994873047,6|2,0:3|0:3,0:0:0:0:
0,0,60353,6,0,P|38:7|96:129,1,181.999991668702,6|0,3:0|0:0,0:0:0:0:
97,123,61153,6,0,B|190:112|190:112|192:113|192:113|260:105|260:105|262:102|262:102|381:87,4,280,10|8|8|8|2,0:0|0:0|0:0|0:0|0:0,0:0:0:0:
474,380,63553,6,0,P|479:351|487:304,1,73.4999977569581,8|2,3:0|0:0,0:0:0:0:
495,230,64353,6,0,P|475:279|345:285,1,167.999994873047,6|2,3:2|3:2,0:0:0:0:
371,303,64953,1,0,0:0:0:0:
478,147,65153,2,0,P|491:214|502:268,1,83.9999974365235,10|0,0:0|0:0,0:0:0:0:
295,358,65553,2,0,P|282:291|271:237,1,83.9999974365235,0|0,3:0|0:0,0:0:0:0:
54,310,65953,6,0,P|81:341|133:347,1,83.9999974365235,2|0,3:0|0:0,0:0:0:0:
172,266,66353,2,0,P|145:235|93:229,1,83.9999974365235,0|0,3:0|0:0,0:0:0:0:
319,198,66753,6,0,P|359:189|386:158,1,83.9999974365235,10|0,0:0|3:0,0:0:0:0:
319,198,67353,1,2,0:0:0:0:
194,73,67553,6,0,B|210:69|222:53|222:53|347:73|263:169|439:158,2,238.00000453949,2|0|8,3:0|3:0|0:0,0:0:0:0:
194,73,68753,2,0,P|203:121|214:178,1,83.9999974365235,2|0,3:2|0:0,0:0:0:0:
34,234,69153,2,0,P|25:186|14:129,1,83.9999974365235,2|0,3:2|0:0,0:0:0:0:
113,29,69553,2,0,P|104:77|93:134,1,83.9999974365235,2|0,3:2|0:0,0:0:0:0:
280,230,69953,2,0,P|289:182|300:125,1,83.9999974365235,10|0,0:0|0:0,0:0:0:0:
458,25,70353,1,2,3:2:0:0:
368,5,70553,1,0,0:0:0:0:
458,25,70753,6,0,P|474:76|484:116,1,83.9999974365235,2|0,3:0|0:0,0:0:0:0:
377,205,71153,2,0,P|382:161|505:113,1,167.999994873047,2|8,3:2|0:0,0:0:0:0:
466,191,71753,1,0,0:0:0:0:
386,104,71953,2,0,P|341:114|247:135,1,125.999996154785,2|0,3:2|0:0,0:0:0:0:
263,131,72353,6,0,P|267:77|273:38,1,83.9999974365235,2|0,3:2|0:0,0:0:0:0:
79,207,72753,2,0,P|84:165|87:123,1,83.9999974365235,2|0,3:2|0:0,0:0:0:0:
311,283,73153,2,0,P|289:242|159:236,1,167.999994873047,10|2,0:0|3:2,0:0:0:0:
178,222,73753,1,2,3:3:0:0:
399,364,73953,6,0,P|429:354|481:344,1,83.9999974365235,2|0,3:0|0:0,0:0:0:0:
311,283,74353,2,0,P|331:259|387:214,1,97.9999970092774,2|0,3:0|0:0,0:0:0:0:
194,256,74753,2,0,P|200:225|231:152,1,112,8|0,0:0|0:0,0:0:0:0:
0,375,75153,2,0,P|65:356|71:246,1,188.999994232178,2|0,3:0|0:0,0:0:0:0:
59,236,75553,6,0,P|44:177|31:132,1,83.9999974365235,2|0,3:2|0:0,0:0:0:0:
204,134,75953,2,0,P|219:193|232:238,1,83.9999974365235,2|0,3:2|0:0,0:0:0:0:
120,21,76353,5,10,0:0:0:0:
310,38,76553,1,8,3:0:0:0:
501,55,76753,2,0,P|495:75|484:123,1,62.9999980773926,0|0,3:0|0:0,0:0:0:0:
486,202,77153,6,0,P|473:161|350:140,1,167.999994873047,6|2,3:2|3:2,0:0:0:0:
363,131,77753,1,0,0:0:0:0:
452,279,77953,2,0,P|475:224|496:179,1,83.9999974365235,8|0,0:0|0:0,0:0:0:0:
299,75,78353,2,0,P|276:130|255:175,1,83.9999974365235,0|0,3:0|0:0,0:0:0:0:
300,362,78753,6,0,P|325:365|377:321,1,83.9999974365235,0|0,3:0|0:0,0:0:0:0:
336,245,79153,2,0,P|311:242|259:286,1,83.9999974365235,0|0,3:0|0:0,0:0:0:0:
113,130,79553,6,0,P|71:129|41:101,1,83.9999974365235,10|2,0:0|3:2,0:0:0:0:
113,130,80153,1,0,0:0:0:0:
232,17,80353,6,0,B|216:13|204:-3|204:-3|79:17|163:113|-13:102,2,238.00000453949,2|2|8,3:0|3:0|0:0,0:0:0:0:
232,17,81553,2,0,P|237:99|239:139,1,83.9999974365235,2|0,3:2|0:0,0:0:0:0:
486,192,81953,2,0,P|481:110|479:70,1,83.9999974365235,2|0,3:2|0:0,0:0:0:0:
314,55,82353,2,0,P|396:50|436:48,1,83.9999974365235,2|0,3:2|0:0,0:0:0:0:
276,191,82753,2,0,P|194:196|154:198,1,83.9999974365235,10|0,0:0|0:0,0:0:0:0:
367,372,83153,2,0,P|413:330|394:244,1,125.999996154785,2|0,3:2|0:0,0:0:0:0:
402,251,83553,5,2,3:0:0:0:
76,352,83953,2,0,P|63:294|46:246,1,83.9999974365235,2|0,3:2|0:0,0:0:0:0:
238,326,84353,2,0,P|194:366|161:404,1,83.9999974365235,10|0,0:0|0:0,0:0:0:0:
36,187,84753,1,2,3:2:0:0:
147,281,84953,1,0,0:0:0:0:
224,82,85153,6,0,P|168:94|135:206,2,167.999994873047,2|2|10,3:0|3:2|0:0,0:0:0:0:
224,82,86153,1,0,0:0:0:0:
217,172,86353,2,0,P|289:159|380:147,1,125.999996154785,2|0,3:2|0:0,0:0:0:0:
384,87,86753,6,0,B|423:119|423:119|395:247,1,146.999995513916,6|0,3:2|0:0,0:0:0:0:
413,218,87153,2,0,L|427:148,1,56,2|0,3:0|0:0,0:0:0:0:
197,340,87553,6,0,B|253:325|253:325|288:331|288:331|368:310,1,146.999995513916,14|0,3:0|0:0,0:0:0:0:
335,306,87953,2,0,L|279:322,1,56
20,188,88353,6,0,P|72:209|77:297,1,125.999996154785,4|0,3:2|0:0,0:0:0:0:
76,291,88753,2,0,P|79:243|120:217,1,83.9999974365235,2|0,0:0|0:0,0:0:0:0:
265,11,89153,5,10,0:0:0:0:
256,188,89353,1,8,3:0:0:0:
243,365,89553,2,0,P|238:326|232:294,1,62.9999980773926,0|0,3:0|0:0,0:0:0:0:
182,222,89953,6,0,L|167:219,16,10.4999996795654,6|0|0|0|0|0|0|0|2|0|0|0|0|0|0|0|0,3:2|0:0|0:0|0:0|0:0|0:0|0:0|0:0|0:0|0:0|0:0|0:0|0:0|0:0|0:0|0:0|0:0,0:0:0:0:
256,190,91553,6,0,L|271:187,14,10.4999996795654,6|0|0|0|0|0|0|0|0|0|0|0|0|0|0,3:2|0:0|0:0|0:0|0:0|0:0|0:0|0:0|0:0|0:0|0:0|0:0|3:0|0:0|0:0,0:0:0:0:
23,93,92353,5,8,0:0:0:0:
255,105,92553,1,8,3:0:0:0:
487,117,92753,2,0,P|491:81|504:33,1,83.9999974365235,0|6,3:0|3:2,0:0:0:0:
256,192,93253,12,2,96353,3:2:0:0:
53,42,104953,5,2,0:0:0:0:
53,42,105053,1,2,0:0:0:0:
53,42,105153,1,10,0:0:0:0:
189,111,105353,1,8,3:0:0:0:
348,67,105553,2,0,P|339:22|336:-13,1,62.9999980773926,2|2,3:0|3:0,0:0:0:0:
189,111,105953,5,6,3:2:0:0:
249,174,106153,1,0,0:0:0:0:
181,228,106353,2,0,P|163:268|163:298,1,62.9999980773926,2|0,3:2|0:0,0:0:0:0:
269,367,106753,1,10,0:0:0:0:
269,367,106953,2,0,P|287:327|287:297,1,62.9999980773926,2|2,0:0|3:2,0:0:0:0:
249,174,107353,1,2,0:0:0:0:
321,221,107553,6,0,P|375:232|410:239,1,62.9999980773926,2|2,3:2|0:0,0:0:0:0:
176,350,107953,6,0,P|141:320|98:317,1,83.9999974365235,2|8,3:2|0:0,0:0:0:0:
108,334,108753,2,0,P|138:360|176:363,1,62.9999980773926,0|2,3:0|0:0,0:0:0:0:
288,308,109153,5,2,3:2:0:0:
363,357,109353,2,0,P|417:342|448:334,1,62.9999980773926,2|2,0:0|3:2,0:0:0:0:
288,308,109753,2,0,P|273:254|265:223,1,62.9999980773926,2|8,0:0|0:0,0:0:0:0:
365,264,110153,2,0,P|419:249|450:241,1,62.9999980773926,2|0,0:0|3:0,0:0:0:0:
364,128,110553,1,2,0:0:0:0:
364,128,110753,2,0,P|339:158|334:197,1,62.9999980773926,2|2,3:2|0:0,0:0:0:0:
176,34,111153,6,0,P|141:64|98:67,1,83.9999974365235,2|8,3:2|0:0,0:0:0:0:
108,50,111953,2,0,P|138:24|176:21,1,62.9999980773926,2|2,3:2|0:0,0:0:0:0:
290,94,112353,6,0,P|383:75|435:63,2,125.999996154785,2|2|10,3:2|3:2|0:0,0:0:0:0:
119,294,113553,2,0,P|63:282|32:275,1,83.9999974365235,2|0,3:2|3:0,0:0:0:0:
36,276,114153,1,0,0:0:0:0:
110,139,114353,2,0,P|101:186|89:220,1,62.9999980773926,2|0,3:2|0:0,0:0:0:0:
220,325,114753,2,0,P|198:262|198:190,1,125.999996154785,8|2,0:0|3:2,0:0:0:0:
394,279,115353,1,2,0:0:0:0:
394,279,115453,1,2,0:0:0:0:
394,279,115553,6,0,P|351:270|306:263,1,62.9999980773926,2|0,3:2|0:0,3:2:0:0:
288,183,115953,2,0,P|331:174|376:167,1,62.9999980773926,2|0,3:2|0:0,0:0:0:0:
253,295,116353,2,0,P|242:329|235:361,1,62.9999980773926,10|0,0:0|0:0,0:0:0:0:
168,269,116753,2,0,P|157:235|150:203,1,62.9999980773926,2|0,3:2|0:0,0:0:0:0:
192,36,117153,5,2,3:0:0:0:
177,114,117353,2,0,P|184:124|182:114,1,31.4999990386963
192,36,117553,2,0,P|265:29|282:28,1,62.9999980773926,2|0,3:0|0:0,0:0:0:0:
419,149,117953,2,0,P|492:142|509:141,1,62.9999980773926,10|8,0:0|3:0,0:0:0:0:
351,20,118353,2,0,P|335:90|322:142,1,105,6|0,3:0|0:0,0:0:0:0:
313,138,118753,6,0,P|319:172|322:187,1,35,6|0,3:2|0:0,0:0:0:0:
467,362,119153,5,2,3:2:0:0:
499,276,119353,1,2,0:0:0:0:
467,362,119553,2,0,B|407:396|343:321|374:298|313:238|227:265,1,272.999987503052,10|2,0:0|0:0,0:0:0:0:
146,352,120353,2,0,P|196:344|220:340,1,62.9999980773926,2|2,3:2|0:0,0:0:0:0:
46,202,120753,6,0,P|20:223|10:286,1,83.9999974365235,2|8,3:2|0:0,0:0:0:0:
29,274,121553,2,0,P|48:258|55:211,1,62.9999980773926,0|2,3:0|0:0,0:0:0:0:
55,41,121953,6,0,P|48:14|40:-12,1,35,2|0,3:2|0:0,0:0:0:0:
188,173,122353,5,2,3:2:0:0:
210,253,122553,1,2,0:0:0:0:
188,173,122753,2,0,B|141:208|96:108|172:59|255:71|301:156,1,272.999987503052,8|2,0:0|0:0,0:0:0:0:
361,85,123553,2,0,P|350:49|351:9,1,62.9999980773926,2|2,3:2|0:0,0:0:0:0:
466,202,123953,6,0,P|492:223|502:286,1,83.9999974365235,2|8,3:2|0:0,0:0:0:0:
483,274,124753,2,0,P|463:258|456:211,1,62.9999980773926,2|0,3:2|0:0,0:0:0:0:
353,365,125153,6,0,P|328:360|312:357,1,35,2|0,3:2|0:0,3:2:0:0:
93,372,125553,1,2,3:2:0:0:
93,372,125953,2,0,B|141:380|179:352|156:294|196:202|308:235,1,272.999987503052,10|2,0:0|0:0,0:0:0:0:
371,270,126753,1,0,3:2:0:0:
371,270,127153,2,0,P|359:320|356:353,1,62.9999980773926,2|0,3:2|0:0,0:0:0:0:
215,198,127553,2,0,P|235:111|240:54,1,125.999996154785,10|2,0:0|3:2,0:0:0:0:
239,74,128153,1,0,0:0:0:0:
323,183,128353,6,0,P|386:172|414:167,1,62.9999980773926,2|0,3:0|0:0,0:0:0:0:
499,39,128753,2,0,B|496:27|498:8|498:8|489:22|466:32,1,62.9999980773926,2|0,3:0|0:0,0:0:0:0:
457,110,129153,2,0,B|484:132|476:163|476:163|426:309|426:309|413:348|469:370,1,272.999987503052,8|0,0:0|0:0,0:0:0:0:
348,270,129953,5,2,3:2:0:0:
258,299,130153,1,0,0:0:0:0:
281,209,130353,2,0,P|292:160|294:129,1,62.9999980773926,2|0,3:2|0:0,0:0:0:0:
257,310,130753,5,10,0:0:0:0:
359,280,130953,1,8,3:0:0:0:
150,338,131153,2,0,P|108:323|36:303,1,105,6|0,3:0|0:0,0:0:0:0:
25,309,131553,5,6,3:2:0:0:
94,42,131953,2,0,P|115:77|104:139,1,77.0000023498536,2|2,3:2|0:0,0:0:0:0:
18,201,132353,2,0,P|29:149|139:121,1,154.000004699707,8|2,0:0|3:2,0:0:0:0:
179,217,132953,1,0,0:0:0:0:
179,217,133153,6,0,P|124:198|80:193,1,77.0000023498536,2|0,3:2|0:0,0:0:0:0:
266,49,133553,2,0,P|230:63|192:71,1,77.0000023498536,2|0,3:2|0:0,0:0:0:0:
179,217,133953,2,0,P|128:228|97:329,1,154.000004699707,10|2,0:0|3:2,0:0:0:0:
92,315,134753,6,0,P|136:323|173:342,1,77.0000023498536,2|0,3:0|0:0,0:0:0:0:
251,154,135153,2,0,P|295:146|332:127,1,77.0000023498536,2|0,3:2|0:0,0:0:0:0:
411,324,135553,6,0,B|361:351|309:290|334:271|285:222|214:244,1,231.000007049561,8|0,0:0|0:0,0:0:0:0:
323,132,136353,2,0,B|322:198|228:216|223:179|144:200|125:286,1,272.999987503052,2|0,3:2|0:0,3:2:0:0:
90,100,137153,2,0,B|157:138|120:242|80:225|56:317|130:385,1,315.000012016297,10|0,0:0|0:0,0:0:0:0:
130,384,137953,5,2,3:2:0:0:
448,312,138353,2,0,P|400:302|350:292,1,77.0000023498536,0|2,3:2|0:0,0:0:0:0:
354,164,138753,2,0,P|392:208|370:298,1,154.000004699707,8|2,0:0|3:2,0:0:0:0:
233,215,139353,1,0,0:0:0:0:
233,215,139553,6,0,P|274:219|310:236,1,77.0000023498536,2|0,3:2|0:0,0:0:0:0:
152,101,139953,2,0,P|193:97|229:80,1,77.0000023498536,2|0,3:2|0:0,0:0:0:0:
233,215,140353,2,0,P|271:259|249:349,1,154.000004699707,10|2,0:0|3:2,0:0:0:0:
251,346,141153,6,0,P|217:329|171:327,1,77.0000023498536,2|0,3:0|0:0,0:0:0:0:
11,266,141553,2,0,P|34:260|73:181,1,115.50000352478,2|0,3:2|0:0,0:0:0:0:
65,167,141953,6,0,L|46:3,1,154.000004699707,8|0,0:0|3:0,0:0:0:0:
265,181,142753,2,0,L|250:53,1,125.999996154785,2|2,3:2|3:2,0:0:0:0:
472,202,143553,2,0,L|461:114,1,73.4999977569581,10|0,0:0|0:0,0:0:0:0:
450,123,143953,2,0,L|466:263,1,115.50000352478,6|0,3:0|0:0,0:0:0:0:
466,266,144353,5,6,3:2:0:0:
217,370,144753,2,0,P|230:318|238:272,1,77.0000023498536,2|0,3:2|0:0,0:0:0:0:
150,252,145153,2,0,P|137:304|129:350,1,77.0000023498536,10|0,0:0|0:0,0:0:0:0:
15,383,145553,2,0,P|42:334|145:336,1,154.000004699707,2|2,3:2|3:0,0:0:0:0:
108,77,146353,2,0,P|163:75|213:166,1,154.000004699707,2|8,3:2|0:0,0:0:0:0:
215,150,146953,1,0,0:0:0:0:
142,212,147153,2,0,P|101:217|50:227,1,77.0000023498536,2|2,3:2|0:0,0:0:0:0:
223,18,147553,6,0,P|296:23|323:23,1,77.0000023498536,2|0,3:2|0:0,0:0:0:0:
494,140,147953,2,0,B|452:100|452:100|390:127,1,115.50000352478,4|0,3:0|0:0,0:0:0:0:
377,142,148353,2,0,L|364:41,1,77.0000023498536,8|2,0:0|0:0,0:0:0:0:
422,321,148753,6,0,P|429:267|442:205,2,112,6|0|2,3:2|3:0|3:0,0:0:0:0:
422,321,149953,5,8,0:0:0:0:
298,268,150153,1,8,3:0:0:0:
177,336,150353,2,0,P|137:347|87:362,1,84,4|0,3:0|0:0,0:0:0:0:
17,363,150753,6,0,P|14:326|76:283,1,112,6|4,3:2|3:0,0:0:0:0:
485,244,151553,6,0,P|515:175|388:184,1,251.999992309571,10|0,0:0|0:0,0:0:0:0:
332,270,152353,6,0,P|383:261|406:257,1,56,2|0,3:2|0:0,0:0:0:0:
218,159,152753,2,0,P|269:168|292:172,1,56,4|0,3:0|0:0,0:0:0:0:
40,125,153153,6,0,P|10:56|144:90,1,293.999991027832,10|0,0:0|3:2,0:0:0:0:
89,218,153953,6,0,B|184:204|184:204|186:206|186:206|256:197|256:197|259:199|259:199|379:179,4,280,6|8|8|8|2,3:2|0:0|0:0|0:0|0:0,0:0:0:0:
89,218,156153,5,8,3:0:0:0:
86,235,156253,1,8,3:0:0:0:
83,252,156353,1,10,0:0:0:0:
108,109,156553,1,8,3:0:0:0:
64,362,156753,6,0,P|100:353|151:342,1,73.4999977569581,2|0,3:2|0:0,0:0:0:0:
246,231,157153,6,0,P|207:261|202:386,1,181.999991668702,6|2,3:2|3:2,0:0:0:0:
201,384,157753,1,0,0:0:0:0:
333,255,157953,2,0,P|272:241|232:224,1,90.9999958343508,8|0,0:0|0:0,0:0:0:0:
425,340,158353,2,0,P|486:354|526:371,1,90.9999958343508,0|0,3:0|0:0,0:0:0:0:
455,138,158753,6,0,P|406:158|391:218,1,90.9999958343508,2|0,3:0|0:0,0:0:0:0:
446,260,159153,2,0,P|488:246|511:207,1,90.9999958343508,0|0,3:0|0:0,0:0:0:0:
174,162,159553,6,0,P|131:148|108:109,1,90.9999958343508,10|0,0:0|3:0,0:0:0:0:
174,162,160153,1,2,0:0:0:0:
311,62,160353,6,0,B|301:38|278:23|278:23|231:110|114:122|114:122|100:102|115:78,2,265.999992897034,2|2|8,3:0|3:0|0:0,0:0:0:0:
311,62,161553,2,0,P|374:68|412:68,1,90.9999958343508,2|0,3:2|0:0,0:0:0:0:
491,232,161953,2,0,P|445:233|400:238,1,90.9999958343508,2|0,3:2|0:0,0:0:0:0:
320,153,162353,2,0,P|314:216|314:254,1,90.9999958343508,2|0,3:2|0:0,0:0:0:0:
125,358,162753,2,0,P|131:295|131:257,1,90.9999958343508,10|0,0:0|0:0,0:0:0:0:
42,56,163153,1,2,3:2:0:0:
125,93,163353,1,0,0:0:0:0:
42,56,163553,6,0,P|35:113|69:162,1,90.9999958343508,2|0,3:0|0:0,0:0:0:0:
206,219,163953,2,0,P|160:184|100:189,1,90.9999958343508,2|0,3:2|0:0,0:0:0:0:
220,372,164353,2,0,P|282:352|423:333,1,181.999991668702,10|2,0:0|3:2,0:0:0:0:
401,338,164953,1,0,0:0:0:0:
503,180,165153,6,0,P|488:225|480:293,1,90.9999958343508,2|0,3:0|0:0,0:0:0:0:
284,127,165553,2,0,P|299:172|307:240,1,90.9999958343508,2|0,3:2|0:0,0:0:0:0:
512,23,165953,2,0,P|485:79|365:103,1,181.999991668702,10|2,0:0|3:2,0:0:0:0:
375,107,166553,1,0,0:0:0:0:
111,26,166753,6,0,P|70:35|36:84,1,90.9999958343508,2|0,3:0|0:0,0:0:0:0:
162,136,167153,2,0,P|130:164|126:232,1,105.000004005432,2|0,3:0|0:0,0:0:0:0:
294,148,167553,2,0,P|281:188|315:257,1,119.000002269745,8|0,0:0|0:0,0:0:0:0:
512,21,167953,2,0,P|472:16|413:160,1,199.499994672775,2|0,3:0|0:0,0:0:0:0:
410,150,168353,6,0,P|490:134|528:125,1,90.9999958343508,2|0,3:2|0:0,0:0:0:0:
312,254,168753,2,0,P|232:270|194:279,1,90.9999958343508,2|0,3:2|0:0,0:0:0:0:
91,192,169153,5,10,0:0:0:0:
310,101,169353,1,8,3:0:0:0:
419,289,169553,2,0,P|411:299|400:364,1,73.4999977569581,0|0,3:0|0:0,0:0:0:0:
470,218,169953,6,0,P|435:256|310:266,1,181.999991668702,6|0,3:2|3:2,3:2:0:0:
311,266,170553,1,0,0:0:0:0:
448,129,170753,2,0,P|458:178|478:239,1,90.9999958343508,8|0,0:0|0:0,0:0:0:0:
285,127,171153,2,0,P|275:78|255:17,1,90.9999958343508,0|0,3:0|0:0,0:0:0:0:
34,90,171553,6,0,P|73:128|128:125,1,90.9999958343508,0|0,3:0|0:0,0:0:0:0:
159,43,171953,2,0,P|120:5|65:8,1,90.9999958343508,0|0,3:0|0:0,0:0:0:0:
226,256,172353,6,0,P|255:222|299:214,1,90.9999958343508,10|2,0:0|3:2,0:0:0:0:
226,256,172953,1,0,0:0:0:0:
428,303,173153,6,0,B|418:327|395:342|395:342|348:255|231:243|231:243|217:263|232:287,2,265.999992897034,2|2|8,3:0|3:0|0:0,0:0:0:0:
428,303,174353,6,0,P|437:246|454:199,1,90.9999958343508,2|0,3:2|0:0,0:0:0:0:
265,44,174753,2,0,P|256:101|239:148,1,90.9999958343508,2|0,3:2|0:0,0:0:0:0:
431,121,175153,2,0,P|374:112|327:95,1,90.9999958343508,2|0,3:2|0:0,0:0:0:0:
253,290,175553,2,0,P|310:299|357:316,1,90.9999958343508,10|0,0:0|0:0,0:0:0:0:
165,212,175953,2,0,P|118:229|97:317,1,136.499993751526,2|0,3:2|0:0,0:0:0:0:
109,327,176353,5,2,3:0:0:0:
194,87,176753,2,0,P|200:46|223:-17,1,90.9999958343508,2|0,3:2|0:0,0:0:0:0:
21,64,177153,2,0,P|53:89|96:141,1,90.9999958343508,10|0,0:0|0:0,0:0:0:0:
286,63,177553,1,2,3:2:0:0:
114,33,177753,1,0,0:0:0:0:
180,198,177953,6,0,P|249:178|365:167,2,181.999991668702,2|2|10,3:0|3:2|0:0,0:0:0:0:
180,198,178953,1,0,0:0:0:0:
62,378,179153,2,0,P|49:314|29:238,1,136.499993751526,2|0,3:2|0:0,0:0:0:0:
182,334,179553,6,0,B|246:324|246:324|273:336|273:336|360:322,1,157.500006008148,4|0,3:2|0:0,0:0:0:0:
369,303,179953,2,0,L|300:316,1,56
187,59,180353,6,0,B|150:98|150:98|186:221,1,157.500006008148,14|0,3:0|0:0,0:0:0:0:
196,200,180753,2,0,L|177:138,1,56
466,149,181153,6,0,P|410:134|420:39,1,136.499993751526,6|0,3:2|0:0,0:0:0:0:
411,47,181553,2,0,P|424:76|384:128,1,90.9999958343508,2|0,0:0|0:0,0:0:0:0:
267,361,181953,5,10,0:0:0:0:
256,194,182153,1,8,3:0:0:0:
245,27,182353,2,0,P|240:64|227:117,1,73.4999977569581,0|0,3:0|0:0,0:0:0:0:
179,166,182753,6,0,L|156:162,15,12.2499996261597,6|0|0|0|0|0|0|0|2|0|0|0|0|0|0|0,3:2|0:0|0:0|0:0|0:0|0:0|0:0|0:0|0:0|0:0|0:0|0:0|0:0|0:0|0:0|0:0,0:0:0:0:
256,194,184353,6,0,L|268:191,10,12.2499996261597,6|0|0|0|0|0|0|0|0|0|0,3:2|0:0|0:0|0:0|0:0|0:0|0:0|0:0|0:0|0:0|0:0,0:0:0:0:
188,248,184953,5,8,0:0:0:0:
332,286,185153,1,8,0:0:0:0:
116,306,185353,5,8,3:0:0:0:
385,209,185553,2,0,P|395:169|409:117,1,73.4999977569581,0|0,3:0|0:0,0:0:0:0:
480,58,185953,6,0,P|442:91|328:76,1,167.999994873047,6|6,3:2|3:0,0:0:0:0:
331,79,186753,2,0,P|267:68|228:60,1,83.9999974365235,10|0,0:0|0:0,0:0:0:0:
39,200,187153,2,0,P|103:211|142:219,1,83.9999974365235
434,288,187553,5,0,3:0:0:0:
394,376,187753,1,0,3:0:0:0:
339,224,187953,5,2,3:0:0:0:
309,335,188153,1,8,3:0:0:0:
225,183,188353,5,8,0:0:0:0:
212,320,188553,1,0,0:0:0:0:
316,123,188753,5,2,3:2:0:0:
293,24,188953,1,2,3:2:0:0:
121,214,189153,6,0,P|80:206|39:200,1,83.9999974365235,6|0,3:2|0:0,0:0:0:0:
126,44,189553,2,0,P|150:84|146:138,1,83.9999974365235,2|0,3:2|0:0,0:0:0:0:
204,275,189953,2,0,P|206:233|229:198,1,83.9999974365235,10|0,0:0|0:0,0:0:0:0:
260,110,190353,2,0,P|301:103|391:89,1,125.999996154785,2|0,3:2|0:0,0:0:0:0:
410,104,190753,6,0,P|420:54|426:12,1,83.9999974365235,2|0,3:0|0:0,0:0:0:0:
476,231,191153,2,0,B|484:279|484:279|481:287|481:287|494:371,1,125.999996154785,4|0,3:0|0:0,0:0:0:0:
491,354,191553,1,10,0:0:0:0:
388,262,191753,1,2,0:3:0:0:
308,376,191953,2,0,P|374:360|413:353,1,83.9999974365235,2|0,3:2|0:0,0:0:0:0:
329,139,192353,6,0,P|295:166|306:291,1,167.999994873047,2|2,3:0|3:2,3:2:0:0:
388,262,192953,1,2,0:0:0:0:
166,379,193153,2,0,P|109:364|-12:355,1,167.999994873047,8|0,0:0|3:0,0:0:0:0:
0,354,193753,1,0,0:0:0:0:
191,291,193953,6,0,P|182:233|182:195,1,83.9999974365235,2|0,3:0|0:0,0:0:0:0:
0,161,194353,2,0,B|13:100|13:100|20:97|20:97|37:20,1,125.999996154785,6|0,3:0|0:0,0:0:0:0:
36,46,194753,2,0,P|79:88|116:89,1,83.9999974365235,8|2,0:0|0:0,0:0:0:0:
295,22,195153,1,2,3:2:0:0:
181,207,195353,1,2,0:0:0:0:
188,13,195553,6,0,P|202:68|212:121,1,83.9999974365235,2|0,3:2|0:0,0:0:0:0:
324,207,195953,2,0,P|310:152|300:99,1,83.9999974365235,2|0,3:2|0:0,0:0:0:0:
181,207,196353,2,0,P|133:197|72:185,1,83.9999974365235,10|0,0:0|0:0,0:0:0:0:
295,22,196753,2,0,P|357:34|436:50,1,125.999996154785,2|0,3:2|0:0,0:0:0:0:
451,39,197153,6,0,P|423:78|424:136,1,83.9999974365235,2|0,3:0|0:0,3:0:0:0:
333,309,197553,2,0,B|387:301|387:301|393:307|393:307|473:297,1,125.999996154785,4|0,3:0|0:0,0:0:0:0:
455,299,197953,2,0,P|470:237|482:201,1,83.9999974365235,10|0,0:0|0:0,0:0:0:0:
244,284,198353,2,0,P|241:335|268:375,1,83.9999974365235,2|0,3:2|0:0,0:0:0:0:
377,199,198753,6,0,P|289:181|185:160,1,167.999994873047,2|2,3:0|3:2,0:0:0:0:
156,97,199353,1,2,0:0:0:0:
60,282,199553,2,0,P|32:206|73:136,1,167.999994873047,8|0,0:0|3:0,0:0:0:0:
73,136,200153,1,0,0:0:0:0:
218,297,200353,6,0,P|206:363|201:393,1,83.9999974365235,2|0,3:0|0:0,0:0:0:0:
121,213,200753,2,0,B|134:152|134:152|143:149|143:149|159:83,1,125.999996154785,6|0,3:0|0:0,0:0:0:0:
155,96,201153,5,10,0:0:0:0:
379,162,201353,1,8,3:0:0:0:
264,67,201553,5,2,3:2:0:0:
271,172,201753,1,0,0:0:0:0:
443,372,201953,6,0,P|455:318|481:204,1,167.999994873047,6|2,3:2|0:0,0:0:0:0:
480,208,202553,1,8,0:0:0:0:
353,356,202753,2,0,P|360:323|375:255,1,83.9999974365235,8|0,3:0|3:0,0:0:0:0:
510,78,203153,6,0,P|488:101|396:112,1,125.999996154785,6|0,3:2|3:0,0:0:0:0:
216,27,203753,6,0,P|266:42|293:89,1,83.9999974365235,8|2,0:0|3:2,0:0:0:0:
209,114,204153,1,0,0:0:0:0:
47,23,204353,1,8,0:0:0:0:
56,110,204553,1,8,3:0:0:0:
65,197,204753,1,0,3:0:0:0:
65,197,205153,6,0,P|56:283|54:302,1,83.9999974365235,6|0,3:2|0:0,0:0:0:0:
255,384,205553,2,0,B|264:324|264:324|259:316|259:316|268:243,1,125.999996154785,6|0,3:0|0:0,0:0:0:0:
265,260,205953,2,0,P|219:239|178:250,1,83.9999974365235,10|0,0:0|0:0,0:0:0:0:
389,373,206353,6,0,P|424:365|457:281,1,125.999996154785,6|0,3:2|0:0,0:0:0:0:
459,289,207153,6,0,B|468:229|468:229|463:221|463:221|472:148,1,125.999996154785,6|0,3:0|0:0,0:0:0:0:
469,165,207553,1,10,0:0:0:0:
344,148,207753,1,8,3:0:0:0:
218,130,207953,1,0,3:0:0:0:
218,130,208353,6,0,P|242:171|192:280,1,167.999994873047,6|4,3:2|3:0,0:0:0:0:
450,302,209153,2,0,P|426:343|307:354,1,167.999994873047,12|6,3:0|3:0,0:0:0:0:
315,359,209753,1,0,0:0:0:0:
385,196,209953,6,0,P|369:253|365:296,1,83.9999974365235,6|0,3:0|0:0,0:0:0:0:
212,379,210353,2,0,P|228:322|232:279,1,83.9999974365235,6|0,3:0|0:0,0:0:0:0:
44,256,210753,2,0,P|101:245|150:238,1,83.9999974365235,12|0,3:0|0:0,0:0:0:0:
201,42,211153,2,0,P|144:53|95:60,1,83.9999974365235,6|0,3:0|0:0,0:0:0:0:
25,166,211553,6,0,P|114:148|192:137,1,167.999994873047,6|6,3:0|3:0,0:0:0:0:
190,137,212153,1,0,0:0:0:0:
366,30,212353,2,0,P|325:44|290:163,1,167.999994873047,12|4,3:0|3:0,0:0:0:0:
285,152,212953,1,2,0:3:0:0:
382,301,213153,6,0,P|433:282|465:279,1,83.9999974365235,6|0,3:0|0:0,0:0:0:0:
379,121,213553,2,0,P|395:159|400:201,1,83.9999974365235,6|0,3:0|0:0,0:0:0:0:
316,365,213953,5,14,3:0:0:0:
203,350,214153,1,8,3:0:0:0:
90,335,214353,1,6,3:0:0:0:
90,335,214753,6,0,P|98:286|111:218,1,83.9999974365235,6|0,3:2|0:0,0:0:0:0:
247,217,215153,2,0,P|239:175|232:134,1,83.9999974365235,8|0,0:0|0:0,0:0:0:0:
30,19,215553,5,8,0:0:0:0:
143,166,215753,1,8,3:0:0:0:
122,6,215953,1,0,3:0:0:0:
51,179,216153,1,0,3:0:0:0:
214,7,216353,6,0,P|320:25|328:26,1,83.9999974365235,6|0,3:2|0:0,0:0:0:0:
508,136,216753,5,0,3:0:0:0:
387,175,216953,1,8,3:0:0:0:
472,58,217153,5,8,3:0:0:0:
373,263,217353,1,8,0:0:0:0:
390,33,217553,5,10,0:0:0:0:
457,234,217753,1,10,0:0:0:0:
270,359,217953,6,0,P|221:340|176:330,1,83.9999974365235,6|0,3:2|0:0,0:0:0:0:
223,169,218353,2,0,P|231:220|244:264,1,83.9999974365235,2|0,3:0|0:0,0:0:0:0:
82,305,218753,2,0,P|122:272|154:238,1,83.9999974365235,8|0,0:0|0:0,0:0:0:0:
280,34,219153,6,0,B|239:72|182:35|202:21|161:99|188:77|119:24|66:79,2,210.000008010865,2|2|2,3:2|3:2|3:2,0:0:0:0:
280,34,220353,2,0,B|258:16|294:5|305:40|305:40|316:77|288:117|288:117|239:146|230:229|327:247|359:208|356:168,1,315.000012016297,10|0,0:0|0:0,0:0:0:0:
476,153,221153,6,0,P|419:141|385:132,1,83.9999974365235,2|0,3:0|0:0,0:0:0:0:
455,298,221553,2,0,P|482:267|511:237,1,83.9999974365235,2|0,3:0|0:0,0:0:0:0:
339,208,221953,2,0,P|352:247|363:288,1,83.9999974365235,8|0,0:0|0:0,0:0:0:0:
97,365,222353,6,0,B|59:324|96:267|110:287|32:246|54:273|107:204|52:151,2,210.000008010865,2|2|2,3:2|3:2|3:2,0:0:0:0:
63,164,223553,2,0,B|19:188|19:188|43:127|43:127|259:167|259:167|275:186,1,357.000006809235,10|2,0:0|0:3,0:0:0:0:
272,183,224353,6,0,P|266:119|262:92,1,83.9999974365235,2|0,3:0|0:0,3:0:0:0:
428,28,224753,2,0,P|434:92|438:119,1,83.9999974365235,2|0,3:0|0:0,0:0:0:0:
374,317,225153,6,0,B|389:334|404:334|405:334|486:311,1,105.000004005432,10|2,0:0|0:0,0:0:0:0:
441,115,225553,2,0,B|408:112|399:142|399:142|430:280,1,157.500006008148,2|0,3:2|0:0,0:0:0:0:
421,241,225953,6,0,P|353:218|308:216,1,83.9999974365235,2|0,3:0|0:0,0:0:0:0:
137,343,226353,2,0,P|205:366|250:368,1,83.9999974365235,2|0,3:0|0:0,0:0:0:0:
289,139,226753,6,0,B|264:164|219:180|219:158|239:149|252:189|241:224,1,119.000002269745,10|2,0:0|0:0,0:0:0:0:
462,278,227153,2,0,B|412:267|356:286|369:315|395:312|377:251|341:216,1,178.500003404617,2|0,3:2|0:0,0:0:0:0:
289,139,227553,6,0,P|215:144|180:147,1,83.9999974365235,6|0,3:2|0:0,0:0:0:0:
207,272,227953,2,0,P|133:267|98:264,1,83.9999974365235,2|0,3:2|0:0,0:0:0:0:
165,56,228353,2,0,P|91:61|56:64,1,83.9999974365235,14|0,3:0|0:0,0:0:0:0:
85,159,228753,2,0,P|11:154|-24:151,1,83.9999974365235,2|0,3:0|0:0,0:0:0:0:
27,356,229153,6,0,B|51:370|79:363|79:363|108:280|207:281,1,210.000008010865,6|2,3:2|3:2,3:2:0:0:
199,281,229953,2,0,P|228:310|193:301,1,105.000004005432,10|0,0:0|3:0,0:0:0:0:
27,271,230353,2,0,B|38:197|7:222|99:177|79:210|95:94,1,157.500006008148,10|0,0:0|0:0,0:0:0:0:
61,69,230753,6,0,L|56:36,30,26.2500010013581,4|0|0|0|0|0|0|0|0|0|0|0|0|0|0|0|0|0|0|0|0|0|0|0|0|0|0|0|0|0|0,3:0|0:0|0:0|0:0|0:0|0:0|0:0|0:0|0:0|0:0|0:0|0:0|0:0|0:0|0:0|0:0|0:0|0:0|0:0|0:0|0:0|0:0|0:0|0:0|0:0|0:0|0:0|0:0|0:0|0:0|0:0,0:0:0:0:
145,77,232353,6,0,L|140:44,30,26.2500010013581,6|0|0|0|0|0|0|0|0|0|0|0|0|0|0|0|0|0|0|0|0|0|0|0|0|0|0|0|0|0|0,3:0|0:0|0:0|0:0|0:0|0:0|0:0|0:0|0:0|0:0|0:0|0:0|0:0|0:0|0:0|0:0|0:0|0:0|0:0|0:0|0:0|0:0|0:0|0:0|0:0|0:0|0:0|0:0|0:0|0:0|0:0,0:0:0:0:
229,81,233953,5,2,0:3:0:0:
302,153,234353,2,0,P|349:144|387:142,2,83.9999974365235,2|2|2,0:0|0:3|0:3,0:0:0:0:
228,224,235553,2,0,P|219:259|234:317,1,83.9999974365235,2|2,0:3|0:3,0:0:0:0:
452,351,236353,2,0,P|431:317|348:309,1,125.999996154785,2|2,0:0|0:0,0:0:0:0:
351,307,237153,6,0,P|357:256|384:132,1,167.999994873047,2|2,0:3|0:3,0:0:0:0:
332,53,238353,1,2,0:0:0:0:
332,53,238753,2,0,P|369:38|428:39,1,83.9999974365235,2|2,0:0|0:0,0:0:0:0:
470,123,239553,2,0,P|433:138|374:137,1,83.9999974365235,2|2,0:0|0:0,0:0:0:0:
228,224,240353,5,2,0:3:0:0:
163,145,240753,2,0,P|126:158|80:168,1,83.9999974365235,2|2,0:0|0:3,0:0:0:0:
207,305,241553,1,2,0:0:0:0:
207,305,241953,2,0,P|214:266|228:221,1,83.9999974365235,2|2,0:0|0:0,0:0:0:0:
36,37,242753,1,2,0:0:0:0:
36,37,243153,2,0,B|55:33|66:50|66:50|29:197,1,157.500006008148
36,168,243553,6,0,P|78:186|107:216,1,62.9999980773926,2|0,3:0|0:0,0:0:0:0:
156,56,243953,2,0,P|183:91|191:138,1,77.0000023498536,0|0,3:0|0:0,0:0:0:0:
422,215,244353,5,8,0:0:0:0:
317,142,244553,1,8,3:0:0:0:
411,316,244753,5,2,3:0:0:0:
423,89,244953,1,8,0:0:0:0:
223,203,245153,5,2,3:2:0:0:
223,203,245286,2,0,L|239:294,1,60.6666638895672,8|8,0:0|0:0,0:0:0:0:
82,352,245553,1,10,0:0:0:0:
82,352,245686,2,0,L|66:261,1,60.6666638895672,8|8,0:0|0:0,0:0:0:0:
2,64,245953,5,10,0:0:0:0:
47,48,246086,1,8,3:0:0:0:
91,67,246219,1,8,3:0:0:0:
126,98,246353,1,2,3:2:0:0:
169,119,246486,1,0,3:0:0:0:
211,98,246619,1,0,3:0:0:0:
245,17,246753,6,0,P|311:27|378:37,1,97.9999970092774,6|0,3:2|0:0,0:0:0:0:
480,233,247153,2,0,B|500:225|501:203|501:203|473:87,1,146.999995513916,6|0,3:0|0:0,0:0:0:0:
475,98,247553,2,0,P|418:113|365:125,1,90.9999958343508,8|0,0:0|0:0,0:0:0:0:
322,280,247953,2,0,P|367:291|411:303,1,90.9999958343508,0|0,3:0|0:0,0:0:0:0:
289,170,248353,6,0,P|241:190|211:263,1,90.9999958343508,2|0,3:0|0:0,0:0:0:0:
9,328,248753,2,0,B|5:358|28:366|28:366|135:353,1,146.999995513916,4|0,3:0|0:0,0:0:0:0:
210,383,249153,6,0,P|220:336|228:308,1,56,10|0,0:0|0:0,0:0:0:0:
18,214,249553,2,0,P|25:187|31:160,1,56,2|0,3:2|0:0,0:0:0:0:
222,328,249953,6,0,B|193:335|164:315|164:315|142:219|61:191|61:191|47:213|1:218,2,280,2|4|8,3:0|3:0|0:0,0:0:0:0:
222,328,251153,6,0,P|283:313|336:311,1,90.9999958343508,2|0,3:2|0:0,0:0:0:0:
472,207,251553,2,0,P|477:252|489:295,1,90.9999958343508,2|0,3:2|0:0,0:0:0:0:
214,181,251953,2,0,B|216:213|254:219|254:219|377:199,1,146.999995513916,6|0,3:0|0:0,0:0:0:0:
339,205,252353,2,0,P|333:159|321:116,1,90.9999958343508,10|0,0:0|0:0,0:0:0:0:
512,0,252753,2,0,P|464:23|465:119,1,136.499993751526,2|0,3:2|0:0,0:0:0:0:
477,120,253153,5,2,3:0:0:0:
225,26,253553,2,0,B|201:1|168:10|168:10|78:41,1,146.999995513916,6|0,3:0|0:0,0:0:0:0:
88,37,253953,2,0,P|106:86|99:132,1,90.9999958343508,10|0,0:0|0:0,0:0:0:0:
25,263,254353,1,2,3:2:0:0:
15,90,254553,1,0,0:0:0:0:
109,216,254753,6,0,P|172:202|221:201,1,90.9999958343508,2|0,3:0|0:0,0:0:0:0:
383,371,255153,2,0,B|353:371|349:342|349:342|373:239,1,146.999995513916,6|0,3:0|0:0,0:0:0:0:
371,247,255553,2,0,P|434:233|483:232,1,90.9999958343508,10|0,0:0|0:0,0:0:0:0:
329,80,255953,2,0,P|309:141|285:184,1,90.9999958343508,2|0,3:2|0:0,0:0:0:0:
56,363,256353,5,4,3:2:0:0:
123,172,256553,1,10,0:0:0:0:
3,9,256753,2,0,P|22:56|29:121,1,90.9999958343508,10|0,0:0|0:0,0:0:0:0:
125,282,257153,5,10,3:0:0:0:
203,105,257353,1,0,3:0:0:0:
27,232,257553,1,2,3:0:0:0:
223,320,257753,1,8,0:0:0:0:
123,172,257953,5,2,3:2:0:0:
117,139,258053,1,0,3:0:0:0:
113,106,258153,1,0,3:0:0:0:
110,74,258253,1,0,3:0:0:0:
104,41,258353,2,0,P|61:32|43:32,1,45.4999979171754,8|8,3:0|3:0,0:0:0:0:
203,105,258553,2,0,P|247:96|251:95,1,45.4999979171754,8|8,3:0|3:0,0:0:0:0:
288,19,258753,6,0,P|339:29|375:36,3,45.4999979171754,0|0|0|0,3:0|3:0|3:0|3:0,3:0:0:0:
424,54,259153,2,0,P|437:14|443:-5,1,45.4999979171754,10|8,0:0|0:0,0:0:0:0:
333,146,259353,2,0,P|340:167|347:189,1,45.4999979171754,8|8,3:0|3:0,0:0:0:0:
512,90,259553,6,0,P|499:163|483:286,1,181.999991668702,6|2,3:2|0:0,0:0:0:0:
484,269,260153,1,0,3:0:0:0:
254,189,260353,5,0,3:0:0:0:
316,250,260553,1,0,3:0:0:0:
338,167,260753,1,8,3:0:0:0:
231,273,260953,1,8,3:0:0:0:
400,228,261153,5,8,3:0:0:0:
191,128,261353,1,8,3:0:0:0:
378,311,261553,1,10,0:0:0:0:
276,106,261753,1,8,0:0:0:0:
208,357,261953,5,10,0:0:0:0:
338,167,262153,1,8,0:0:0:0:
108,149,262353,1,10,0:0:0:0:
400,228,262553,2,0,P|421:190|416:127,1,90.9999958343508,4|0,3:0|0:0,0:0:0:0:
256,192,262853,12,2,266053,0:3:0:0:
