osu file format v14

[General]
AudioFilename: audio.mp3
AudioLeadIn: 0
PreviewTime: 62703
Countdown: 0
SampleSet: Soft
StackLeniency: 0.8
Mode: 0
LetterboxInBreaks: 0
WidescreenStoryboard: 0

[Editor]
Bookmarks: 353,13153,38753,64353,89953,93153,105953,131553,157153,182753,185953,189153,201953,214753,217953,230753,233953,243553,246753,262753,266053
DistanceSpacing: 0.7
BeatDivisor: 8
GridSize: 32
TimelineZoom: 1.5

[Metadata]
Title:March of Time
TitleUnicode:March of Time
Artist:Aimer
ArtistUnicode:Aimer
Creator:SeaRasp
Version:Bittersweet memories
Source:
Tags:エメ BEST SELECTION blanc japanese j-pop jpop pop 新録曲 William K
BeatmapID:2926414
BeatmapSetID:1420718

[Difficulty]
HPDrainRate:6
CircleSize:4.5
OverallDifficulty:8
ApproachRate:8.5
SliderMultiplier:3.2
SliderTickRate:1

[Events]
//Background and Video events
0,0,"March of Time.jpg",0,0
//Break Periods
//Storyboard Layer 0 (Background)
//Storyboard Layer 1 (Fail)
//Storyboard Layer 2 (Pass)
//Storyboard Layer 3 (Foreground)
//Storyboard Layer 4 (Overlay)
//Storyboard Sound Samples

[TimingPoints]
353,800,4,2,1,20,1,0
353,-333.333333333333,4,2,1,20,0,0
11553,-666.666666666667,4,2,1,20,0,0
13153,-133.333333333333,4,2,1,30,0,0
23053,-133.333333333333,4,2,1,5,0,0
23153,-133.333333333333,4,2,1,30,0,0
24353,-285.714285714286,4,2,1,30,0,0
25553,-133.333333333333,4,2,1,30,0,0
33853,-133.333333333333,4,2,1,5,0,0
33953,-133.333333333333,4,2,1,30,0,0
35553,-166.666666666667,4,2,1,30,0,0
38353,-222.222222222222,4,2,1,40,0,0
38753,-111.111111111111,4,2,1,45,0,0
39853,-111.111111111111,4,2,1,5,0,0
39953,-111.111111111111,4,2,1,45,0,0
46653,-111.111111111111,4,2,1,5,0,0
46753,-111.111111111111,4,2,1,45,0,0
51453,-111.111111111111,4,2,1,5,0,0
51553,-111.111111111111,4,2,1,45,0,0
57853,-111.111111111111,4,2,1,5,0,0
57953,-111.111111111111,4,2,1,45,0,0
59553,-111.111111111111,4,2,1,55,0,0
60353,-111.111111111111,4,2,1,65,0,0
61153,-90.9090909090909,4,2,1,75,0,0
61353,-90.9090909090909,4,2,1,5,0,0
61553,-90.9090909090909,4,2,1,75,0,0
61753,-90.9090909090909,4,2,1,5,0,0
61953,-90.9090909090909,4,2,1,75,0,0
62153,-90.9090909090909,4,2,1,5,0,0
62353,-90.9090909090909,4,2,1,75,0,0
62553,-90.9090909090909,4,2,1,5,0,0
62753,-90.9090909090909,4,2,1,60,0,0
63853,-90.9090909090909,4,2,1,5,0,0
63953,-66.6666666666667,4,2,1,65,0,0
64353,-90.9090909090909,4,2,1,75,0,1
64653,-90.9090909090909,4,2,1,5,0,1
64753,-90.9090909090909,4,2,1,75,0,1
70253,-90.9090909090909,4,2,1,5,0,1
70353,-90.9090909090909,4,2,1,75,0,1
73453,-90.9090909090909,4,2,1,5,0,1
73553,-90.9090909090909,4,2,1,75,0,1
79853,-90.9090909090909,4,2,1,5,0,1
79953,-90.9090909090909,4,2,1,75,0,1
83053,-90.9090909090909,4,2,1,5,0,1
83153,-90.9090909090909,4,2,1,75,0,1
85453,-90.9090909090909,4,2,1,5,0,1
85553,-90.9090909090909,4,2,1,75,0,1
86253,-90.9090909090909,4,2,1,5,0,1
86353,-90.9090909090909,4,2,1,75,0,1
87053,-90.9090909090909,4,2,1,5,0,1
87153,-90.9090909090909,4,2,1,75,0,1
89953,-90.9090909090909,4,2,1,75,0,0
91153,-133.333333333333,4,2,1,75,0,0
92753,-222.222222222222,4,2,1,75,0,0
93153,-111.111111111111,4,2,1,65,0,0
98253,-111.111111111111,4,2,1,5,0,0
98353,-111.111111111111,4,2,1,65,0,0
101453,-111.111111111111,4,2,1,5,0,0
101553,-111.111111111111,4,2,1,65,0,0
105953,-133.333333333333,4,2,1,45,0,0
118353,-222.222222222222,4,2,1,40,0,0
118753,-133.333333333333,4,2,1,40,0,0
131153,-222.222222222222,4,2,1,40,0,0
131553,-111.111111111111,4,2,1,55,0,0
143953,-222.222222222222,4,2,1,55,0,0
144353,-111.111111111111,4,2,1,55,0,0
147853,-111.111111111111,4,2,1,5,0,0
147953,-111.111111111111,4,2,1,55,0,0
150353,-222.222222222222,4,2,1,55,0,0
150753,-111.111111111111,4,2,1,55,0,0
152353,-111.111111111111,4,2,1,65,0,0
153953,-90.9090909090909,4,2,1,75,0,0
154353,-90.9090909090909,4,2,1,75,0,0
154553,-90.9090909090909,4,2,1,5,0,0
154753,-90.9090909090909,4,2,1,75,0,0
154953,-90.9090909090909,4,2,1,5,0,0
155153,-90.9090909090909,4,2,1,75,0,0
155353,-90.9090909090909,4,2,1,5,0,0
155553,-142.857142857143,4,2,1,60,0,0
156153,-142.857142857143,4,2,1,65,0,0
157153,-90.9090909090909,4,2,1,75,0,1
157453,-90.9090909090909,4,2,1,5,0,1
157553,-90.9090909090909,4,2,1,75,0,1
163053,-90.9090909090909,4,2,1,5,0,1
163153,-90.9090909090909,4,2,1,75,0,1
166253,-90.9090909090909,4,2,1,5,0,1
166353,-90.9090909090909,4,2,1,75,0,1
172653,-90.9090909090909,4,2,1,5,0,1
172753,-90.9090909090909,4,2,1,75,0,1
175853,-90.9090909090909,4,2,1,5,0,1
175953,-90.9090909090909,4,2,1,75,0,1
176653,-90.9090909090909,4,2,1,5,0,1
176753,-90.9090909090909,4,2,1,75,0,1
179053,-90.9090909090909,4,2,1,5,0,1
179153,-90.9090909090909,4,2,1,75,0,1
179853,-90.9090909090909,4,2,1,5,0,1
179953,-90.9090909090909,4,2,1,75,0,1
182753,-90.9090909090909,4,2,1,75,0,0
183953,-133.333333333333,4,2,1,75,0,0
185553,-222.222222222222,4,2,1,75,0,0
185953,-100,4,2,1,75,0,0
188653,-100,4,2,1,5,0,0
188753,-100,4,2,1,75,0,0
189153,-90.9090909090909,4,2,1,75,0,0
189553,-100,4,2,1,65,0,0
191053,-100,4,2,1,5,0,0
191153,-100,4,2,1,65,0,0
195853,-100,4,2,1,5,0,0
195953,-100,4,2,1,65,0,0
199053,-100,4,2,1,5,0,0
199153,-100,4,2,1,65,0,0
201053,-100,4,2,1,5,0,0
201153,-100,4,2,1,65,0,0
201953,-90.9090909090909,4,2,1,85,0,1
205453,-90.9090909090909,4,2,1,5,0,1
205553,-90.9090909090909,4,2,1,85,0,1
207453,-90.9090909090909,4,2,1,5,0,1
207553,-90.9090909090909,4,2,1,85,0,1
208353,-90.9090909090909,4,2,1,85,0,1
208653,-90.9090909090909,4,2,1,5,0,1
208753,-90.9090909090909,4,2,2,75,0,1
209853,-90.9090909090909,4,2,2,5,0,1
209953,-90.9090909090909,4,2,2,75,0,1
211453,-90.9090909090909,4,2,2,5,0,1
211553,-90.9090909090909,4,2,2,75,0,1
212353,-90.9090909090909,4,2,1,75,0,1
213853,-90.9090909090909,4,2,1,5,0,1
213953,-90.9090909090909,4,2,1,75,0,1
214753,-90.9090909090909,4,2,1,75,0,0
216653,-90.9090909090909,4,2,1,5,0,0
216753,-90.9090909090909,4,2,1,75,0,0
217953,-90.9090909090909,4,2,1,75,0,1
225853,-90.9090909090909,4,2,1,5,0,1
225953,-83.3333333333333,4,2,1,75,0,1
226653,-83.3333333333333,4,2,1,5,0,1
226753,-83.3333333333333,4,2,1,75,0,1
227453,-83.3333333333333,4,2,1,5,0,1
227553,-76.9230769230769,4,2,1,85,0,1
227953,-90.9090909090909,4,2,1,75,0,1
230753,-90.9090909090909,4,2,1,25,0,0
232353,-400,4,2,1,40,0,0
233953,-250,4,2,1,20,0,0
243553,-100,4,2,1,60,0,0
244253,-100,4,2,1,5,0,0
244353,-100,4,2,1,60,0,0
246753,-90.9090909090909,4,2,1,75,0,1
247053,-90.9090909090909,4,2,1,5,0,1
247153,-90.9090909090909,4,2,2,75,0,1
247353,-90.9090909090909,4,2,1,75,0,1
249453,-90.9090909090909,4,2,1,5,0,1
249553,-90.9090909090909,4,2,1,75,0,1
251953,-90.9090909090909,4,2,2,75,0,1
252153,-90.9090909090909,4,2,1,75,0,1
252653,-90.9090909090909,4,2,1,5,0,1
252753,-90.9090909090909,4,2,1,75,0,1
253453,-90.9090909090909,4,2,1,5,0,1
253553,-90.9090909090909,4,2,2,75,0,1
253753,-90.9090909090909,4,2,1,75,0,1
255153,-90.9090909090909,4,2,2,75,0,1
255353,-90.9090909090909,4,2,1,75,0,1
255853,-90.9090909090909,4,2,1,5,0,1
255953,-90.9090909090909,4,2,1,75,0,1
262753,-90.9090909090909,4,2,1,5,0,0
262853,-90.9090909090909,4,2,1,30,0,0
266053,923.076923076923,4,2,1,20,1,0

[Colours]
Combo1 : 245,140,135
Combo2 : 206,206,206
Combo3 : 191,223,249
Combo4 : 162,221,155

[HitObjects]
112,94,353,6,0,L|62:82,2,47.9999985351563,2|2|2,0:3|0:0|0:0,0:0:0:0:
188,156,1553,2,0,L|234:144,1,47.9999985351563,2|0,0:3|0:0,0:0:0:0:
333,65,2353,5,2,0:0:0:0:
234,143,2753,5,2,0:0:0:0:
359,218,3153,5,2,0:0:0:0:
236,288,3553,6,0,P|226:315|226:343,2,47.9999985351563,2|2|2,0:3|0:0|0:0,0:0:0:0:
367,311,4753,2,0,P|345:321|321:324,1,47.9999985351563,2|0,0:3|0:3,0:0:0:0:
158,250,5553,5,2,0:0:0:0:
273,217,5953,5,2,0:0:0:0:
223,349,6353,5,2,0:0:0:0:
74,266,6753,6,0,P|74:235|82:210,2,47.9999985351563,2|2|2,0:3|0:0|0:0,0:0:0:0:
152,165,7953,2,0,P|134:148|113:137,1,47.9999985351563,2|0,0:3|0:0,0:0:0:0:
158,250,8753,5,2,0:0:0:0:
282,202,9153,5,2,0:0:0:0:
158,250,9553,5,2,0:0:0:0:
309,288,9953,6,0,P|340:274|353:260,1,47.9999985351563,2|2,0:3|0:0,0:0:0:0:
372,127,10753,2,0,P|368:161|372:179,1,47.9999985351563,2|2,0:3|0:0,0:0:0:0:
477,261,11553,2,0,P|449:240|431:235,1,47.9999985351563,2|0,0:0|0:0,0:0:0:0:
437,237,12953,5,2,0:0:0:0:
385,310,13153,2,0,P|321:320|261:331,1,120.000004577637,2|2,0:3|0:0,0:0:0:0:
200,270,13753,1,2,0:0:0:0:
114,292,13953,2,0,P|94:322|86:355,1,60.0000022888184,2|0,0:3|0:0,0:0:0:0:
200,270,14353,2,0,P|184:237|159:214,1,60.0000022888184,2|0,0:0|0:0,0:0:0:0:
68,134,14753,1,2,0:0:0:0:
38,216,14953,1,2,0:0:0:0:
68,134,15153,2,0,P|58:65|49:7,1,120.000004577637,2|2,0:0|0:3,0:0:0:0:
50,15,15953,6,0,P|86:38|121:40,1,60.0000022888184,2|0,0:3|0:0,0:0:0:0:
199,131,16353,6,0,P|229:101|324:96,1,120.000004577637,2|2,0:3|0:0,0:0:0:0:
416,55,16953,2,0,P|407:83|401:113,1,60.0000022888184,2|2,0:0|0:3,0:0:0:0:
322,167,17353,2,0,P|315:137|307:108,1,60.0000022888184,2|0,0:0|0:0,0:0:0:0:
424,209,17753,1,2,0:0:0:0:
325,259,17953,1,2,0:0:0:0:
424,209,18153,1,2,0:0:0:0:
325,259,18353,2,0,P|303:316|303:384,1,120.000004577637,2|2,0:0|0:3,0:0:0:0:
301,373,19153,6,0,P|345:361|376:358,1,60.0000022888184,2|0,0:0|0:0,0:0:0:0:
201,302,19553,6,0,P|191:232|181:178,2,120.000004577637,2|2|2,0:3|0:0|0:0,0:0:0:0:
201,302,20753,2,0,P|169:276|86:284,1,120.000004577637,2|2,0:0|0:3,0:0:0:0:
105,82,21553,2,0,P|66:96|31:172,1,120.000004577637,2|2,0:0|0:3,0:0:0:0:
30,162,22353,6,0,P|60:183|95:184,1,60.0000022888184,2|0,0:0|0:0,0:0:0:0:
184,70,22753,6,0,P|226:44|290:58,1,90.0000034332277,2|0,0:3|0:0,0:0:0:0:
265,45,23153,2,0,P|260:75|254:114,1,60.0000022888184,2|0,0:0|0:0,0:0:0:0:
350,26,23553,2,0,P|345:56|339:95,1,60.0000022888184,2|0,0:0|0:0,0:0:0:0:
435,7,23953,2,0,P|430:37|424:76,1,60.0000022888184,2|0,0:0|0:0,0:0:0:0:
398,148,24353,6,0,P|437:104|489:106,1,111.999996582031,2|2,0:3|0:3,0:0:0:0:
487,105,25553,6,0,P|506:134|511:184,1,60.0000022888184,2|0,0:3|0:0,0:0:0:0:
413,238,25953,6,0,P|382:231|343:225,1,60.0000022888184,2|2,0:3|0:0,0:0:0:0:
283,165,26353,2,0,P|225:177|149:189,1,120.000004577637,2|2,0:0|0:3,0:0:0:0:
83,144,26953,1,2,0:0:0:0:
16,207,27153,2,0,P|7:241|9:273,1,60.0000022888184,2|0,0:0|0:0,0:0:0:0:
133,329,27553,1,2,0:0:0:0:
96,247,27753,1,2,0:0:0:0:
133,329,27953,2,0,P|193:343|261:361,1,120.000004577637,2|2,0:0|0:3,0:0:0:0:
249,357,28753,6,0,P|285:350|318:325,1,60.0000022888184,2|0,0:3|0:0,0:0:0:0:
490,296,29153,6,0,P|445:289|393:228,1,120.000004577637,2|2,0:3|0:0,0:0:0:0:
330,172,29753,2,0,P|377:148|404:151,1,60.0000022888184,2|2,0:0|0:3,0:0:0:0:
265,228,30153,2,0,P|235:221|212:203,1,60.0000022888184,2|2,0:0|0:0,0:0:0:0:
164,74,30553,1,2,0:0:0:0:
112,158,30753,1,2,0:0:0:0:
164,74,30953,1,2,0:0:0:0:
112,158,31153,2,0,P|120:218|131:289,1,120.000004577637,2|2,0:0|0:3,0:0:0:0:
129,276,31953,6,0,P|95:259|60:259,1,60.0000022888184,2|0,0:0|0:0,0:0:0:0:
0,93,32353,6,0,P|67:96|123:53,1,120.000004577637,2|2,0:3|0:0,0:0:0:0:
199,35,32953,1,0,0:0:0:0:
259,97,33153,2,0,P|253:125|244:166,1,60.0000022888184,2|0,0:3|0:0,0:0:0:0:
322,223,33553,2,0,P|372:205|432:187,1,90.0000034332277,2|0,0:0|0:3,0:0:0:0:
436,187,33953,1,2,0:3:0:0:
436,187,34353,2,0,P|472:223|465:301,2,120.000004577637,2|2|2,0:0|0:0|0:0,0:0:0:0:
367,316,35553,6,0,B|263:308|286:362|177:350,2,191.999994140625,2|2|2,0:3|0:3|0:3,0:0:0:0:
367,316,37553,1,2,0:0:0:0:
163,187,37953,5,6,0:3:0:0:
218,255,38153,1,0,0:0:0:0:
163,187,38353,2,0,P|157:143|148:102,1,71.9999978027344,4|6,0:3|3:2,0:0:0:0:
315,71,39153,6,0,P|320:30|328:-12,1,71.9999978027344,2|2,0:0|0:0,0:0:0:0:
410,50,39553,2,0,P|450:89|446:167,1,107.999996704102,6|0,0:3|0:0,0:0:0:0:
448,173,39953,1,2,0:0:0:0:
448,173,40353,6,0,P|406:167|369:159,1,71.9999978027344,2|0,0:0|0:0,0:0:0:0:
316,232,40753,2,0,P|274:237|237:246,1,71.9999978027344,2|0,0:0|0:0,0:0:0:0:
177,176,41153,2,0,P|103:165|35:150,1,143.999995605469,6|2,0:3|3:2,0:0:0:0:
35,150,41953,6,0,P|49:195|52:241,1,71.9999978027344,2|0,3:0|0:0,0:0:0:0:
177,176,42353,2,0,P|188:96|220:33,2,143.999995605469,2|6|0,0:0|0:3|0:0,0:0:0:0:
177,176,43553,6,0,P|214:155|254:157,1,71.9999978027344,2|0,0:0|0:0,0:0:0:0:
215,306,43953,2,0,P|178:284|160:248,1,71.9999978027344,2|0,0:0|0:0,0:0:0:0:
308,208,44353,2,0,P|307:250|285:284,1,71.9999978027344,6|0,0:3|0:0,0:0:0:0:
218,309,44753,1,2,0:0:0:0:
218,309,45153,6,0,P|296:325|374:343,1,143.999995605469,2|2,3:0|0:0,0:0:0:0:
464,302,45753,1,2,0:0:0:0:
392,236,45953,2,0,P|383:193|384:148,1,71.9999978027344,6|0,0:3|0:0,0:0:0:0:
468,117,46353,2,0,P|477:59|476:4,1,107.999996704102,2|0,0:0|0:0,0:0:0:0:
477,9,46753,6,0,P|440:17|394:23,1,71.9999978027344,2|0,0:0|0:0,0:0:0:0:
331,84,47153,2,0,P|295:75|260:70,1,71.9999978027344,2|0,0:0|0:0,0:0:0:0:
184,11,47553,2,0,P|113:27|25:38,1,143.999995605469,6|0,0:3|3:0,0:0:0:0:
42,36,48353,6,0,P|69:77|75:119,1,71.9999978027344,2|0,3:0|0:0,0:0:0:0:
22,182,48753,2,0,P|69:141|158:153,2,143.999995605469,2|6|0,0:0|0:3|0:0,0:0:0:0:
22,182,49953,6,0,P|29:216|38:269,1,71.9999978027344,2|0,0:0|0:0,0:0:0:0:
132,255,50353,2,0,P|124:290|118:325,1,71.9999978027344,2|0,0:0|0:0,0:0:0:0:
214,181,50753,2,0,P|220:216|228:252,1,71.9999978027344,6|0,0:3|0:0,0:0:0:0:
319,310,51153,2,0,P|361:278|445:289,1,107.999996704102,2|0,0:0|0:0,0:0:0:0:
449,285,51553,1,2,3:0:0:0:
449,285,51953,6,0,P|462:245|461:207,1,71.9999978027344,2|0,0:0|0:0,0:0:0:0:
389,95,52353,2,0,P|376:135|377:173,1,71.9999978027344,6|0,0:3|0:0,0:0:0:0:
474,71,52753,2,0,P|413:60|321:40,2,143.999995605469,2|0|2,0:0|0:0|0:0,0:0:0:0:
206,168,53953,2,0,P|245:174|304:188,1,71.9999978027344,6|0,0:3|0:0,0:0:0:0:
322,266,54353,2,0,L|313:307,2,35.9999989013672,2|2|2,0:0|0:0|0:0,0:0:0:0:
233,351,54753,6,0,P|198:318|96:322,1,143.999995605469,2|2,3:0|0:0,0:0:0:0:
11,261,55353,1,2,0:0:0:0:
80,187,55553,2,0,P|91:151|91:115,1,71.9999978027344,6|2,0:3|0:0,0:0:0:0:
190,166,55953,2,0,B|270:171|245:214|340:215,2,143.999995605469,2|0|0,0:0|0:0|0:0,0:0:0:0:
335,50,57153,6,0,P|330:82|320:132,1,71.9999978027344,6|0,0:3|0:0,0:0:0:0:
407,220,57553,2,0,P|414:166|426:113,1,107.999996704102,2|0,0:0|0:0,0:0:0:0:
426,113,57953,1,2,3:0:0:0:
238,317,58753,6,0,B|119:307|161:383|17:354,1,215.999993408203,6|0,3:0|0:0,0:0:0:0:
14,239,59553,6,0,P|60:250|90:287,1,71.9999978027344,6|0,0:3|0:0,0:0:0:0:
174,343,59953,2,0,P|220:332|250:295,1,71.9999978027344,2|0,0:3|0:0,0:0:0:0:
338,218,60353,6,0,B|342:170|352:135|352:135|333:99|333:99|347:60|353:-1,1,215.999993408203,6|2,3:0|0:0,0:0:0:0:
358,17,61053,1,2,0:0:0:0:
358,17,61153,6,0,P|407:15|466:11,1,88.000002685547,10|0,0:0|0:0,0:0:0:0:
252,146,61553,2,0,P|250:96|246:38,1,88.000002685547,8|0,0:0|0:0,0:0:0:0:
381,252,61953,2,0,P|331:253|273:258,1,88.000002685547,8|0,0:0|0:0,0:0:0:0:
487,123,62353,2,0,P|488:172|493:231,1,88.000002685547,8|0,0:0|0:0,0:0:0:0:
366,131,62753,5,2,0:0:0:0:
162,360,63553,6,0,B|113:351|113:351|86:362|86:362|19:349,1,132.00000402832,8|0,3:0|0:0,0:0:0:0:
33,351,63953,6,0,L|23:285,1,60.0000022888184,2|2,0:0|0:0,0:0:0:0:
123,219,64153,2,0,L|132:153,1,60.0000022888184,2|2,0:0|0:0,0:0:0:0:
34,22,64353,6,0,B|20:41|8:60|8:60|22:104|36:163,1,132.00000402832,6|0,3:2|0:0,0:0:0:0:
191,88,64753,2,0,P|147:82|104:74,1,88.000002685547,2|0,3:2|0:0,0:0:0:0:
223,206,65153,2,0,P|266:197|309:192,1,88.000002685547,10|0,0:0|0:0,0:0:0:0:
394,26,65553,1,0,3:0:0:0:
304,89,65753,1,0,0:0:0:0:
404,138,65953,6,0,P|419:189|409:246,1,88.000002685547,2|0,3:0|0:0,0:0:0:0:
347,308,66353,2,0,P|300:300|230:292,1,88.000002685547,0|0,3:0|0:0,0:0:0:0:
18,328,66753,2,0,P|47:279|164:276,1,176.000005371094,10|0,0:0|3:0,0:0:0:0:
109,354,67353,1,2,0:0:0:0:
236,206,67553,6,0,B|245:171|261:141|261:141|238:95|224:25,2,176.000005371094,2|0|8,3:0|3:0|0:0,0:0:0:0:
236,206,68553,1,0,0:0:0:0:
332,67,68753,6,0,P|374:60|430:49,1,88.000002685547,2|0,3:2|0:0,0:0:0:0:
240,209,69153,2,0,P|282:215|338:227,1,88.000002685547,2|0,3:2|0:0,0:0:0:0:
116,68,69553,2,0,P|159:61|202:52,1,88.000002685547,2|0,3:2|0:0,0:0:0:0:
58,203,69953,2,0,P|71:267|80:332,1,132.00000402832,10|0,0:0|0:0,0:0:0:0:
80,333,70353,1,2,3:2:0:0:
155,250,70553,1,0,0:0:0:0:
58,203,70753,6,0,P|40:153|51:103,1,88.000002685547,2|0,3:0|0:0,0:0:0:0:
193,345,71153,2,0,B|291:335|274:388|368:384,1,176.000005371094,2|8,3:2|0:0,0:0:0:0:
465,336,71753,1,0,0:0:0:0:
347,285,71953,2,0,P|339:236|356:186,1,88.000002685547,2|0,3:2|0:0,0:0:0:0:
348,199,72353,6,0,P|393:212|448:225,1,88.000002685547,2|0,3:2|0:0,0:0:0:0:
271,103,72753,2,0,P|225:116|171:129,1,88.000002685547,2|0,3:2|0:0,0:0:0:0:
420,119,73153,2,0,P|424:59|370:-1,1,132.00000402832,10|0,0:0|0:0,0:0:0:0:
381,4,73553,1,2,3:2:0:0:
270,186,73753,1,2,3:3:0:0:
107,38,73953,6,0,B|207:35|180:86|281:81,2,176.000005371094,2|2|8,3:0|3:0|0:0,0:0:0:0:
107,38,74953,1,0,0:0:0:0:
0,240,75153,5,2,3:0:0:0:
134,128,75353,1,2,3:3:0:0:
16,10,75553,6,0,P|11:57|33:111,1,88.000002685547,2|0,3:2|0:0,0:0:0:0:
212,165,75953,2,0,P|173:137|116:129,1,88.000002685547,2|0,3:2|0:0,0:0:0:0:
11,340,76353,5,10,0:0:0:0:
232,280,76553,1,8,3:0:0:0:
126,238,76753,5,0,3:0:0:0:
172,381,76953,1,0,3:0:0:0:
387,237,77153,6,0,P|405:169|397:41,1,176.000005371094,6|2,3:2|3:2,0:0:0:0:
402,64,77753,1,0,0:0:0:0:
259,0,77953,2,0,P|174:18|74:35,1,176.000005371094,8|0,0:0|3:0,0:0:0:0:
241,106,78553,1,0,0:0:0:0:
91,132,78753,6,0,P|24:113|-2:92,1,88.000002685547,0|0,3:0|0:0,0:0:0:0:
189,208,79153,2,0,P|206:275|200:308,1,88.000002685547,0|0,3:0|0:0,0:0:0:0:
11,366,79553,2,0,P|40:297|130:272,1,132.00000402832,10|0,0:0|0:0,0:0:0:0:
88,271,79953,1,2,3:2:0:0:
229,384,80153,1,0,0:0:0:0:
390,317,80353,6,0,P|403:225|418:122,2,176.000005371094,2|2|8,3:0|3:0|0:0,0:0:0:0:
390,317,81353,1,0,0:0:0:0:
331,176,81553,6,0,P|332:115|358:69,1,88.000002685547,2|0,3:2|0:0,0:0:0:0:
503,120,81953,2,0,P|502:181|476:227,1,88.000002685547,2|0,3:2|0:0,0:0:0:0:
403,27,82353,2,0,P|448:21|504:10,1,88.000002685547,2|0,3:2|0:0,0:0:0:0:
331,176,82753,2,0,P|263:163|196:154,1,132.00000402832,10|0,0:0|0:0,0:0:0:0:
200,154,83153,1,2,3:2:0:0:
290,75,83353,1,0,0:0:0:0:
115,0,83553,1,2,3:0:0:0:
115,0,83953,6,0,P|125:44|131:93,1,88.000002685547,2|0,3:2|0:0,0:0:0:0:
0,192,84353,2,0,P|5:148|15:105,1,88.000002685547,10|0,0:0|0:0,0:0:0:0:
174,261,84753,1,2,3:2:0:0:
61,294,84953,1,0,0:0:0:0:
174,261,85153,6,0,P|257:287|294:359,1,132.00000402832,2|0,3:0|0:0,0:0:0:0:
282,320,85553,2,0,P|341:318|379:286,1,88.000002685547,2|0,3:2|0:0,0:0:0:0:
464,153,85953,2,0,P|471:87|479:21,1,132.00000402832,10|0,0:0|0:0,0:0:0:0:
479,21,86353,1,2,3:2:0:0:
380,86,86553,1,0,0:0:0:0:
494,248,86753,6,0,B|499:271|506:296|506:296|490:326|468:406,1,132.00000402832,6|0,3:2|0:0,0:0:0:0:
477,373,87153,2,0,P|431:363|389:356,1,88.000002685547,2|0,3:0|0:0,0:0:0:0:
308,231,87553,6,0,P|253:181|158:204,1,176.000005371094,14|0,3:0|0:0,0:0:0:0:
225,269,88153,1,0,0:0:0:0:
38,41,88353,6,0,P|53:127|65:214,1,176.000005371094,4|2,3:2|0:0,0:0:0:0:
65,214,89153,5,10,0:0:0:0:
225,269,89353,1,8,3:0:0:0:
202,159,89553,5,0,3:0:0:0:
96,314,89753,1,2,3:0:0:0:
257,80,89953,6,0,P|344:59|439:34,1,176.000005371094,6|2,3:2|0:0,0:0:0:0:
427,37,91153,6,0,P|467:80|456:164,1,120.000004577637,2|6,0:0|3:2,0:0:0:0:
473,141,92153,5,0,3:0:0:0:
473,141,92353,1,8,0:0:0:0:
437,228,92553,1,8,3:0:0:0:
401,315,92753,2,0,L|329:338,1,71.9999978027344,0|6,3:0|3:2,0:0:0:0:
256,192,93253,12,2,95953,0:3:0:0:
216,82,96353,6,0,P|127:101|67:112,1,143.999995605469,2|2,3:2|3:0,0:0:0:0:
15,193,96953,1,0,0:0:0:0:
136,225,97153,2,0,P|154:264|161:327,1,71.9999978027344,10|0,0:0|0:0,0:0:0:0:
4,379,97553,2,0,P|12:344|28:311,1,71.9999978027344,2|0,3:0|0:0,0:0:0:0:
164,295,97953,2,0,P|212:302|290:313,1,107.999996704102,0|0,3:0|0:0,0:0:0:0:
270,310,98353,6,0,P|263:345|251:399,1,71.9999978027344,2|0,3:2|0:0,0:0:0:0:
373,265,98753,2,0,P|379:300|392:354,1,71.9999978027344,10|0,0:0|0:0,0:0:0:0:
290,202,99153,2,0,P|254:209|219:216,1,71.9999978027344,2|0,3:2|0:0,0:0:0:0:
398,156,99553,6,0,P|423:92|391:4,1,143.999995605469,2|2,3:2|3:0,0:0:0:0:
404,21,100153,1,0,0:0:0:0:
257,65,100353,2,0,P|293:80|335:85,1,71.9999978027344,10|0,0:0|0:0,0:0:0:0:
192,3,100753,2,0,P|156:8|123:22,1,71.9999978027344,2|0,3:0|0:0,0:0:0:0:
0,93,101153,2,0,P|56:101|114:112,1,107.999996704102,0|0,3:0|0:0,0:0:0:0:
106,110,101553,6,0,P|129:158|127:194,1,71.9999978027344,2|0,3:2|0:0,0:0:0:0:
51,256,101953,2,0,P|28:208|30:172,1,71.9999978027344,10|0,0:0|0:0,0:0:0:0:
148,296,102353,2,0,P|118:339|85:355,1,71.9999978027344,2|2,3:2|0:0,0:0:0:0:
87,361,102653,1,2,0:0:0:0:
87,361,102753,6,0,P|165:348|245:337,1,143.999995605469,2|2,3:2|3:0,0:0:0:0:
357,308,103353,1,0,0:0:0:0:
257,188,103553,2,0,P|264:223|270:259,1,71.9999978027344,10|0,0:0|0:0,0:0:0:0:
431,248,103953,2,0,P|393:221|345:215,1,71.9999978027344,2|0,3:0|0:0,0:0:0:0:
176,168,104353,2,0,P|254:162|307:92,1,143.999995605469,2|4,3:2|3:0,0:0:0:0:
220,49,104953,2,0,L|211:83,1,35.9999989013672,2|2,0:0|0:0,0:0:0:0:
145,251,105153,5,10,0:0:0:0:
44,174,105353,1,8,3:0:0:0:
176,168,105553,5,2,3:0:0:0:
9,261,105753,1,2,3:0:0:0:
175,351,105953,6,0,P|242:340|315:329,1,120.000004577637,6|2,3:2|3:2,3:2:0:0:
374,280,106553,1,0,0:0:0:0:
294,239,106753,2,0,P|288:208|287:175,1,60.0000022888184,10|2,0:0|0:0,0:0:0:0:
373,129,107153,2,0,P|379:160|380:193,1,60.0000022888184,2|2,3:2|0:0,0:0:0:0:
282,88,107553,5,2,3:2:0:0:
372,24,107753,1,2,0:0:0:0:
282,88,107953,2,0,P|194:82|162:51,1,120.000004577637,2|8,3:2|0:0,0:0:0:0:
83,26,108553,1,0,0:0:0:0:
24,97,108753,2,0,L|39:166,1,60.0000022888184,0|2,3:0|0:0,0:0:0:0:
36,155,109053,1,2,0:0:0:0:
36,155,109153,6,0,P|66:150|120:140,1,60.0000022888184,2|2,3:2|0:0,0:0:0:0:
184,188,109553,1,2,3:2:0:0:
104,241,109753,2,0,P|92:280|92:316,1,60.0000022888184,2|8,0:0|0:0,0:0:0:0:
171,370,110153,2,0,P|200:363|238:357,1,60.0000022888184,2|0,0:0|3:0,0:0:0:0:
374,332,110553,5,2,0:0:0:0:
287,269,110753,1,2,3:2:0:0:
374,332,110953,1,2,0:0:0:0:
287,269,111153,2,0,P|272:200|276:126,1,120.000004577637,2|8,3:2|0:0,0:0:0:0:
338,85,111753,1,0,0:0:0:0:
395,170,111953,2,0,P|443:178|480:175,1,60.0000022888184,2|2,3:2|0:0,0:0:0:0:
454,177,112253,1,2,0:0:0:0:
454,177,112353,6,0,P|481:117|471:40,2,120.000004577637,2|2|10,3:2|3:2|0:0,0:0:0:0:
319,13,113553,2,0,P|346:18|378:20,1,60.0000022888184,2|0,3:2|0:0,0:0:0:0:
267,122,113953,2,0,P|296:116|326:114,1,60.0000022888184,0|0,3:0|0:0,0:0:0:0:
200,27,114353,2,0,P|140:38|103:99,1,120.000004577637,2|8,3:2|0:0,0:0:0:0:
166,248,115153,2,0,P|176:205|170:181,1,60.0000022888184,2|2,3:2|0:0,0:0:0:0:
173,190,115453,1,2,0:0:0:0:
173,190,115553,6,0,P|107:198|34:204,1,120.000004577637,2|2,3:2|3:2,3:2:0:0:
0,278,116153,1,0,0:0:0:0:
86,360,116353,2,0,P|90:327|95:288,1,60.0000022888184,10|0,0:0|0:0,0:0:0:0:
173,190,116753,2,0,P|176:219|180:249,1,60.0000022888184,2|0,3:2|0:0,0:0:0:0:
252,315,117153,2,0,P|307:283|381:298,2,120.000004577637,2|2|10,3:0|3:0|0:0,0:0:0:0:
371,200,118153,5,8,3:0:0:0:
300,154,118353,2,0,L|291:71,1,71.9999978027344,6|6,3:0|3:2,0:0:0:0:
443,303,119153,6,0,P|447:267|453:233,1,60.0000022888184,2|2,3:2|0:0,0:0:0:0:
326,365,119553,2,0,P|267:353|190:343,1,120.000004577637,10|2,0:0|3:2,0:0:0:0:
75,353,120153,5,2,0:0:0:0:
150,272,120353,1,2,3:2:0:0:
75,353,120553,1,2,0:0:0:0:
150,272,120753,2,0,P|160:223|143:128,1,120.000004577637,2|8,3:2|0:0,0:0:0:0:
56,108,121353,1,0,0:0:0:0:
56,108,121553,2,0,P|11:124|-21:125,1,60.0000022888184,0|2,3:0|0:0,0:0:0:0:
136,27,121953,6,0,P|177:25|244:75,1,120.000004577637,2|2,3:2|3:2,0:0:0:0:
265,157,122553,2,0,P|307:137|323:116,1,60.0000022888184,2|8,0:0|0:0,0:0:0:0:
395,28,122953,2,0,P|391:74|401:98,1,60.0000022888184,2|2,0:0|3:2,0:0:0:0:
467,218,123353,5,2,0:0:0:0:
385,171,123553,1,2,3:2:0:0:
467,218,123753,1,2,0:0:0:0:
385,171,123953,2,0,P|381:233|377:315,1,120.000004577637,2|8,3:2|0:0,0:0:0:0:
448,348,124553,1,0,0:0:0:0:
337,374,124753,2,0,P|303:366|274:350,1,60.0000022888184,2|0,3:2|0:0,0:0:0:0:
181,261,125153,6,0,P|121:272|79:324,1,120.000004577637,2|2,3:2|3:2,3:2:0:0:
169,353,125753,1,0,0:0:0:0:
272,238,125953,2,0,P|266:177|260:103,1,120.000004577637,10|2,0:0|3:2,0:0:0:0:
194,40,126553,1,2,0:0:0:0:
194,40,126653,1,2,0:0:0:0:
194,40,126753,6,0,P|154:55|125:59,1,60.0000022888184,0|0,3:2|0:0,0:0:0:0:
56,109,127153,2,0,P|28:97|0:91,1,60.0000022888184,2|0,3:2|0:0,0:0:0:0:
145,147,127553,2,0,P|206:132|275:114,1,120.000004577637,10|2,0:0|3:2,0:0:0:0:
261,117,128153,1,0,0:0:0:0:
358,220,128353,6,0,P|419:234|488:253,2,120.000004577637,2|2|8,3:0|3:0|0:0,0:0:0:0:
211,372,129553,2,0,P|236:362|274:354,1,60.0000022888184,2|0,3:0|0:0,0:0:0:0:
207,226,129953,2,0,P|232:236|270:244,1,60.0000022888184,2|0,3:2|0:0,0:0:0:0:
112,299,130353,2,0,P|46:307|6:356,1,120.000004577637,2|10,3:2|0:0,0:0:0:0:
114,210,130953,5,8,3:0:0:0:
42,160,131153,2,0,L|30:75,1,71.9999978027344,6|6,3:0|3:2,0:0:0:0:
196,314,131953,6,0,P|188:349|179:399,1,71.9999978027344,2|2,3:2|0:0,0:0:0:0:
324,296,132353,2,0,P|341:253|298:158,1,143.999995605469,8|2,0:0|3:2,0:0:0:0:
224,86,132953,1,0,0:0:0:0:
308,165,133153,6,0,P|343:157|396:155,1,71.9999978027344,2|0,3:2|0:0,0:0:0:0:
309,7,133553,2,0,P|344:14|397:17,1,71.9999978027344,2|0,3:2|0:0,0:0:0:0:
224,86,133953,2,0,P|175:94|100:11,1,143.999995605469,10|2,0:0|3:2,0:0:0:0:
24,104,134553,1,2,0:0:0:0:
24,104,134653,1,2,0:0:0:0:
24,104,134753,6,0,P|33:137|41:202,1,71.9999978027344,2|0,3:0|0:0,0:0:0:0:
154,186,135153,2,0,P|144:219|137:284,1,71.9999978027344,2|0,3:2|0:0,0:0:0:0:
14,297,135553,2,0,P|64:253|162:272,1,143.999995605469,8|0,0:0|3:2,0:0:0:0:
212,321,136153,1,0,0:0:0:0:
319,236,136353,2,0,P|328:166|341:77,1,143.999995605469,2|2,3:2|3:2,3:2:0:0:
338,93,137153,2,0,P|383:111|418:113,1,71.9999978027344,10|0,0:0|0:0,0:0:0:0:
257,29,137553,2,0,P|239:74|237:109,1,71.9999978027344,2|0,3:2|0:0,0:0:0:0:
319,236,137953,6,0,B|405:227|382:275|486:258,1,143.999995605469,2|0,3:2|3:2,0:0:0:0:
444,177,138553,1,2,0:0:0:0:
334,327,138753,2,0,P|261:340|166:360,1,143.999995605469,8|2,0:0|3:2,0:0:0:0:
104,313,139353,1,0,0:0:0:0:
194,283,139553,6,0,P|199:319|192:354,1,71.9999978027344,2|0,3:2|0:0,0:0:0:0:
17,277,139953,2,0,P|9:311|14:347,1,71.9999978027344,2|0,3:2|0:0,0:0:0:0:
116,213,140353,2,0,P|136:166|93:66,1,143.999995605469,10|2,0:0|3:2,0:0:0:0:
13,61,140953,1,2,0:0:0:0:
13,61,141053,1,2,0:0:0:0:
13,61,141153,6,0,P|20:94|30:149,1,71.9999978027344,2|0,3:0|0:0,0:0:0:0:
116,213,141553,2,0,P|188:197|271:185,2,143.999995605469,2|8|0,3:2|0:0|3:0,0:0:0:0:
173,121,142553,1,0,0:0:0:0:
257,186,142753,6,0,P|251:218|241:281,1,71.9999978027344,2|0,3:2|0:0,0:0:0:0:
342,120,143153,2,0,P|347:156|353:192,1,71.9999978027344,2|0,3:2|0:0,0:0:0:0:
449,55,143553,2,0,P|443:91|438:127,1,71.9999978027344,10|0,0:0|0:0,0:0:0:0:
279,52,143953,6,0,P|313:33|359:31,1,71.9999978027344,6|6,3:0|3:2,0:0:0:0:
173,204,144753,6,0,P|121:193|84:162,1,71.9999978027344,2|0,3:2|0:0,0:0:0:0:
5,107,145153,2,0,P|17:177|31:259,1,143.999995605469,10|2,0:0|3:2,0:0:0:0:
102,314,145753,1,0,0:0:0:0:
102,314,145953,2,0,P|95:349|89:384,1,71.9999978027344,2|0,3:0|0:0,0:0:0:0:
197,271,146353,2,0,P|190:235|184:200,1,71.9999978027344,2|0,3:2|0:0,0:0:0:0:
274,336,146753,2,0,P|350:332|395:270,1,143.999995605469,8|2,0:0|3:2,0:0:0:0:
391,283,147353,1,2,0:0:0:0:
306,253,147553,6,0,P|295:191|283:119,1,107.999996704102,2|0,3:2|0:0,0:0:0:0:
287,146,147953,1,4,3:0:0:0:
398,80,148153,2,0,P|390:112|380:170,1,71.9999978027344,2|8,0:0|0:0,0:0:0:0:
474,20,148553,1,2,0:0:0:0:
305,64,148753,6,0,B|255:56|255:56|222:79|222:79|161:69,2,143.999995605469,6|0|2,3:2|3:0|3:0,0:0:0:0:
26,31,149953,5,8,0:0:0:0:
75,108,150153,1,8,3:0:0:0:
124,185,150353,2,0,L|103:271,1,71.9999978027344,4|6,3:0|3:2,0:0:0:0:
305,64,151153,6,0,P|310:97|321:148,1,71.9999978027344,4|0,3:0|0:0,0:0:0:0:
280,213,151553,2,0,P|332:159|418:164,1,143.999995605469,10|4,0:0|3:0,0:0:0:0:
509,212,152153,1,0,0:0:0:0:
443,270,152353,2,0,P|411:260|353:244,1,71.9999978027344,2|0,3:2|0:0,0:0:0:0:
273,374,152753,2,0,P|305:364|363:348,1,71.9999978027344,4|0,3:0|0:0,0:0:0:0:
158,301,153153,6,0,P|144:228|126:145,1,143.999995605469,10|4,0:0|3:0,0:0:0:0:
189,71,153753,2,0,P|195:43|203:5,2,35.9999989013672,0|0|6,3:2|3:2|3:2,3:2:0:0:
189,71,154353,6,0,P|147:64|87:54,1,88.000002685547,8|0,0:0|0:0,0:0:0:0:
314,140,154753,2,0,P|355:133|416:123,1,88.000002685547,8|0,0:0|0:0,0:0:0:0:
189,209,155153,2,0,P|147:202|87:192,1,88.000002685547,8|0,0:0|0:0,0:0:0:0:
314,278,155553,6,0,B|411:282|379:324|470:328,1,167.999994873047,2|8,0:0|3:0,0:0:0:0:
470,328,156253,1,8,3:0:0:0:
470,328,156353,5,10,0:0:0:0:
314,278,156553,1,8,3:0:0:0:
455,238,156753,5,2,3:2:0:0:
330,376,156953,1,0,3:0:0:0:
134,288,157153,6,0,P|108:185|116:124,1,132.00000402832,6|0,3:2|0:0,0:0:0:0:
109,160,157553,2,0,P|166:190|203:187,1,88.000002685547,2|0,3:2|0:0,0:0:0:0:
323,55,157953,2,0,P|268:89|252:122,1,88.000002685547,8|0,0:0|0:0,0:0:0:0:
308,282,158353,1,0,3:0:0:0:
356,154,158553,1,0,0:0:0:0:
308,282,158753,6,0,P|304:325|297:383,1,88.000002685547,2|0,3:0|0:0,0:0:0:0:
449,217,159153,2,0,P|452:260|460:318,1,88.000002685547,0|0,3:0|0:0,0:0:0:0:
257,108,159553,2,0,P|167:90|60:63,1,176.000005371094,10|0,0:0|3:0,0:0:0:0:
85,69,160153,1,2,0:0:0:0:
0,276,160353,6,0,P|63:210|151:229,2,176.000005371094,2|2|8,3:0|3:0|0:0,0:0:0:0:
140,221,161353,1,0,0:0:0:0:
105,383,161553,6,0,P|98:339|89:295,1,88.000002685547,2|0,3:2|0:0,0:0:0:0:
245,195,161953,2,0,P|236:238|229:281,1,88.000002685547,2|0,3:2|0:0,0:0:0:0:
385,383,162353,2,0,P|376:339|369:296,1,88.000002685547,2|0,3:2|0:0,0:0:0:0:
512,168,162753,2,0,P|495:249|482:332,1,132.00000402832,10|0,0:0|0:0,0:0:0:0:
487,297,163153,1,2,3:2:0:0:
415,214,163353,1,0,0:0:0:0:
512,168,163553,6,0,P|523:120|507:64,1,88.000002685547,2|0,3:0|0:0,0:0:0:0:
418,22,163953,2,0,P|373:33|297:46,1,88.000002685547,2|0,3:2|0:0,0:0:0:0:
218,152,164353,2,0,P|261:160|303:171,1,88.000002685547,10|0,0:0|0:0,0:0:0:0:
187,18,164753,2,0,P|114:5|38:83,1,176.000005371094,2|2,3:2|3:0,3:2:0:0:
127,130,165353,1,0,0:0:0:0:
43,259,165553,6,0,P|37:218|29:164,1,88.000002685547,2|0,3:2|0:0,0:0:0:0:
153,308,165953,2,0,P|220:319|309:338,1,132.00000402832,10|0,0:0|0:0,0:0:0:0:
282,331,166353,1,2,3:2:0:0:
114,384,166553,1,0,0:0:0:0:
253,232,166753,6,0,B|263:194|291:167|291:167|250:124|248:46,2,176.000005371094,2|2|8,3:0|3:0|0:0,0:0:0:0:
253,232,167753,1,0,0:0:0:0:
347,89,167953,5,2,3:0:0:0:
180,163,168153,1,2,0:3:0:0:
349,249,168353,6,0,P|392:244|430:222,1,88.000002685547,2|0,3:2|0:0,0:0:0:0:
251,77,168753,2,0,P|184:50|141:58,1,88.000002685547,2|0,3:2|0:0,0:0:0:0:
0,265,169153,5,10,0:0:0:0:
180,163,169353,1,8,3:0:0:0:
39,64,169553,5,0,3:0:0:0:
92,212,169753,1,0,3:0:0:0:
145,360,169953,6,0,P|236:373|332:389,1,176.000005371094,6|0,3:2|3:2,3:2:0:0:
453,343,170553,1,0,0:0:0:0:
311,283,170753,2,0,P|274:222|311:114,1,176.000005371094,8|0,0:0|3:0,0:0:0:0:
299,125,171353,1,0,0:0:0:0:
426,114,171553,6,0,P|415:151|406:207,1,88.000002685547,0|0,3:0|0:0,0:0:0:0:
278,11,171953,2,0,P|315:21|371:31,1,88.000002685547,0|0,3:0|0:0,0:0:0:0:
192,175,172353,2,0,P|126:157|31:140,1,132.00000402832,10|0,0:0|0:0,0:0:0:0:
63,145,172753,1,2,3:2:0:0:
201,81,172953,1,0,0:0:0:0:
311,283,173153,6,0,B|412:288|375:335|490:338,2,176.000005371094,2|2|8,3:0|3:0|0:0,0:0:0:0:
466,239,174153,1,0,0:0:0:0:
313,378,174353,6,0,P|269:380|225:384,1,88.000002685547,2|0,3:2|0:0,0:0:0:0:
232,217,174753,2,0,P|188:214|144:210,1,88.000002685547,2|0,3:2|0:0,0:0:0:0:
97,372,175153,2,0,P|53:374|9:378,1,88.000002685547,2|0,3:2|0:0,0:0:0:0:
44,241,175553,2,0,P|52:166|130:120,1,132.00000402832,10|0,0:0|0:0,0:0:0:0:
91,129,175953,1,2,3:2:0:0:
185,305,176153,1,0,0:0:0:0:
340,171,176353,6,0,P|432:153|506:137,1,132.00000402832,2|0,3:0|0:0,0:0:0:0:
469,145,176753,2,0,P|458:192|449:242,1,88.000002685547,2|0,3:2|0:0,0:0:0:0:
315,66,177153,2,0,P|325:108|333:151,1,88.000002685547,10|0,0:0|0:0,0:0:0:0:
385,0,177553,1,2,3:2:0:0:
236,132,177753,1,0,0:0:0:0:
184,46,177953,6,0,P|143:21|73:20,1,88.000002685547,2|0,3:0|0:0,0:0:0:0:
49,150,178353,2,0,P|90:175|160:176,1,88.000002685547,2|0,3:2|0:0,0:0:0:0:
274,274,178753,2,0,P|335:233|415:243,1,132.00000402832,10|0,0:0|0:0,0:0:0:0:
391,233,179153,1,2,3:2:0:0:
291,384,179353,1,0,0:0:0:0:
143,270,179553,6,0,P|71:256|-15:238,1,132.00000402832,4|0,3:2|0:0,0:0:0:0:
13,244,179953,2,0,P|29:288|39:354,1,88.000002685547
211,190,180353,6,0,P|216:117|293:19,1,176.000005371094,14|0,3:0|0:0,0:0:0:0:
211,190,180953,1,0,0:0:0:0:
509,93,181153,6,0,B|417:99|439:144|330:142,1,176.000005371094,6|2,3:2|0:0,0:0:0:0:
342,142,181953,5,10,0:0:0:0:
314,238,182153,1,8,3:0:0:0:
171,364,182353,5,0,3:0:0:0:
143,268,182553,1,0,3:0:0:0:
33,77,182753,6,0,P|18:160|-1:252,1,176.000005371094,6|2,3:2|0:0,0:0:0:0:
0,249,183953,6,0,P|50:200|118:199,1,120.000004577637,2|6,0:0|3:2,0:0:0:0:
97,193,184953,5,8,0:0:0:0:
299,317,185153,1,8,0:0:0:0:
136,297,185353,5,8,3:0:0:0:
244,223,185553,2,0,P|278:217|318:208,1,71.9999978027344,0|6,3:0|3:2,0:0:0:0:
501,371,186353,6,0,P|463:360|404:350,1,80,6|0,3:0|0:0,0:0:0:0:
327,205,186753,2,0,P|315:111|305:28,1,160,10|0,0:0|0:0,0:0:0:0:
307,46,187353,1,0,0:0:0:0:
464,85,187553,5,0,3:0:0:0:
346,131,187753,1,0,3:0:0:0:
138,202,187953,5,2,3:0:0:0:
317,290,188153,1,8,3:0:0:0:
120,361,188353,6,0,P|57:367|-14:377,1,120,8|0,0:0|0:0,0:0:0:0:
1,375,188753,5,2,3:2:0:0:
207,290,188953,1,2,3:2:0:0:
18,200,189153,6,0,B|27:160|52:133|52:133|17:89|12:42,1,176.000005371094,6|2,3:2|3:2,0:0:0:0:
126,202,189753,1,0,0:0:0:0:
203,60,189953,2,0,P|158:56|104:47,1,80,10|0,0:0|0:0,0:0:0:0:
234,167,190353,2,0,P|274:161|314:159,1,80,2|0,3:2|0:0,0:0:0:0:
461,15,190753,2,0,P|392:50|378:88,1,120,2|0,3:0|0:0,0:0:0:0:
378,86,191153,6,0,P|410:137|407:188,1,80,4|0,3:0|0:0,0:0:0:0:
373,248,191553,1,10,0:0:0:0:
313,159,191753,1,2,0:3:0:0:
373,248,191953,2,0,P|409:256|466:267,1,80,2|0,3:2|0:0,0:0:0:0:
294,325,192353,6,0,P|216:329|154:404,1,160,2|2,3:0|3:2,3:2:0:0:
294,325,192953,1,2,0:0:0:0:
161,231,193153,2,0,P|147:147|138:61,1,160,8|0,0:0|3:0,0:0:0:0:
139,72,193753,1,0,0:0:0:0:
224,17,193953,6,0,P|261:37|327:38,1,80,2|0,3:0|0:0,0:0:0:0:
494,72,194353,2,0,P|415:69|354:144,1,160,6|8,3:0|0:0,0:0:0:0:
324,296,194953,1,2,0:0:0:0:
454,168,195153,1,2,3:2:0:0:
475,271,195353,1,2,0:0:0:0:
307,196,195553,6,0,P|249:189|180:179,1,120,2|0,3:2|0:0,0:0:0:0:
188,180,195953,2,0,P|176:226|171:277,1,80,2|0,3:2|0:0,0:0:0:0:
30,114,196353,2,0,P|41:160|47:210,1,80,10|0,0:0|0:0,0:0:0:0:
207,37,196753,1,2,3:2:0:0:
128,107,196953,1,0,0:0:0:0:
207,37,197153,6,0,P|281:27|389:12,1,160,2|4,3:0|3:0,3:0:0:0:
365,15,197953,2,0,P|346:47|348:112,1,80,10|0,0:0|0:0,0:0:0:0:
429,114,198353,2,0,P|448:82|446:17,1,80,2|0,3:2|0:0,0:0:0:0:
363,219,198753,6,0,P|367:277|379:363,1,120,2|0,3:0|0:0,0:0:0:0:
374,338,199153,1,2,3:2:0:0:
461,267,199353,1,2,0:0:0:0:
273,286,199553,2,0,B|188:292|211:336|109:332,1,160,8|0,0:0|3:0,0:0:0:0:
270,379,200153,1,0,0:0:0:0:
138,236,200353,2,0,P|134:194|124:135,1,80,2|0,3:0|0:0,0:0:0:0:
270,35,200753,2,0,P|259:94|254:153,1,120,6|0,3:0|0:0,0:0:0:0:
253,153,201153,5,10,0:0:0:0:
363,95,201353,1,8,3:0:0:0:
166,76,201553,2,0,P|122:69|74:60,1,80,2|0,3:2|0:0,0:0:0:0:
339,239,201953,6,0,P|434:254|538:273,1,176.000005371094,6|2,3:2|0:0,0:0:0:0:
339,239,202553,1,8,0:0:0:0:
501,175,202753,1,8,3:0:0:0:
390,341,202953,1,0,3:0:0:0:
194,248,203153,6,0,B|94:243|125:194|6:200,1,176.000005371094,6|0,3:2|3:0,0:0:0:0:
278,180,203753,1,8,0:0:0:0:
174,57,203953,2,0,P|181:101|187:145,1,88.000002685547,2|0,3:2|0:0,0:0:0:0:
258,2,204353,5,8,0:0:0:0:
88,108,204553,1,8,3:0:0:0:
278,180,204753,5,0,3:0:0:0:
405,227,204953,1,0,3:0:0:0:
193,350,205153,6,0,P|127:366|42:385,1,132.00000402832,6|0,3:2|0:0,0:0:0:0:
64,380,205553,2,0,P|46:317|59:265,1,88.000002685547,6|0,3:0|0:0,0:0:0:0:
192,161,205953,2,0,P|231:171|312:183,1,88.000002685547,10|0,0:0|0:0,0:0:0:0:
478,359,206353,6,0,B|438:355|409:324|409:324|379:367|320:391,1,176.000005371094,6|0,3:2|0:0,0:0:0:0:
334,384,206953,1,0,3:0:0:0:
489,261,207153,2,0,P|497:180|508:97,1,132.00000402832,6|0,3:0|0:0,0:0:0:0:
503,129,207553,5,10,0:0:0:0:
315,24,207753,1,8,3:0:0:0:
244,219,207953,5,0,3:0:0:0:
375,153,208153,1,0,3:0:0:0:
178,43,208353,6,0,P|110:31|35:15,1,132.00000402832,6|0,3:2|0:0,0:0:0:0:
48,18,208753,2,0,P|26:70|28:113,1,88.000002685547,4|0,3:0|0:0,0:0:0:0:
244,219,209153,2,0,P|209:173|171:154,1,88.000002685547,12|0,3:0|0:0,0:0:0:0:
14,283,209553,2,0,P|75:268|157:253,1,132.00000402832,6|0,3:0|0:0,0:0:0:0:
142,255,209953,6,0,P|135:298|124:349,1,88.000002685547,6|0,3:0|0:0,0:0:0:0:
324,169,210353,2,0,P|330:212|339:255,1,88.000002685547,6|0,3:0|0:0,0:0:0:0:
181,72,210753,2,0,P|174:115|163:166,1,88.000002685547,12|0,3:0|0:0,0:0:0:0:
295,22,211153,2,0,P|364:12|435:2,1,132.00000402832,6|0,3:0|0:0,0:0:0:0:
425,3,211553,6,0,P|449:48|444:105,1,88.000002685547,6|0,3:0|0:0,0:0:0:0:
339,255,211953,2,0,P|387:202|492:210,2,176.000005371094,6|12|4,3:0|3:0|3:0,0:0:0:0:
485,205,212953,1,2,0:3:0:0:
425,382,213153,2,0,P|429:334|435:288,1,88.000002685547,6|0,3:0|0:0,0:0:0:0:
248,186,213553,2,0,P|241:251|233:317,1,132.00000402832,6|0,3:0|0:0,0:0:0:0:
232,317,213953,5,14,3:0:0:0:
340,256,214153,1,8,3:0:0:0:
157,162,214353,5,6,3:0:0:0:
56,130,214553,1,0,3:0:0:0:
319,61,214753,6,0,P|408:36|522:2,1,176.000005371094,6|8,3:2|0:0,0:0:0:0:
488,12,215553,5,8,0:0:0:0:
446,134,215753,1,8,3:0:0:0:
373,182,215953,5,0,3:0:0:0:
415,304,216153,1,0,3:0:0:0:
350,367,216353,6,0,B|299:358|299:358|273:373|273:373|196:361,1,132.00000402832,6|0,3:2|0:0,0:0:0:0:
223,365,216753,5,0,3:0:0:0:
50,299,216953,1,8,3:0:0:0:
119,384,217153,5,8,3:0:0:0:
161,281,217353,1,8,0:0:0:0:
27,177,217553,5,10,0:0:0:0:
4,44,217753,1,10,0:0:0:0:
196,0,217953,6,0,B|265:12|265:12|286:48|286:48|375:67,2,176.000005371094,6|2|8,3:2|3:0|0:0,0:0:0:0:
348,61,218953,1,0,0:0:0:0:
209,136,219153,5,2,3:2:0:0:
321,188,219353,1,2,0:0:0:0:
223,318,219553,2,0,B|213:271|213:271|238:211,1,88.000002685547,2|0,3:2|0:0,0:0:0:0:
417,158,219953,2,0,B|427:205|427:205|402:265,1,88.000002685547,2|0,3:2|0:0,0:0:0:0:
223,318,220353,2,0,B|181:320|149:303|149:303|123:323|123:323|93:311|42:306,1,176.000005371094,10|2,0:0|3:0,0:0:0:0:
0,375,220953,1,0,0:0:0:0:
108,222,221153,6,0,P|117:136|128:34,2,176.000005371094,2|2|8,3:0|3:0|0:0,0:0:0:0:
126,46,222153,1,0,0:0:0:0:
206,176,222353,5,2,3:2:0:0:
33,109,222553,1,2,0:0:0:0:
206,176,222753,2,0,B|242:171|242:171|254:177|254:177|306:168,1,88.000002685547,2|0,3:2|0:0,0:0:0:0:
183,287,223153,2,0,B|220:280|220:280|232:286|232:286|268:281,1,88.000002685547,2|0,3:2|0:0,0:0:0:0:
389,52,223553,2,0,B|374:96|374:96|401:166|401:166|382:233,1,176.000005371094,10|2,0:0|3:0,0:0:0:0:
291,170,224153,1,2,0:3:0:0:
351,357,224353,6,0,P|412:298|510:315,1,176.000005371094,2|2,3:0|3:0,3:0:0:0:
497,306,225153,6,0,L|508:244,1,44.0000013427735,10|0,0:0|0:0,0:0:0:0:
386,218,225353,2,0,L|375:156,1,44.0000013427735,2|0,0:0|0:0,0:0:0:0:
481,130,225553,2,0,L|500:0,1,132.00000402832,2|0,3:2|0:0,0:0:0:0:
500,0,225953,6,0,P|443:33|404:35,1,95.9999970703126,2|0,3:0|0:0,0:0:0:0:
177,56,226353,2,0,P|274:63|310:119,1,143.999995605469,2|0,3:0|0:0,0:0:0:0:
300,94,226753,6,0,L|281:175,1,47.9999985351563,10|0,0:0|0:0,0:0:0:0:
170,233,226953,2,0,L|157:178,1,47.9999985351563,2|0,0:0|0:0,0:0:0:0:
50,40,227153,2,0,L|14:199,1,143.999995605469,2|0,3:2|0:0,0:0:0:0:
74,258,227553,6,0,B|191:251|156:315|280:309,1,207.999990478516,6|2,3:2|3:2,0:0:0:0:
270,309,228153,1,0,0:0:0:0:
474,253,228353,2,0,L|351:235,1,88.000002685547,14|0,3:0|0:0,0:0:0:0:
370,372,228753,2,0,L|457:384,1,88.000002685547,2|0,3:0|0:0,0:0:0:0:
260,214,229153,6,0,B|258:174|249:147|249:147|263:113|263:113|253:80|251:31,1,176.000005371094,6|2,3:2|3:2,3:2:0:0:
251,42,229953,5,10,0:0:0:0:
352,71,230153,1,0,3:0:0:0:
411,138,230353,5,10,0:0:0:0:
512,109,230553,1,0,3:0:0:0:
363,218,230753,6,0,L|356:261,22,29.3333342285157,4|0|0|0|0|0|0|0|0|0|0|0|0|0|0|0|0|0|0|0|0|0|0,3:0|0:0|0:0|0:0|0:0|0:0|0:0|0:0|0:0|0:0|0:0|0:0|0:0|0:0|0:0|0:0|0:0|0:0|0:0|0:0|0:0|0:0|0:0,0:0:0:0:
441,266,232353,6,0,B|354:251|379:303|287:293,1,160,6|2,3:0|0:3,0:0:0:0:
109,352,234353,6,0,L|32:365,2,64,2|2|2,0:0|0:3|0:3,0:0:0:0:
189,296,235553,2,0,P|196:262|186:220,1,64,2|2,0:3|0:3,0:0:0:0:
107,115,236353,2,0,L|2:132,1,96,2|2,0:0|0:0,0:0:0:0:
12,130,237153,2,0,B|87:138|64:167|140:173,1,128,2|2,0:3|0:3,0:0:0:0:
290,115,238353,1,2,0:0:0:0:
290,115,238753,6,0,P|297:81|291:43,2,64,2|2|2,0:0|0:0|0:0,0:0:0:0:
350,182,239953,2,0,L|413:172,1,64,2|2,0:0|0:3,0:0:0:0:
282,245,240753,2,0,L|219:235,1,64,2|2,0:0|0:3,0:0:0:0:
356,306,241553,1,2,0:0:0:0:
356,306,241953,2,0,P|345:343|346:375,2,64,2|2|2,0:0|0:0|0:0,0:0:0:0:
437,349,243153,2,0,L|500:359,1,64,0|2,0:0|3:0,0:0:0:0:
212,252,243953,6,0,P|130:267|62:278,1,120,0|0,3:0|0:0,0:0:0:0:
93,273,244353,1,8,0:0:0:0:
186,347,244553,1,8,3:0:0:0:
68,374,244753,5,2,3:0:0:0:
212,252,244953,1,8,0:0:0:0:
37,144,245153,6,0,L|25:60,2,53.3333333333333,2|8|8,3:2|0:0|0:0,0:0:0:0:
105,223,245553,6,0,L|97:275,2,53.3333333333333,10|8|8,0:0|0:0|0:0,0:0:0:0:
171,155,245953,6,0,P|203:143|237:149,1,53.3333333333333,10|8,0:0|3:0,0:0:0:0:
341,21,246219,1,8,3:0:0:0:
343,99,246353,6,0,P|316:98|292:87,1,53.3333333333333,2|0,3:2|3:0,3:0:0:0:
337,260,246619,1,0,3:0:0:0:
382,186,246753,6,0,P|464:173|543:158,1,132.00000402832,6|0,3:2|0:0,0:0:0:0:
512,164,247153,2,0,P|503:209|496:263,1,88.000002685547,6|0,3:0|0:0,0:0:0:0:
298,342,247553,2,0,B|195:342|234:390|111:384,1,176.000005371094,8|0,0:0|3:0,0:0:0:0:
298,342,248153,1,0,0:0:0:0:
142,285,248353,6,0,P|129:235|146:171,1,88.000002685547,2|0,3:0|0:0,0:0:0:0:
232,144,248753,2,0,P|245:194|228:258,1,88.000002685547,4|0,3:0|0:0,0:0:0:0:
136,95,249153,2,0,P|66:85|-10:73,1,132.00000402832,10|0,0:0|0:0,0:0:0:0:
6,76,249553,1,2,3:2:0:0:
133,199,249753,1,0,0:0:0:0:
277,59,249953,6,0,B|384:61|351:12|465:12,2,176.000005371094,2|4|8,3:0|3:0|0:0,0:0:0:0:
277,59,250953,1,0,0:0:0:0:
421,194,251153,6,0,P|427:149|440:92,1,88.000002685547,2|0,3:2|0:0,0:0:0:0:
251,263,251553,2,0,P|295:269|353:282,1,88.000002685547,2|0,3:2|0:0,0:0:0:0:
182,92,251953,2,0,P|175:136|163:194,1,88.000002685547,6|0,3:0|0:0,0:0:0:0:
238,382,252353,2,0,P|264:341|246:257,1,132.00000402832,10|0,0:0|0:0,0:0:0:0:
250,262,252753,1,2,3:2:0:0:
122,384,252953,1,0,0:0:0:0:
30,322,253153,6,0,P|24:256|13:173,1,132.00000402832,2|0,3:0|0:0,0:0:0:0:
15,190,253553,2,0,P|54:225|99:234,1,88.000002685547,6|0,3:0|0:0,0:0:0:0:
96,26,253953,2,0,P|45:42|15:76,1,88.000002685547,10|0,0:0|0:0,0:0:0:0:
193,190,254353,1,2,3:2:0:0:
212,91,254553,1,0,0:0:0:0:
193,190,254753,6,0,P|186:233|174:284,1,88.000002685547,2|0,3:0|0:0,0:0:0:0:
390,135,255153,2,0,P|346:128|296:116,1,88.000002685547,6|0,3:0|0:0,0:0:0:0:
382,292,255553,2,0,P|446:250|527:259,1,132.00000402832,10|0,0:0|0:0,0:0:0:0:
499,249,255953,1,2,3:2:0:0:
357,384,256153,1,0,0:0:0:0:
311,219,256353,5,4,3:2:0:0:
469,355,256553,1,10,0:0:0:0:
311,219,256753,2,0,P|301:129|296:35,1,176.000005371094,10|10,0:0|3:0,0:0:0:0:
296,43,257353,1,0,3:0:0:0:
390,117,257553,1,2,3:0:0:0:
218,204,257753,1,8,0:0:0:0:
357,384,257953,5,2,3:2:0:0:
368,364,258053,1,0,3:0:0:0:
374,344,258153,1,0,3:0:0:0:
373,322,258253,1,0,3:0:0:0:
354,296,258353,5,8,3:0:0:0:
322,304,258453,1,8,3:0:0:0:
290,312,258553,1,8,3:0:0:0:
258,320,258653,1,8,3:0:0:0:
226,329,258753,2,0,L|183:321,3,44.0000013427735,0|0|0|0,3:0|3:0|3:0|3:0,3:0:0:0:
111,266,259153,6,0,L|38:280,1,44.0000013427735,10|8,0:0|0:0,0:0:0:0:
47,373,259353,2,0,L|90:364,1,44.0000013427735,8|8,3:0|3:0,0:0:0:0:
216,237,259553,6,0,B|213:197|187:172|187:172|231:133|228:47,1,176.000005371094,6|2,3:2|0:0,0:0:0:0:
227,79,260153,1,0,3:0:0:0:
301,182,260353,5,0,3:0:0:0:
301,182,260553,1,0,3:0:0:0:
433,62,260753,5,8,3:0:0:0:
337,91,260953,1,8,3:0:0:0:
189,172,261153,5,8,3:0:0:0:
93,143,261353,1,8,3:0:0:0:
70,55,261553,5,10,0:0:0:0:
118,233,261753,1,8,0:0:0:0:
230,343,261953,5,8,0:0:0:0:
280,165,262153,1,10,0:0:0:0:
394,55,262353,5,10,0:0:0:0:
442,230,262553,2,0,L|467:344,1,88.000002685547,4|0,3:0|0:0,0:0:0:0:
256,192,262853,12,2,266053,0:3:0:0:
