osu file format v14

[General]
AudioFilename: audio.mp3
AudioLeadIn: 0
PreviewTime: 171362
Countdown: 1
SampleSet: Soft
StackLeniency: 0.2
Mode: 0
LetterboxInBreaks: 0
WidescreenStoryboard: 0

[Editor]
Bookmarks: 9752,14858,167092
DistanceSpacing: 0.2
BeatDivisor: 8
GridSize: 32
TimelineZoom: 1.5

[Metadata]
Title:Koiwazurai
TitleUnicode:コイワズライ
Artist:Aimer
ArtistUnicode:Aimer
Creator:schoolboy
Version:I Love You
Source:白雪とオオカミくんには騙されない❤
Tags:shira yuki to ookami kun ni wa damasarenai wazurai 『Sun Dance』 Penny Rain kalibe komore
BeatmapID:2108938
BeatmapSetID:1007646

[Difficulty]
HPDrainRate:5.2
CircleSize:4.5
OverallDifficulty:7
ApproachRate:8.2
SliderMultiplier:1.2
SliderTickRate:1

[Events]
//Background and Video events
0,0,"bbbb.jpg",0,0
//Break Periods
2,59940,69233
//Storyboard Layer 0 (Background)
//Storyboard Layer 1 (Fail)
//Storyboard Layer 2 (Pass)
//Storyboard Layer 3 (Foreground)
//Storyboard Layer 4 (Overlay)
//Storyboard Sound Samples

[TimingPoints]
1017,638.297872340426,4,2,1,45,1,0
21442,-83.3333333333333,4,2,1,60,0,0
41868,-66.6666666666667,4,2,1,69,0,0
47453,-58.8235294117647,4,2,1,69,0,0
47931,-66.6666666666667,4,2,1,69,0,0
48729,-58.8235294117647,4,2,1,69,0,0
49208,-66.6666666666667,4,2,1,69,0,0
50804,-58.8235294117647,4,2,1,69,0,0
52080,-66.6666666666667,4,2,1,69,0,0
54634,-58.8235294117647,4,2,1,69,0,0
59102,-133.333333333333,4,2,1,69,0,0
69953,-133.333333333333,4,2,1,40,0,0
87825,-133.333333333333,4,2,1,60,0,0
89660,-83.3333333333333,4,2,1,69,0,0
90378,-66.6666666666667,4,2,1,69,0,0
92931,-58.8235294117647,4,2,1,69,0,0
93570,-66.6666666666667,4,2,1,69,0,0
95963,-58.8235294117647,4,2,1,69,0,0
96442,-66.6666666666667,4,2,1,69,0,0
97240,-58.8235294117647,4,2,1,69,0,0
97719,-66.6666666666667,4,2,1,69,0,0
100591,-66.6666666666667,4,2,1,69,0,0
103144,-58.8235294117647,4,2,1,69,0,0
107612,-133.333333333333,4,2,1,69,0,0
108729,-100,4,2,1,61,0,0
125485,-75.187969924812,4,2,1,69,0,0
128676,-66.6666666666667,4,2,1,69,0,0
146868,-66.6666666666667,4,2,1,71,0,0
147187,-66.6666666666667,4,2,1,73,0,0
147506,-66.6666666666667,4,2,1,75,0,0
147825,-66.6666666666667,4,2,1,77,0,0
148144,-66.6666666666667,4,2,1,79,0,0
148463,-66.6666666666667,4,2,1,81,0,0
148782,-66.6666666666667,4,2,1,83,0,0
149102,-58.8235294117647,4,2,1,85,0,0
150378,-81.9672131147541,4,2,1,69,0,0
151176,-142.857142857143,4,2,1,69,0,0
151655,-142.857142857143,4,2,1,40,0,0
161070,-142.857142857143,4,2,1,5,0,0
161229,-142.857142857143,4,2,1,40,0,0
162346,-142.857142857143,4,2,1,5,0,0
162506,-142.857142857143,4,2,1,40,0,0
166974,-142.857142857143,4,2,1,60,0,0
167612,-142.857142857143,4,2,1,50,0,0
168251,-142.857142857143,4,2,1,75,0,0
169527,-111.111111111111,4,2,1,69,0,0
169846,-90.909090909091,4,2,1,69,0,0
170165,-76.9230769230769,4,2,1,69,0,0
170485,-66.6666666666667,4,2,1,69,0,0
170804,-58.8235294117647,4,2,1,69,0,0
171123,-52.6315789473684,4,2,1,69,0,0
172080,-66.6666666666667,4,2,1,69,0,0
177665,-58.8235294117647,4,2,1,69,0,0
178144,-66.6666666666667,4,2,1,69,0,0
178942,-58.8235294117647,4,2,1,69,0,0
179421,-66.6666666666667,4,2,1,69,0,0
179740,-58.8235294117647,4,2,1,69,0,0
180378,-55.5555555555556,4,2,1,69,0,0
181017,-66.6666666666667,4,2,1,69,0,0
184846,-58.8235294117647,4,2,1,69,0,0
187001,-58.8235294117647,4,2,1,5,0,0
187080,-58.8235294117647,4,2,1,69,0,0
187399,-55.5555555555556,4,2,1,69,0,0
189953,-66.6666666666667,4,2,1,69,0,0
209102,-66.6666666666667,4,2,0,69,0,0
209740,-66.6666666666667,4,2,1,69,0,0
210059,-83.3333333333333,4,2,1,69,0,0
210378,-83.3333333333333,4,2,1,40,0,0
226335,666.666666666667,4,2,1,40,1,0
227001,638.297872340426,4,2,1,40,1,0
227001,-133.333333333333,4,2,1,40,0,0
227639,652.173913043479,4,2,1,40,1,0
227639,-133.333333333333,4,2,1,40,0,0
228291,-133.333333333333,4,2,1,30,0,0
228943,659.340659340659,4,2,1,30,1,0
229602,-181.818181818181,4,2,1,20,0,0
230921,-100,4,2,1,5,0,0

[Colours]
Combo1 : 255,179,179
Combo2 : 254,218,252
Combo3 : 247,209,172
Combo4 : 217,179,255

[HitObjects]
121,228,1017,6,0,L|137:139,1,90,2|2,1:2|0:0,0:0:0:0:
151,133,1655,1,8,0:0:0:0:
9,309,1974,2,0,B|105:280|89:365|179:342,1,180,0|8,3:0|0:0,0:0:0:0:
230,254,3091,2,0,L|233:294,1,30,0|2,0:0|0:0,0:0:0:0:
239,292,3410,1,0,0:0:0:0:
304,346,3570,6,0,P|340:321|396:331,1,90,2|2,1:2|0:0,0:0:0:0:
394,334,4208,1,8,0:0:0:0:
511,234,4527,2,0,P|427:251|375:184,1,180,2|8,3:2|0:0,0:0:0:0:
435,127,5644,2,0,L|483:135,1,30,0|2,0:0|0:0,0:0:0:0:
476,123,5963,1,0,0:0:0:0:
356,76,6123,6,0,L|266:93,1,90,2|2,1:2|0:0,0:0:0:0:
254,86,6761,1,8,0:0:0:0:
115,37,7080,2,0,B|169:6|169:6|142:147,1,180,2|8,3:2|0:0,0:0:0:0:
226,190,8197,2,0,L|221:148,1,30,0|2,0:0|0:0,0:0:0:0:
232,151,8517,1,0,0:0:0:0:
125,213,8676,6,0,P|76:215|37:180,1,90,2|2,1:2|0:0,0:0:0:0:
33,199,9314,1,8,0:0:0:0:
121,312,9634,2,0,B|217:283|201:368|291:345,1,180,2|8,3:2|0:0,0:0:0:0:
351,291,10751,2,0,L|357:253,1,30,0|2,0:0|0:0,0:0:0:0:
349,252,11070,1,0,0:0:0:0:
254,108,11229,6,0,L|260:197,1,90,2|2,1:2|0:0,0:0:0:0:
252,209,11868,1,8,0:0:0:0:
176,314,12187,2,0,B|128:305|94:338|94:338|71:294|19:295,1,180,2|8,3:2|0:0,0:0:0:0:
103,202,13304,2,0,L|109:251,1,30,0|2,0:0|0:0,0:0:0:0:
109,245,13623,1,0,0:0:0:0:
5,128,13782,6,0,P|47:137|83:111,1,90,2|2,1:2|0:0,0:0:0:0:
96,119,14421,1,8,0:0:0:0:
224,33,14740,2,0,B|170:2|170:2|197:143,1,180,2|8,3:2|0:0,0:0:0:0:
261,163,15857,2,0,L|309:155,1,30,0|2,0:0|0:0,0:0:0:0:
304,169,16176,1,0,0:0:0:0:
381,123,16336,6,0,P|395:78|378:37,1,90,2|2,1:2|0:0,0:0:0:0:
364,34,16974,1,8,0:0:0:0:
309,219,17293,2,0,P|378:208|426:300,1,180,2|8,3:2|0:0,0:0:0:0:
504,362,18410,2,0,L|500:319,1,30,0|2,0:0|0:0,0:0:0:0:
509,324,18729,1,0,0:0:0:0:
378,364,18889,6,0,P|338:359|289:354,1,90,2|2,1:2|0:0,0:0:0:0:
278,364,19527,1,8,0:0:0:0:
162,286,19846,2,0,P|202:245|258:259,1,120,2|2,3:2|0:0,0:0:0:0:
333,190,20804,1,10,0:0:0:0:
330,179,20963,2,0,L|338:117,1,60,2|0,0:0|0:0,0:0:0:0:
304,22,21442,6,0,P|310:57|310:93,1,71.9999978027344,6|0,1:2|0:0,0:0:0:0:
206,208,22080,1,2,1:2:0:0:
204,204,22240,2,0,P|205:177|211:150,1,35.9999989013672,2|0,0:0|1:2,0:0:0:0:
141,129,22559,2,0,P|106:137|70:144,1,71.9999978027344,2|2,0:0|0:0,0:0:0:0:
310,226,23197,1,2,0:0:0:0:
313,227,23357,2,0,L|374:217,1,35.9999989013672,8|0,0:0|0:0,0:0:0:0:
414,253,23676,1,2,0:0:0:0:
414,256,23836,1,2,0:0:0:0:
475,205,23995,6,0,P|477:170|482:134,1,71.9999978027344,2|0,1:3|0:0,0:0:0:0:
379,0,24634,2,0,L|385:44,1,35.9999989013672,2|0,1:2|0:0,0:0:0:0:
323,88,24953,1,0,3:2:0:0:
320,90,25112,2,0,P|284:92|252:77,1,71.9999978027344,2|0,0:0|3:0,0:0:0:0:
112,172,25751,2,0,P|148:166|184:161,1,71.9999978027344,2|0,0:0|0:0,0:0:0:0:
249,205,26229,1,2,0:0:0:0:
252,206,26389,1,2,0:0:0:0:
216,275,26548,6,0,L|223:334,1,35.9999989013672,2|0,1:3|0:0,0:0:0:0:
134,366,26868,2,0,L|138:330,1,35.9999989013672,2|0,0:0|0:0,0:0:0:0:
273,384,27187,2,0,P|303:365|339:363,1,71.9999978027344,2|0,1:2|3:0,0:0:0:0:
407,324,27665,2,0,L|455:332,2,35.9999989013672,2|0|0,0:0|0:0|0:0,0:0:0:0:
404,321,28144,1,0,1:0:0:0:
356,264,28304,1,2,0:0:0:0:
426,98,28623,1,2,0:0:0:0:
427,101,28782,2,0,L|433:136,1,35.9999989013672,2|0,0:0|0:0,0:0:0:0:
366,180,29102,6,0,L|291:169,1,71.9999978027344,2|0,1:3|0:0,0:0:0:0:
168,32,29740,2,0,P|186:62|184:97,1,71.9999978027344,2|0,1:2|3:0,0:0:0:0:
130,154,30219,1,2,0:0:0:0:
69,107,30378,2,0,L|72:57,2,35.9999989013672,0|2|0,0:0|0:0|1:0,0:0:0:0:
15,162,30857,6,0,L|21:233,1,71.9999978027344,2|2,0:0|0:0,0:0:0:0:
0,309,31336,1,2,0:0:0:0:
0,312,31495,1,2,0:0:0:0:
56,364,31655,6,0,L|101:357,1,35.9999989013672,2|0,1:3|0:0,0:0:0:0:
187,300,31974,2,0,L|135:293,1,35.9999989013672,2|0,0:0|0:0,0:0:0:0:
246,371,32293,2,0,P|278:356|318:357,1,71.9999978027344,2|0,1:2|3:0,0:0:0:0:
374,304,32772,2,0,L|366:255,2,35.9999989013672,2|0|2,0:0|0:0|0:0,0:0:0:0:
374,307,33251,1,0,1:0:0:0:
505,220,33570,1,10,0:0:0:0:
505,216,33729,2,0,L|513:170,2,35.9999989013672,2|2|2,0:0|0:0|0:0,0:0:0:0:
432,185,34208,6,0,P|396:189|360:193,1,71.9999978027344,2|0,1:3|0:0,0:0:0:0:
295,151,34687,1,2,0:0:0:0:
295,147,34846,2,0,L|300:100,1,35.9999989013672,2|0,1:2|0:0,0:0:0:0:
169,0,35325,2,0,L|178:71,1,71.9999978027344,2|2,0:0|0:0,0:0:0:0:
118,125,35804,1,0,1:0:0:0:
118,125,36123,1,8,0:0:0:0:
118,125,36442,2,0,L|74:121,1,35.9999989013672,2|2,0:0|0:0,0:0:0:0:
25,178,36761,6,0,P|16:212|21:247,1,71.9999978027344,2|0,1:3|0:0,0:0:0:0:
150,368,37399,1,2,1:2:0:0:
150,364,37559,2,0,P|149:331|145:314,1,35.9999989013672,2|0,0:0|3:0,0:0:0:0:
208,280,37878,2,0,L|291:293,1,71.9999978027344,2|0,0:0|0:0,0:0:0:0:
340,340,38357,1,0,1:0:0:0:
482,206,38676,2,0,P|476:241|471:277,1,71.9999978027344,8|0,0:0|0:0,0:0:0:0:
471,277,39314,5,2,1:2:0:0:
428,94,39633,1,2,1:2:0:0:
246,136,39952,1,2,1:2:0:0:
288,319,40272,1,2,1:2:0:0:
362,204,40591,5,0,1:0:0:0:
362,204,40910,1,2,0:3:0:0:
183,351,41149,5,0,1:0:0:0:
174,356,41229,2,0,L|137:351,1,35.9999989013672,10|2,0:2|0:0,0:0:0:0:
79,301,41548,2,0,L|42:306,1,35.9999989013672,2|2,0:2|0:0,0:0:0:0:
1,243,41868,6,0,P|9:177|18:106,1,135.000005149841,6|0,1:2|0:0,0:0:0:0:
196,226,42506,2,0,P|162:253|119:247,1,90.0000034332277,8|0,0:0|1:0,0:0:0:0:
138,154,42985,1,2,0:0:0:0:
145,158,43144,2,0,B|207:171|220:131|277:144,1,135.000005149841,2|0,0:0|0:0,0:0:0:0:
330,88,43782,2,0,P|335:62|336:39,1,45.0000017166138,10|0,0:0|0:0,0:0:0:0:
462,152,44102,2,0,P|451:122|450:82,1,67.5000025749207,2|0,0:0|0:0,0:0:0:0:
461,94,44421,6,0,P|454:161|446:242,1,135.000005149841,2|0,1:3|0:0,0:0:0:0:
509,282,45059,1,8,0:0:0:0:
366,383,45378,1,2,1:2:0:0:
307,333,45538,1,2,0:0:0:0:
298,329,45697,2,0,P|248:335|218:368,1,90.0000034332277,2|0,0:0|0:0,0:0:0:0:
65,254,46336,1,10,0:0:0:0:
136,247,46495,1,2,0:0:0:0:
143,319,46655,1,2,0:0:0:0:
70,325,46814,1,2,0:0:0:0:
105,284,46974,6,0,L|117:195,1,90.0000034332277,2|0,1:3|0:0,0:0:0:0:
60,138,47453,2,0,P|12:147|4:195,1,102.000001945496,2|0,0:0|0:0,0:0:0:0:
130,97,47931,2,0,P|137:75|138:46,1,45.0000017166138,2|0,1:2|0:0,0:0:0:0:
195,152,48251,6,0,P|231:125|275:127,1,90.0000034332277,2|0,0:0|1:0,0:0:0:0:
381,10,48729,2,0,L|369:111,1,102.000001945496,2|0,0:0|0:0,0:0:0:0:
465,188,49208,2,0,P|465:165|459:143,1,45.0000017166138,2|0,0:0|0:0,0:0:0:0:
451,138,49447,1,0,0:3:0:0:
443,132,49527,6,0,P|376:134|366:199,1,135.000005149841,2|0,1:3|0:0,0:0:0:0:
424,249,50165,2,0,P|468:242|512:235,1,90.0000034332277,10|0,0:0|1:0,0:0:0:0:
368,330,50644,1,2,0:0:0:0:
359,323,50804,2,0,B|295:303|282:357|207:341,1,153.000002918243,2|0,0:0|0:0,0:0:0:0:
41,274,51442,1,2,1:2:0:0:
131,240,51602,1,2,1:2:0:0:
115,335,51761,1,2,1:2:0:0:
97,283,51921,1,2,0:0:0:0:
98,274,52080,6,0,L|113:139,1,135.000005149841,2|0,1:3|0:0,0:0:0:0:
52,27,52719,2,0,P|24:61|30:104,1,90.0000034332277,10|0,0:0|1:0,0:0:0:0:
194,209,53197,1,2,0:0:0:0:
201,214,53357,2,0,B|263:227|276:187|333:200,1,135.000005149841,2|0,0:0|0:0,0:0:0:0:
442,121,53995,2,0,P|415:123|388:118,1,45.0000017166138,10|0,0:0|0:0,0:0:0:0:
395,268,54314,2,0,P|422:266|449:271,1,45.0000017166138,2|0,0:0|0:0,0:0:0:0:
340,196,54554,1,0,0:0:0:0:
332,199,54634,6,0,P|289:209|243:169,1,102.000001945496,2|0,1:3|0:0,0:0:0:0:
294,15,55112,1,2,1:2:0:0:
296,24,55272,2,0,L|304:125,1,102.000001945496,10|0,0:0|1:0,0:0:0:0:
163,261,55751,1,2,0:0:0:0:
111,208,55911,2,0,P|96:158|120:116,1,102.000001945496,2|0,0:0|0:0,0:0:0:0:
259,338,56548,1,8,0:0:0:0:
167,351,56708,1,0,1:0:0:0:
75,361,56868,1,0,1:0:0:0:
157,60,57187,5,2,1:2:0:0:
403,225,57506,1,2,1:2:0:0:
107,235,57825,1,2,1:2:0:0:
341,53,58144,1,2,1:2:0:0:
259,338,58463,1,2,1:2:0:0:
259,338,58782,1,2,3:2:0:0:
259,338,59102,6,0,P|263:294|269:249,1,90,8|2,3:2|0:0,0:0:0:0:
21,68,69953,6,0,L|12:23,2,45.0000017166138,2|2|10,0:0|0:0|0:0,0:0:0:0:
21,68,71868,1,8,0:0:0:0:
256,191,72506,6,0,L|306:185,2,45.0000017166138,2|2|10,0:0|0:0|0:0,0:0:0:0:
256,191,74421,1,8,0:0:0:0:
54,336,75059,6,0,L|45:291,2,45.0000017166138,2|2|10,1:2|0:0|0:0,0:0:0:0:
54,335,76974,1,8,0:0:0:0:
458,336,77612,6,0,L|466:291,2,45.0000017166138,2|2|10,1:2|0:0|0:0,0:0:0:0:
458,335,79527,1,8,0:0:0:0:
210,204,80165,6,0,L|201:155,1,45.0000017166138,2|2,1:2|0:0,0:0:0:0:
214,133,80804,2,0,L|223:182,1,45.0000017166138,10|2,0:0|3:2,0:0:0:0:
27,332,82080,1,8,0:0:0:0:
27,332,82719,6,0,L|76:328,1,45.0000017166138,2|2,1:2|0:0,0:0:0:0:
93,308,83357,2,0,L|43:311,1,45.0000017166138,10|2,0:0|3:2,0:0:0:0:
48,311,84314,1,0,3:0:0:0:
0,247,84634,1,8,0:0:0:0:
0,247,85272,6,0,L|6:190,2,45.0000017166138,2|2|10,1:2|0:0|0:0,0:0:0:0:
94,359,86229,1,2,3:2:0:0:
94,359,86868,1,0,3:0:0:0:
94,359,87187,2,0,L|149:353,1,45.0000017166138,8|2,0:0|0:3,0:0:0:0:
308,343,87825,5,2,1:2:0:0:
205,262,88144,1,2,1:2:0:0:
249,140,88463,1,2,1:2:0:0:
380,144,88782,1,2,1:2:0:0:
416,270,89102,1,0,1:0:0:0:
308,343,89421,1,2,0:3:0:0:
118,236,89660,5,0,1:0:0:0:
113,226,89740,2,0,L|116:183,1,35.9999989013672,10|2,0:2|0:0,0:0:0:0:
61,140,90059,2,0,L|58:97,1,35.9999989013672,2|2,0:2|0:0,0:0:0:0:
109,46,90378,6,0,P|167:31|224:74,1,135.000005149841,6|0,1:2|0:0,0:0:0:0:
432,5,91017,2,0,P|392:30|337:19,1,90.0000034332277,8|0,0:0|1:0,0:0:0:0:
302,90,91495,1,2,0:0:0:0:
299,98,91655,2,0,L|312:236,1,135.000005149841,2|0,0:0|0:0,0:0:0:0:
385,284,92293,2,0,P|387:265|395:239,1,45.0000017166138,10|0,0:0|0:0,0:0:0:0:
239,367,92612,2,0,P|239:333|225:299,1,67.5000025749207,2|0,0:0|0:0,0:0:0:0:
218,295,92931,6,0,B|154:275|141:329|66:313,1,153.000002918243,2|0,1:3|0:0,0:0:0:0:
3,267,93570,1,8,0:0:0:0:
167,137,93889,1,2,1:2:0:0:
96,96,94048,1,2,0:0:0:0:
90,103,94208,2,0,L|99:192,1,90.0000034332277,2|0,0:0|0:0,0:0:0:0:
216,303,94846,1,10,0:0:0:0:
283,327,95006,1,2,0:0:0:0:
352,307,95165,1,2,0:0:0:0:
371,237,95325,1,2,0:0:0:0:
345,169,95485,6,0,P|302:189|256:181,1,90.0000034332277,2|0,1:3|0:0,0:0:0:0:
168,29,95963,2,0,L|177:130,1,102.000001945496,2|0,0:0|0:0,0:0:0:0:
86,226,96442,2,0,P|89:189|96:173,1,45.0000017166138,2|0,1:2|0:0,0:0:0:0:
98,176,96681,1,0,0:0:0:0:
104,170,96761,6,0,P|59:176|15:183,1,90.0000034332277,2|0,0:0|1:0,0:0:0:0:
196,272,97240,2,0,P|242:253|291:264,1,102.000001945496,2|0,0:0|0:0,0:0:0:0:
122,384,97719,2,0,P|123:350|116:323,1,45.0000017166138,2|0,0:0|0:0,0:0:0:0:
118,330,97958,1,0,0:3:0:0:
112,322,98038,6,0,L|126:186,1,135.000005149841,2|0,1:3|0:0,0:0:0:0:
72,35,98676,2,0,P|52:79|61:118,1,90.0000034332277,10|0,0:0|1:0,0:0:0:0:
204,227,99155,1,2,0:0:0:0:
210,233,99314,2,0,P|265:196|331:207,1,135.000005149841,2|0,0:0|0:0,0:0:0:0:
434,101,99953,1,2,1:2:0:0:
504,117,100112,1,2,1:2:0:0:
488,187,100272,1,2,1:2:0:0:
418,170,100431,1,2,0:0:0:0:
461,145,100591,6,0,B|452:90|479:70|464:10,1,135.000005149841,2|0,1:3|0:0,0:0:0:0:
276,97,101229,2,0,P|309:127|353:126,1,90.0000034332277,10|0,0:0|1:0,0:0:0:0:
512,255,101708,1,2,0:0:0:0:
503,250,101868,2,0,P|438:252|405:308,1,135.000005149841,2|0,0:0|0:0,0:0:0:0:
465,373,102506,2,0,P|487:369|509:369,1,45.0000017166138,10|0,0:0|0:0,0:0:0:0:
319,301,102825,2,0,P|296:304|274:304,1,45.0000017166138,2|0,0:0|0:0,0:0:0:0:
395,237,103064,1,0,0:0:0:0:
396,225,103144,6,0,L|408:123,1,102.000001945496,2|0,1:3|0:0,0:0:0:0:
269,11,103623,1,2,1:2:0:0:
265,20,103782,2,0,P|308:58|357:40,1,102.000001945496,10|0,0:0|1:0,0:0:0:0:
188,170,104261,1,2,0:0:0:0:
127,123,104421,2,0,P|111:75|132:26,1,102.000001945496,2|0,0:0|0:0,0:0:0:0:
271,267,105059,1,8,0:0:0:0:
179,280,105219,1,0,1:0:0:0:
87,290,105379,1,0,1:0:0:0:
87,290,105697,5,2,1:2:0:0:
142,30,106017,1,2,1:2:0:0:
401,85,106336,1,2,1:2:0:0:
346,345,106655,1,2,1:2:0:0:
87,290,106974,1,2,1:2:0:0:
87,290,107293,1,2,3:2:0:0:
87,290,107612,6,0,P|84:242|73:192,1,90.0000034332277,8|2,3:2|0:0,0:0:0:0:
75,201,108889,6,0,P|132:198|168:244,1,120,10|2,0:1|0:1,0:0:0:0:
228,301,109846,1,2,0:1:0:0:
160,350,110165,2,0,P|99:356|29:363,1,120,10|2,0:1|1:2,0:0:0:0:
297,255,111123,2,0,L|330:261,1,30,2|2,0:1|0:1,0:0:0:0:
346,282,111442,6,0,B|398:293|413:261|463:271,1,120,10|2,0:1|0:1,0:0:0:0:
417,193,112399,1,2,0:1:0:0:
297,347,112719,1,10,0:1:0:0:
197,246,113038,1,2,0:1:0:0:
131,321,113357,6,0,P|74:332|27:298,1,120,2|10,1:2|0:1,0:0:0:0:
244,233,114634,2,0,P|274:236|302:247,1,60,2|2,0:1|0:1,0:0:0:0:
365,191,115272,2,0,P|358:131|350:71,1,120,10|2,0:1|1:2,0:0:0:0:
506,215,116229,2,0,L|501:244,1,30,2|0,0:1|0:0,0:0:0:0:
501,274,116548,6,0,P|454:268|404:328,1,120,10|2,0:1|0:1,0:0:0:0:
336,372,117506,1,2,0:1:0:0:
235,215,117825,1,2,0:1:0:0:
156,344,118144,1,2,0:1:0:0:
14,268,118463,6,0,B|66:279|81:247|131:257,1,120,2|10,1:2|0:1,0:0:0:0:
240,126,119740,2,0,P|237:91|227:64,1,60,2|0,0:1|0:0,0:0:0:0:
295,15,120378,2,0,P|351:29|381:80,1,120,10|2,0:1|1:2,0:0:0:0:
507,205,121336,2,0,L|515:148,1,30,2|0,0:1|0:0,0:0:0:0:
490,154,121655,6,0,P|430:161|370:168,1,120,8|2,0:0|0:1,0:0:0:0:
183,114,122612,1,2,0:1:0:0:
366,48,122931,1,10,0:1:0:0:
258,210,123251,1,2,0:1:0:0:
251,15,123570,6,0,P|285:62|280:121,1,120,2|10,1:2|0:1,0:0:0:0:
144,284,124846,2,0,P|144:244|152:222,1,60,2|0,0:1|0:0,0:0:0:0:
226,188,125485,2,0,B|278:177|293:209|344:200,1,119.699995068512,10|0,0:1|0:0,0:0:0:0:
404,153,126123,5,2,1:2:0:0:
359,326,126442,1,2,1:2:0:0:
186,280,126761,1,2,1:2:0:0:
231,107,127080,1,2,1:2:0:0:
393,242,127399,5,2,1:1:0:0:
123,350,127719,2,0,L|72:346,1,39.8999983561707,2|0,0:3|0:0,0:0:0:0:
0,133,128038,5,10,0:2:0:0:
14,215,128197,1,2,1:2:0:0:
96,198,128357,1,2,0:2:0:0:
82,116,128516,1,2,1:2:0:0:
49,165,128676,6,0,P|61:92|71:32,1,135.000005149841,6|0,1:2|0:0,0:0:0:0:
116,228,129314,2,0,P|66:270|4:248,1,135.000005149841,10|0,0:0|0:0,0:0:0:0:
192,179,129953,2,0,P|215:182|241:190,1,45.0000017166138,2|0,0:1|0:0,0:0:0:0:
298,125,130272,2,0,L|291:78,1,45.0000017166138,2|0,0:1|0:0,0:0:0:0:
360,185,130591,2,0,B|420:195|430:161|492:170,1,135.000005149841,10|0,0:0|0:0,0:0:0:0:
511,262,131229,6,0,P|472:280|429:267,1,90.0000034332277,2|0,1:3|0:0,0:0:0:0:
275,179,131708,1,2,0:3:0:0:
326,102,131868,2,0,P|370:151|360:220,1,135.000005149841,10|0,0:0|0:0,0:0:0:0:
289,268,132506,2,0,P|262:264|232:251,1,45.0000017166138,2|0,0:1|0:0,0:0:0:0:
172,201,132825,2,0,L|113:211,1,45.0000017166138,2|0,0:1|0:0,0:0:0:0:
46,259,133144,2,0,P|29:217|37:174,1,90.0000034332277,10|0,0:0|0:0,0:0:0:0:
164,33,133782,6,0,P|122:83|58:74,1,135.000005149841,2|0,1:3|0:0,0:0:0:0:
203,155,134421,2,0,B|263:165|273:131|335:140,1,135.000005149841,10|0,0:0|0:0,0:0:0:0:
407,89,135059,2,0,P|413:71|413:44,1,45.0000017166138,2|0,0:1|0:0,0:0:0:0:
512,152,135378,2,0,P|486:158|456:146,1,45.0000017166138,2|0,0:1|0:0,0:0:0:0:
331,290,135697,2,0,P|362:238|440:246,1,135.000005149841,10|0,0:0|0:0,0:0:0:0:
491,288,136256,1,0,0:0:0:0:
494,295,136336,6,0,L|482:394,1,90.0000034332277,2|0,1:3|0:0,0:0:0:0:
366,185,136814,1,2,0:3:0:0:
327,262,136974,2,0,P|377:277|419:245,1,90.0000034332277,10|0,0:0|0:0,0:0:0:0:
225,343,137612,2,0,B|167:332|155:367|92:357,1,135.000005149841,2|0,0:1|0:0,0:0:0:0:
23,296,138251,2,0,P|17:260|12:248,1,45.0000017166138,10|0,0:1|0:0,0:0:0:0:
126,182,138570,2,0,P|132:146|137:134,1,45.0000017166138,2|0,0:1|0:0,0:0:0:0:
27,6,138889,6,0,L|42:140,1,135.000005149841,6|0,1:2|0:0,0:0:0:0:
112,273,139527,2,0,P|56:242|5:281,1,135.000005149841,10|0,0:0|0:0,0:0:0:0:
170,193,140165,2,0,P|193:200|220:201,1,45.0000017166138,2|0,0:1|0:0,0:0:0:0:
284,140,140485,2,0,L|277:82,1,45.0000017166138,2|0,0:1|0:0,0:0:0:0:
356,199,140804,2,0,P|389:165|484:169,1,135.000005149841,10|0,0:0|0:0,0:0:0:0:
418,331,141442,6,0,P|425:287|432:242,1,90.0000034332277,2|0,1:3|0:0,0:0:0:0:
315,106,141921,1,2,0:3:0:0:
246,160,142080,2,0,B|307:144|319:184|379:171,1,135.000005149841,10|0,0:0|0:0,0:0:0:0:
488,125,142719,2,0,P|470:117|440:117,1,45.0000017166138,2|0,0:1|0:0,0:0:0:0:
381,4,143038,2,0,L|387:55,1,45.0000017166138,2|0,0:1|0:0,0:0:0:0:
315,106,143357,2,0,P|280:110|236:79,1,90.0000034332277,10|0,0:0|0:0,0:0:0:0:
177,27,143836,1,2,0:0:0:0:
119,84,143995,6,0,P|125:149|133:223,1,135.000005149841,2|0,1:3|0:0,0:0:0:0:
1,353,144634,2,0,P|44:304|109:312,1,135.000005149841,10|0,0:0|0:0,0:0:0:0:
183,364,145272,2,0,L|231:359,1,45.0000017166138,2|0,0:1|0:0,0:0:0:0:
389,302,145591,2,0,P|366:297|344:297,1,45.0000017166138,2|0,1:2|0:0,0:0:0:0:
274,214,145910,1,10,0:2:0:0:
285,124,146070,1,2,1:2:0:0:
296,35,146229,1,2,1:2:0:0:
296,35,146548,5,2,1:2:0:0:
213,24,146868,5,2,1:2:0:0:
129,62,147187,5,2,1:2:0:0:
96,156,147506,5,2,1:2:0:0:
127,264,147825,5,2,1:2:0:0:
232,326,148144,5,2,1:2:0:0:
360,302,148463,5,2,1:2:0:0:
420,176,148782,5,2,1:2:0:0:
347,56,149102,6,0,P|322:65|297:69,1,51.0000009727478,2|0,1:0|0:0,0:0:0:0:
173,138,149421,2,0,P|198:142|222:150,1,51.0000009727478,2|0,1:2|0:0,0:0:0:0:
366,244,149740,2,0,P|341:252|316:256,1,51.0000009727478,2|0,1:2|0:0,0:0:0:0:
152,352,150059,2,0,P|177:356|201:364,1,51.0000009727478,2|0,1:2|0:0,0:0:0:0:
256,211,150378,6,0,B|240:124|279:143|340:82|296:-5|190:-16|174:88|217:102,1,292.799987937012,2|2,1:3|0:0,0:0:0:0:
206,94,152293,2,0,P|183:106|166:108,1,41.9999987182618,2|0,0:0|0:0,0:0:0:0:
91,83,152931,2,0,P|86:45|80:0,1,83.9999974365235,2|2,0:0|0:0,0:0:0:0:
0,211,154208,6,0,P|45:206|85:233,1,83.9999974365235,2|0,0:0|0:0,0:0:0:0:
249,124,155165,1,2,0:0:0:0:
242,118,155325,2,0,P|200:123|158:128,1,83.9999974365235,2|0,0:0|0:0,0:0:0:0:
106,86,156123,2,0,L|108:65,3,20.9999993591309,2|2|2|2,0:0|0:0|0:0|0:0,0:0:0:0:
57,20,156761,6,0,P|22:21|-5:40,2,62.9999980773926,2|2|2,0:0|0:0|0:0,0:0:0:0:
199,106,158038,2,0,P|234:107|261:126,2,62.9999980773926,2|2|2,0:0|0:0|0:0,0:0:0:0:
100,287,159314,6,0,P|103:245|107:203,1,83.9999974365235,2|0,1:2|0:0,0:0:0:0:
274,355,160272,1,2,0:0:0:0:
274,355,160591,2,0,P|241:353|197:365,1,62.9999980773926,2|0,0:0|0:0,0:0:0:0:
200,341,161229,6,0,L|210:281,1,41.9999987182618,2|0,0:0|0:0,0:0:0:0:
308,233,161868,2,0,L|301:169,1,62.9999980773926,2|0,1:2|0:0,0:0:0:0:
316,155,162506,2,0,P|336:155|357:158,1,41.9999987182618,2|0,0:0|0:0,0:0:0:0:
198,103,162985,2,0,P|167:108|131:112,1,62.9999980773926,2|0,0:0|0:0,0:0:0:0:
274,12,163782,1,2,1:2:0:0:
274,12,164102,1,2,0:0:0:0:
391,213,164421,6,0,P|395:192|397:171,1,41.9999987182618,2|0,1:2|0:0,0:0:0:0:
120,213,165059,2,0,P|116:192|114:171,1,41.9999987182618,2|0,0:2|0:0,0:0:0:0:
256,224,165538,1,2,0:0:0:0:
256,230,165697,2,0,L|251:298,1,62.9999980773926,2|0,1:2|0:0,0:0:0:0:
310,344,166336,2,0,L|348:339,1,20.9999993591309,2|2,0:0|0:0,0:0:0:0:
405,297,166655,2,0,L|443:302,1,20.9999993591309,2|2,0:0|0:0,0:0:0:0:
503,359,166974,5,2,1:2:0:0:
456,209,167293,1,2,1:2:0:0:
503,359,167612,1,2,1:2:0:0:
456,209,167931,1,2,1:2:0:0:
375,361,168251,5,2,1:2:0:0:
423,75,168570,1,2,1:2:0:0:
137,27,168889,1,2,1:2:0:0:
89,313,169208,1,0,0:0:0:0:
492,193,169527,6,0,L|463:187,1,26.9999991760254,2|0,1:2|0:0,0:0:0:0:
413,141,169846,6,0,L|380:145,1,33.0000010070801,2|0,1:2|0:0,0:0:0:0:
326,195,170165,6,0,L|286:186,1,38.9999982147218,2|0,1:2|0:0,0:0:0:0:
230,142,170485,6,0,L|182:149,1,45.0000017166138,2|0,1:2|0:0,0:0:0:0:
121,192,170804,6,0,L|66:182,1,51.0000009727478,2|2,1:2|1:2,0:0:0:0:
1,141,171123,5,2,1:2:0:0:
1,141,171442,5,10,1:2:0:0:
10,67,171602,1,2,1:2:0:0:
71,26,171761,1,2,1:2:0:0:
145,29,171921,1,2,1:2:0:0:
197,80,172080,6,0,B|259:93|272:53|329:66,1,135.000005149841,6|0,1:2|0:0,0:0:0:0:
471,131,172719,2,0,P|475:86|482:41,1,90.0000034332277,8|0,0:0|1:0,0:0:0:0:
385,180,173197,1,2,0:0:0:0:
392,174,173357,2,0,P|457:177|487:234,1,135.000005149841,2|0,0:0|0:0,0:0:0:0:
424,292,173995,2,0,P|396:288|372:284,1,45.0000017166138,10|0,0:0|0:0,0:0:0:0:
298,157,174314,2,0,P|301:188|304:231,1,67.5000025749207,2|0,0:0|0:0,0:0:0:0:
294,234,174634,6,0,P|260:202|167:213,1,135.000005149841,2|0,1:3|0:0,0:0:0:0:
112,254,175272,1,8,0:0:0:0:
4,83,175591,1,2,1:2:0:0:
69,131,175751,1,2,0:0:0:0:
77,134,175910,2,0,L|171:123,1,90.0000034332277,2|0,0:0|0:0,0:0:0:0:
301,19,176548,1,10,0:0:0:0:
292,89,176707,1,2,0:0:0:0:
364,97,176867,1,2,0:0:0:0:
371,24,177026,1,2,0:0:0:0:
333,61,177186,6,0,L|341:153,1,90.0000034332277,2|0,1:3|0:0,0:0:0:0:
409,235,177665,2,0,P|458:242|493:207,1,102.000001945496,2|0,0:0|0:0,0:0:0:0:
343,325,178144,2,0,P|313:319|284:322,1,45.0000017166138,2|0,1:2|0:0,0:0:0:0:
290,315,178384,1,0,0:0:0:0:
281,311,178463,6,0,L|176:324,1,90.0000034332277,2|0,0:0|1:0,0:0:0:0:
15,258,178942,2,0,P|58:232|104:248,1,102.000001945496,2|0,0:0|0:0,0:0:0:0:
192,175,179421,2,0,P|199:147|196:120,1,45.0000017166138,2|0,0:0|0:0,0:0:0:0:
193,123,179660,1,0,0:3:0:0:
186,116,179740,6,0,B|122:96|109:150|34:134,1,153.000002918243,2|0,1:3|0:0,0:0:0:0:
214,32,180378,1,10,0:0:0:0:
286,84,180538,2,0,P|315:83|350:68,1,53.9999983520508,0|0,1:0|1:0,0:0:0:0:
338,74,181017,2,0,P|329:140|320:207,1,135.000005149841,2|0,0:0|0:0,0:0:0:0:
420,350,181655,1,2,1:2:0:0:
510,317,181815,1,2,1:2:0:0:
436,254,181974,1,2,1:2:0:0:
456,306,182134,1,2,0:0:0:0:
448,301,182293,6,0,P|383:293|339:349,1,135.000005149841,2|0,1:3|0:0,0:0:0:0:
151,254,182931,2,0,P|189:274|233:268,1,90.0000034332277,10|0,0:0|1:0,0:0:0:0:
315,183,183410,1,2,0:0:0:0:
312,174,183570,2,0,B|303:119|330:99|315:39,1,135.000005149841,2|0,0:0|0:0,0:0:0:0:
233,82,184208,2,0,P|200:85|166:80,1,45.0000017166138,10|0,0:0|0:0,0:0:0:0:
397,146,184527,2,0,P|430:143|464:148,1,45.0000017166138,2|0,0:0|0:0,0:0:0:0:
273,256,184846,6,0,P|221:228|170:250,1,102.000001945496,2|0,1:3|0:0,0:0:0:0:
76,156,185325,1,2,1:2:0:0:
78,165,185485,2,0,L|89:266,1,102.000001945496,10|0,0:0|1:0,0:0:0:0:
186,133,185963,1,2,0:0:0:0:
123,73,186123,2,0,P|74:83|31:57,1,102.000001945496,2|0,0:0|0:0,0:0:0:0:
251,190,186761,2,0,P|285:171|326:180,1,76.5000014591217,10|0,1:2|0:0,0:0:0:0:
334,189,187080,2,0,L|384:185,1,51.0000009727478,2|0,1:2|0:0,0:0:0:0:
506,124,187399,6,0,P|475:116|447:121,1,53.9999983520508,2|0,1:2|0:0,0:0:0:0:
464,260,187719,2,0,P|468:233|473:206,1,53.9999983520508,2|0,1:2|0:0,0:0:0:0:
375,46,188038,2,0,P|370:72|365:99,1,53.9999983520508,2|0,1:2|0:0,0:0:0:0:
296,153,188357,2,0,P|269:154|242:156,1,53.9999983520508,2|0,1:2|0:0,0:0:0:0:
158,105,188676,5,2,1:2:0:0:
393,207,188995,1,2,3:2:0:0:
190,352,189314,5,10,0:2:0:0:
173,277,189474,1,2,1:2:0:0:
101,252,189634,1,2,1:2:0:0:
33,284,189793,1,2,1:2:0:0:
27,277,189953,6,0,P|35:210|43:143,1,135.000005149841,6|0,1:2|0:0,0:0:0:0:
159,34,190591,2,0,P|124:72|86:63,1,90.0000034332277,10|2,0:0|0:0,0:0:0:0:
200,131,191070,1,0,0:0:0:0:
208,134,191229,2,0,L|264:131,1,45.0000017166138,2|0,0:1|0:0,0:0:0:0:
327,77,191548,2,0,P|333:57|328:22,1,45.0000017166138,2|0,0:1|0:0,0:0:0:0:
400,135,191868,2,0,P|437:134|477:180,1,90.0000034332277,10|2,0:0|0:0,0:0:0:0:
505,241,192346,1,0,0:0:0:0:
452,300,192506,6,0,B|394:289|382:324|319:314,1,135.000005149841,2|0,1:3|0:0,0:0:0:0:
223,196,193144,2,0,P|227:240|231:285,1,90.0000034332277,10|2,0:0|0:0,0:0:0:0:
172,348,193623,1,0,0:0:0:0:
163,356,193782,2,0,P|135:349|112:353,1,45.0000017166138,2|0,0:1|0:0,0:0:0:0:
20,305,194102,2,0,L|27:362,1,45.0000017166138,2|0,0:1|0:0,0:0:0:0:
99,267,194421,1,10,0:0:0:0:
99,267,194740,2,0,L|104:234,2,22.5000008583069,2|0|2,0:0|0:0|0:0,0:0:0:0:
32,192,195059,6,0,P|97:203|141:155,1,135.000005149841,2|0,1:3|0:0,0:0:0:0:
227,83,195697,2,0,B|285:72|297:107|360:97,1,135.000005149841,10|0,0:0|0:0,0:0:0:0:
485,36,196336,2,0,P|457:37|431:29,1,45.0000017166138,2|0,0:1|0:0,0:0:0:0:
445,172,196655,2,0,P|447:144|453:122,1,45.0000017166138,2|0,0:1|0:0,0:0:0:0:
348,7,196974,2,0,P|353:51|358:96,1,90.0000034332277,10|2,0:0|0:0,0:0:0:0:
304,150,197453,1,0,0:0:0:0:
244,99,197612,6,0,P|202:82|159:92,1,90.0000034332277,2|0,1:3|0:0,0:0:0:0:
0,153,198091,1,2,0:3:0:0:
66,201,198251,2,0,P|71:156|77:111,1,90.0000034332277,10|0,0:0|0:0,0:0:0:0:
265,286,198889,2,0,P|263:263|260:241,1,45.0000017166138,2|0,0:1|0:0,0:0:0:0:
317,174,199208,1,2,0:1:0:0:
317,174,199527,2,0,P|353:179|379:191,1,45.0000017166138,10|0,0:1|0:0,0:0:0:0:
214,121,199846,2,0,P|191:125|169:129,1,45.0000017166138,2|0,0:1|0:0,0:0:0:0:
310,48,200165,6,0,B|370:58|380:24|442:33,1,135.000005149841,6|0,1:2|0:0,0:0:0:0:
512,148,200804,2,0,P|468:157|432:133,1,90.0000034332277,10|2,0:0|0:0,0:0:0:0:
369,192,201282,1,0,0:0:0:0:
367,200,201442,2,0,L|375:255,1,45.0000017166138,2|0,0:1|0:0,0:0:0:0:
449,303,201761,2,0,P|471:299|493:296,1,45.0000017166138,2|0,0:1|0:0,0:0:0:0:
364,368,202080,2,0,P|329:342|285:345,1,90.0000034332277,10|2,0:0|0:0,0:0:0:0:
216,377,202559,1,0,0:0:0:0:
152,335,202719,6,0,P|85:341|18:348,1,135.000005149841,2|0,1:3|0:0,0:0:0:0:
90,185,203357,2,0,P|114:221|106:264,1,90.0000034332277,10|2,0:0|0:0,0:0:0:0:
11,177,203836,1,0,0:0:0:0:
7,168,203995,2,0,L|12:120,1,45.0000017166138,2|0,0:1|0:0,0:0:0:0:
117,38,204314,2,0,P|96:52|74:54,1,45.0000017166138,2|0,0:1|0:0,0:0:0:0:
188,135,204634,2,0,P|228:115|280:124,1,90.0000034332277,10|2,0:0|0:0,0:0:0:0:
334,167,205112,1,0,0:0:0:0:
395,118,205272,6,0,P|400:73|405:28,1,90.0000034332277,2|2,1:3|1:3,0:0:0:0:
167,231,205910,2,0,P|161:186|156:141,1,90.0000034332277,10|0,1:2|0:0,0:0:0:0:
220,91,206389,2,0,L|255:92,2,22.5000008583069,2|0|0,0:0|0:0|1:0,0:0:0:0:
162,38,206708,1,2,0:0:0:0:
96,81,206868,2,0,P|68:81|47:74,1,45.0000017166138,0|0,1:0|1:0,0:0:0:0:
213,189,207187,1,10,0:0:0:0:
278,141,207346,2,0,P|319:128|364:147,1,90.0000034332277,2|0,0:0|0:0,0:0:0:0:
429,93,207825,6,0,L|419:37,1,45.0000017166138,2|0,1:2|0:0,0:0:0:0:
496,200,208144,2,0,L|505:142,1,45.0000017166138,2|0,1:2|0:0,0:0:0:0:
404,256,208463,1,2,1:2:0:0:
405,265,208623,1,2,1:2:0:0:
485,333,208782,2,0,L|478:271,1,45.0000017166138,2|0,1:2|0:0,0:0:0:0:
340,200,209102,5,0,3:0:0:0:
271,182,209261,1,0,3:0:0:0:
210,219,209421,1,0,3:0:0:0:
196,289,209580,1,0,3:0:0:0:
237,348,209740,5,10,0:2:0:0:
127,212,209899,1,0,1:0:0:0:
59,290,210059,2,0,P|61:325|64:361,1,71.9999978027344,2|0,0:0|1:0,0:0:0:0:
44,54,211017,5,10,0:1:0:0:
44,54,211655,2,0,L|84:58,1,35.9999989013672,2|0,0:1|0:0,0:0:0:0:
132,146,211974,2,0,L|139:108,1,35.9999989013672,2|0,0:1|0:0,0:0:0:0:
54,181,212293,2,0,B|115:165|131:213|194:198,1,143.999995605469,10|2,0:1|0:1,0:0:0:0:
271,113,213251,6,0,L|268:152,1,35.9999989013672,2|0,0:1|0:0,0:0:0:0:
334,203,213570,2,0,P|403:202|444:146,1,143.999995605469,10|2,0:1|0:1,0:0:0:0:
327,288,214527,1,2,0:1:0:0:
398,348,214846,2,0,P|433:342|469:339,1,71.9999978027344,10|2,0:1|0:1,0:0:0:0:
241,245,215485,6,0,P|190:251|170:298,1,107.999996704102,2|0,0:1|0:0,0:0:0:0:
103,345,216123,2,0,P|67:349|31:354,1,71.9999978027344,10|0,0:1|0:0,0:0:0:0:
67,263,216761,1,2,0:1:0:0:
182,373,217080,1,2,0:1:0:0:
250,216,217399,1,10,0:1:0:0:
442,327,218038,6,0,P|477:329|512:339,2,71.9999978027344,2|2|10,0:1|0:1|0:1,0:0:0:0:
203,134,219314,1,2,0:1:0:0:
323,114,219634,1,2,0:1:0:0:
343,235,219953,1,10,0:1:0:0:
222,254,220272,1,2,0:1:0:0:
222,254,220591,6,0,P|164:215|94:221,1,143.999995605469,2|10,0:1|0:1,0:0:0:0:
186,6,221868,2,0,P|194:40|197:76,1,71.9999978027344,2|2,0:1|0:1,0:0:0:0:
274,127,222506,2,0,B|337:138|354:98|415:110,1,143.999995605469,10|2,0:1|0:1,0:0:0:0:
503,247,223463,6,0,L|510:211,1,35.9999989013672,2|0,0:1|0:0,0:0:0:0:
433,294,223782,2,0,P|363:290|322:346,1,143.999995605469,10|2,0:1|0:1,0:0:0:0:
172,220,224740,1,2,0:1:0:0:
132,314,225059,2,0,P|167:311|203:311,1,71.9999978027344,10|2,0:1|0:1,0:0:0:0:
291,192,225697,6,0,P|287:150|282:107,1,71.9999978027344,2|0,1:1|0:0,0:0:0:0:
283,120,226335,1,8,0:0:0:0:
283,120,227001,6,0,P|285:96|290:56,1,45.0000017166138,2|0,1:2|0:0,0:0:0:0:
287,75,227639,2,0,L|243:82,1,45.0000017166138,8|0,0:2|0:0,0:0:0:0:
184,130,228291,2,0,P|139:123|94:118,1,90.0000034332277,2|0,0:3|0:0,0:0:0:0:
94,118,229272,1,2,0:0:0:0:
29,171,229602,6,0,P|48:236|46:301,1,132.00000402832
