osu file format v14

[General]
AudioFilename: audio.mp3
AudioLeadIn: 0
PreviewTime: -1
Countdown: 0
SampleSet: Normal
StackLeniency: 0.7
Mode: 0
LetterboxInBreaks: 0
WidescreenStoryboard: 0

[Editor]
DistanceSpacing: 1
BeatDivisor: 4
GridSize: 32
TimelineZoom: 1

[Metadata]
Title:Koi Wazurai
TitleUnicode:Koi Wazurai
Artist:Aimer
ArtistUnicode:Aimer
Creator:William K
Version:Style v1
Source:
Tags:
BeatmapID:1991161
BeatmapSetID:953642

[Difficulty]
HPDrainRate:6
CircleSize:4
OverallDifficulty:9
ApproachRate:9
SliderMultiplier:2.6
SliderTickRate:1

[Events]
//Background and Video events
0,0,"pixiv cut.jpg",0,0
//Break Periods
//Storyboard Layer 0 (Background)
//Storyboard Layer 1 (Fail)
//Storyboard Layer 2 (Pass)
//Storyboard Layer 3 (Foreground)
//Storyboard Sound Samples

[TimingPoints]
1130,638.297872340426,4,1,0,40,1,0
1130,-133.333333333333,4,1,0,40,0,0
21555,-105.263157894737,4,1,0,40,0,0
39747,-95.2380952380951,4,1,0,40,0,0
40066,-86.9565217391304,4,1,0,40,0,0
40385,-80,4,1,0,40,0,1
80278,-133.333333333333,4,1,0,40,0,0
96236,666.666666666667,4,1,0,40,1,0
96236,-133.333333333333,4,1,0,40,0,0
96902,638.297872340426,4,1,0,40,1,0
97540,652.173913043479,4,1,0,40,1,0
97540,-133.333333333333,4,1,0,40,0,0
98844,705.882352941177,4,1,0,40,1,0
98844,-133.333333333333,4,1,0,40,0,0
99549,638.297872340426,4,1,0,40,1,0

[Colours]
Combo1 : 255,225,136
Combo2 : 147,255,147
Combo3 : 159,203,255
Combo4 : 250,156,170

[HitObjects]
180,93,1130,6,0,P|187:150|176:203,1,97.50000371933
106,344,1768,1,0,0:0:0:0:
121,324,1927,2,0,P|162:303|228:328,1,97.50000371933
228,331,2406,2,0,L|349:313,1,97.50000371933
436,168,3044,1,0,0:0:0:0:
419,186,3204,2,0,L|430:260,1,48.750001859665
361,46,3683,6,0,P|317:32|228:57,1,97.50000371933
127,116,4321,1,0,0:0:0:0:
145,100,4481,2,0,P|197:132|218:183,1,97.50000371933
227,185,4959,2,0,L|211:324,1,97.50000371933
58,361,5598,1,0,0:0:0:0:
214,302,5917,2,0,L|297:319,1,48.750001859665
335,346,6236,6,0,P|370:334|436:322,1,97.50000371933
480,194,6874,1,0,0:0:0:0:
447,206,7034,2,0,P|384:181|365:142,1,97.50000371933
378,135,7512,2,0,L|264:149,1,97.50000371933
105,73,8151,1,0,0:0:0:0:
119,95,8310,2,0,L|104:173,1,48.750001859665
163,315,8789,6,0,P|154:267|119:214,1,97.50000371933
258,321,9427,1,0,0:0:0:0:
274,301,9587,2,0,P|322:282|378:294,1,97.50000371933
379,311,10066,1,0,0:0:0:0:
415,42,10704,1,0,0:0:0:0:
352,119,11023,2,0,P|360:159|359:207,1,48.750001859665
331,92,11342,6,0,L|218:84,1,97.50000371933
217,63,11821,1,0,0:0:0:0:
113,129,11981,1,0,0:0:0:0:
131,111,12140,2,0,P|156:193|143:229,1,97.50000371933
154,228,12619,2,0,L|37:211,1,97.50000371933
236,340,13257,1,0,0:0:0:0:
362,208,13576,2,0,P|376:255|369:295,1,48.750001859665
339,180,13895,6,0,P|327:121|336:62,1,97.50000371933
349,56,14374,1,0,0:0:0:0:
464,146,14534,1,0,0:0:0:0:
485,135,14693,2,0,L|474:249,1,97.50000371933
453,239,15172,2,0,L|464:353,1,97.50000371933
307,198,15810,1,0,0:0:0:0:
292,220,15970,2,0,P|288:249|296:288,2,48.750001859665
239,126,16449,6,0,P|190:119|100:115,1,97.50000371933
126,134,16927,1,0,0:0:0:0:
10,62,17087,1,0,0:0:0:0:
32,48,17247,2,0,L|20:161,1,97.50000371933
0,157,17725,2,0,P|46:147|131:180,1,97.50000371933
256,252,18364,1,0,0:0:0:0:
235,238,18523,2,0,P|202:234|148:270,1,97.50000371933
256,252,19002,6,0,L|360:241,1,97.50000371933
369,258,19481,1,0,0:0:0:0:
418,138,19640,1,0,0:0:0:0:
435,155,19800,2,0,P|446:100|434:41,1,97.50000371933
442,36,20278,2,0,L|331:37,1,97.50000371933
472,248,20917,2,0,P|355:266|306:292,1,146.250005578995
283,339,21555,6,0,B|218:316|241:374|136:340,1,123.499996702194
143,328,22034,1,0,0:0:0:0:
180,174,22193,1,0,0:0:0:0:
135,242,22406,6,0,P|80:243|8:176,1,123.499996702194
99,89,22832,1,0,0:0:0:0:
26,170,22992,2,0,P|19:140|11:111,1,61.7499983510972
252,294,23470,1,0,0:0:0:0:
275,315,24108,6,0,B|351:317|291:371|412:370,1,123.499996702194
407,351,24587,1,0,0:0:0:0:
362,204,24747,1,0,0:0:0:0:
422,258,24959,6,0,P|442:186|442:118,1,123.499996702194
322,132,25385,1,0,0:0:0:0:
388,76,25544,2,0,P|388:30|374:-7,1,61.7499983510972
226,229,26023,1,0,0:0:0:0:
207,244,26661,6,0,P|195:165|183:116,1,123.499996702194
169,109,27140,1,0,0:0:0:0:
75,280,27300,1,0,0:0:0:0:
156,308,27459,2,0,P|248:285|309:274,1,123.499996702194
457,251,27938,1,0,0:0:0:0:
309,287,28098,2,0,P|347:304|396:324,1,61.7499983510972
423,41,28576,1,0,0:0:0:0:
275,177,29215,6,0,P|268:218|268:268,1,61.7499983510972
187,149,29534,2,0,P|184:118|178:87,1,61.7499983510972
130,241,29853,2,0,P|63:227|0:188,1,123.499996702194
99,149,30332,1,0,0:0:0:0:
203,296,30491,1,0,0:0:0:0:
270,244,30651,2,0,P|255:191|245:153,1,61.7499983510972
205,312,30970,1,0,0:0:0:0:
354,258,31130,1,0,0:0:0:0:
112,343,31449,1,0,0:0:0:0:
361,278,31768,6,0,P|424:279|469:299,1,61.7499983510972
505,195,32087,2,0,P|442:194|397:174,1,61.7499983510972
329,124,32406,1,0,0:0:0:0:
406,123,32619,6,0,P|454:96|508:38,1,123.499996702194
324,90,33044,1,0,0:0:0:0:
247,37,33204,2,0,P|173:31|140:35,1,61.7499983510972
121,290,33683,1,0,0:0:0:0:
196,248,33895,6,0,P|186:211|181:193,1,41.1666655673981
194,331,34161,1,0,0:0:0:0:
281,239,34321,6,0,P|278:175|269:138,1,61.7499983510972
350,288,34640,2,0,P|346:318|347:349,1,61.7499983510972
425,159,34959,1,0,0:0:0:0:
418,235,35172,6,0,P|389:154|356:103,1,123.499996702194
262,55,35598,1,0,0:0:0:0:
346,35,35757,2,0,P|377:29|427:41,1,61.7499983510972
211,154,36236,1,0,0:0:0:0:
426,44,36555,1,0,0:0:0:0:
274,85,36715,1,0,0:0:0:0:
468,126,36874,6,0,P|465:184|466:227,1,61.7499983510972
377,324,37193,2,0,P|376:293|373:262,1,61.7499983510972
178,187,37512,1,0,0:0:0:0:
271,264,37725,6,0,P|285:188|275:109,1,123.499996702194
177,152,38151,1,0,0:0:0:0:
298,64,38310,2,0,P|346:77|390:104,1,61.7499983510972
45,178,38789,2,0,P|58:237|65:279,1,61.7499983510972
121,326,39108,2,0,P|127:295|134:265,1,61.7499983510972
332,257,39427,6,0,P|280:280|235:285,1,61.7499983510972
133,116,39747,2,0,P|162:125|199:142,1,68.2499979171754
413,227,40066,2,0,P|410:279|403:332,1,74.7500014257432
55,161,40385,2,0,P|51:123|49:86,1,74.7500014257432
395,134,40704,1,0,0:0:0:0:
55,244,41023,2,0,P|53:319|74:382,1,121.875
84,363,41342,5,0,0:0:0:0:
248,216,41502,1,0,0:0:0:0:
469,228,41661,1,0,0:0:0:0:
231,124,41821,1,0,0:0:0:0:
53,359,41981,6,0,P|28:283|-4:176,1,162.5
208,353,42459,1,0,0:0:0:0:
127,201,42619,2,0,P|119:266|120:325,1,81.25
322,343,42938,2,0,P|319:302|313:262,1,81.25
66,146,43257,2,0,P|155:151|303:145,1,162.5
298,92,43736,1,0,0:0:0:0:
470,223,43895,2,0,P|487:277|477:342,1,81.25
322,113,44215,2,0,P|324:72|339:34,1,81.25
352,332,44534,6,0,P|237:301|173:306,1,162.5
0,313,45012,1,0,0:0:0:0:
192,269,45172,2,0,P|233:246|288:189,1,81.25
25,177,45491,1,0,0:0:0:0:
88,360,45651,1,0,0:0:0:0:
179,171,45810,2,0,P|172:130|111:9,1,162.5
33,48,46289,1,0,0:0:0:0:
87,254,46449,5,0,0:0:0:0:
261,139,46608,1,0,0:0:0:0:
472,186,46768,1,0,0:0:0:0:
249,59,46927,1,0,0:0:0:0:
71,264,47087,6,0,P|138:306|254:297,1,162.5
337,221,47566,1,0,0:0:0:0:
164,133,47725,2,0,P|161:180|180:236,1,81.25
419,264,48044,2,0,P|427:224|423:184,1,81.25
77,73,48364,6,0,P|99:58|252:59,1,162.5
337,221,48842,1,0,0:0:0:0:
168,212,49002,2,0,P|160:173|164:133,1,81.25
423,184,49321,2,0,P|427:224|419:264,1,81.25
346,302,49560,1,0,0:0:0:0:
346,302,49640,6,0,L|161:291,1,162.5
113,350,50119,1,0,0:0:0:0:
315,199,50278,2,0,P|295:150|268:75,1,81.25
75,261,50598,2,0,P|33:306|18:354,1,81.25
225,66,50917,2,0,B|313:46|262:145|446:111,1,162.5
364,28,51395,1,0,0:0:0:0:
140,123,51555,5,0,0:0:0:0:
403,296,51715,1,0,0:0:0:0:
42,162,51874,5,0,0:0:0:0:
232,113,52034,1,0,0:0:0:0:
178,197,52193,6,0,P|143:98|98:13,1,162.5
268,198,52672,1,0,0:0:0:0:
379,12,52832,2,0,P|459:31|514:82,1,81.25
267,277,53151,1,0,0:0:0:0:
289,60,53310,1,0,0:0:0:0:
472,308,53470,6,0,P|414:342|288:340,1,162.5
220,356,53949,1,0,0:0:0:0:
422,219,54108,2,0,P|412:146|376:85,1,81.25
166,290,54427,2,0,P|96:298|36:270,1,81.25
366,34,54747,6,0,P|347:185|333:271,1,162.5
20,378,55385,2,0,P|8:297|0:216,1,162.5
498,358,56023,2,0,P|412:370|306:381,1,162.5
16,16,56661,2,0,P|96:24|177:36,1,162.5
220,108,57140,1,0,0:0:0:0:
443,100,57300,6,0,P|463:52|462:4,1,81.25
157,178,57619,2,0,P|165:219|218:290,1,81.25
496,215,57938,2,0,P|389:178|378:176,1,81.25
156,338,58257,2,0,P|245:336|293:321,1,81.25
379,109,58576,5,0,0:0:0:0:
337,332,58736,1,0,0:0:0:0:
228,94,58895,2,0,P|213:46|193:-25,1,81.25
64,333,59215,5,0,0:0:0:0:
323,229,59374,1,0,0:0:0:0:
136,236,59534,5,0,0:0:0:0:
245,285,59693,1,0,0:0:0:0:
25,12,59853,6,0,P|39:124|51:263,1,243.75
142,49,60491,2,0,P|208:37|258:64,1,81.25
424,97,60810,2,0,P|410:180|410:227,1,81.25
318,82,61130,5,0,0:0:0:0:
286,355,61289,1,0,0:0:0:0:
253,161,61449,5,0,0:0:0:0:
342,266,61608,1,0,0:0:0:0:
124,346,61768,6,0,P|53:319|18:231,1,162.5
81,174,62247,1,0,0:0:0:0:
286,355,62406,6,0,P|339:318|467:307,1,162.5
218,309,62885,1,0,0:0:0:0:
364,140,63044,2,0,P|411:141|489:181,1,81.25
202,227,63364,2,0,P|179:175|157:128,1,81.25
349,62,63683,5,0,0:0:0:0:
300,267,63842,1,0,0:0:0:0:
257,57,64002,5,0,0:0:0:0:
401,254,64161,1,0,0:0:0:0:
161,66,64321,6,0,P|99:83|11:104,1,81.25
120,331,64640,1,0,0:0:0:0:
168,152,64800,1,0,0:0:0:0:
370,339,64959,6,0,P|380:246|412:149,1,162.5
456,330,65438,1,0,0:0:0:0:
205,251,65598,2,0,P|120:237|52:248,1,81.25
352,104,65917,2,0,P|350:60|336:7,1,81.25
197,338,66236,5,0,0:0:0:0:
237,119,66395,1,0,0:0:0:0:
284,352,66555,5,0,0:0:0:0:
145,148,66715,1,0,0:0:0:0:
55,384,66874,6,0,P|114:335|199:337,1,162.5
326,274,67353,1,0,0:0:0:0:
61,164,67512,6,0,P|28:104|16:34,1,81.25
279,191,67832,2,0,P|368:175|424:191,1,81.25
155,22,68151,2,0,P|120:104|118:143,1,81.25
349,342,68470,2,0,P|305:222|301:214,1,81.25
219,91,68789,5,0,0:0:0:0:
240,336,68949,1,0,0:0:0:0:
368,101,69108,2,0,P|354:52|330:8,1,81.25
138,255,69427,1,0,0:0:0:0:
357,185,69587,1,0,0:0:0:0:
217,195,69747,1,0,0:0:0:0:
326,362,69906,1,0,0:0:0:0:
467,185,70066,6,0,P|473:85|440:-38,1,162.5
420,278,70544,1,0,0:0:0:0:
283,94,70704,2,0,P|231:53|156:39,1,81.25
75,265,71023,2,0,P|31:308|13:360,1,81.25
200,137,71342,5,0,0:0:0:0:
156,358,71502,1,0,0:0:0:0:
123,112,71661,5,0,0:0:0:0:
236,321,71821,1,0,0:0:0:0:
419,95,71981,6,0,P|416:49|381:-2,1,81.25
292,252,72300,1,0,0:0:0:0:
470,201,72459,1,0,0:0:0:0:
201,109,72619,6,0,P|127:109|29:172,1,162.5
82,233,73098,1,0,0:0:0:0:
305,109,73257,2,0,P|302:68|283:25,1,81.25
155,289,73576,2,0,P|129:331|123:397,1,81.25
382,198,73895,5,0,0:0:0:0:
196,171,74055,1,0,0:0:0:0:
428,283,74215,5,0,0:0:0:0:
247,354,74374,1,0,0:0:0:0:
460,146,74534,6,0,P|445:84|417:18,1,81.25
348,362,74853,1,0,0:0:0:0:
282,143,75012,1,0,0:0:0:0:
30,324,75172,6,0,P|76:341|148:340,1,81.25
254,105,75491,2,0,P|213:110|176:125,1,81.25
312,354,75810,2,0,P|321:276|302:209,1,81.25
44,117,76130,2,0,P|87:221|82:241,1,81.25
75,217,76369,1,0,0:0:0:0:
75,217,76449,5,0,0:0:0:0:
359,126,76608,1,0,0:0:0:0:
91,53,76768,1,0,0:0:0:0:
405,209,76927,1,0,0:0:0:0:
40,300,77087,1,0,0:0:0:0:
292,209,77247,1,0,0:0:0:0:
44,117,77406,1,0,0:0:0:0:
224,73,77566,1,0,0:0:0:0:
472,296,77725,6,0,P|468:353|466:406,1,81.25
294,287,78044,2,0,P|310:352|314:397,1,81.25
466,130,78364,1,0,0:0:0:0:
222,331,78523,1,0,0:0:0:0:
57,115,78683,2,0,P|60:67|94:8,1,81.25
395,213,79002,5,0,0:0:0:0:
87,263,79161,1,0,0:0:0:0:
328,135,79321,1,0,0:0:0:0:
328,135,79481,1,0,0:0:0:0:
105,344,79640,5,0,0:0:0:0:
165,40,79800,1,0,0:0:0:0:
255,361,79959,1,0,0:0:0:0:
91,121,80119,1,0,0:0:0:0:
9,352,80278,5,0,0:0:0:0:
299,199,80757,1,0,0:0:0:0:
299,199,80917,1,0,0:0:0:0:
236,129,81236,1,0,0:0:0:0:
207,222,81555,1,0,0:0:0:0:
326,111,81874,1,0,0:0:0:0:
485,324,82193,1,0,0:0:0:0:
72,119,82832,5,0,0:0:0:0:
299,331,83310,1,0,0:0:0:0:
299,331,83470,1,0,0:0:0:0:
402,38,83789,1,0,0:0:0:0:
370,115,84108,1,0,0:0:0:0:
453,109,84427,1,0,0:0:0:0:
251,64,84747,1,0,0:0:0:0:
302,255,85066,1,0,0:0:0:0:
71,45,85385,5,0,0:0:0:0:
105,353,85864,1,0,0:0:0:0:
105,353,86023,1,0,0:0:0:0:
177,178,86342,1,0,0:0:0:0:
180,291,86661,1,0,0:0:0:0:
276,232,86981,1,0,0:0:0:0:
71,238,87300,1,0,0:0:0:0:
433,330,87938,5,0,0:0:0:0:
346,104,88417,1,0,0:0:0:0:
346,104,88576,1,0,0:0:0:0:
305,332,88895,1,0,0:0:0:0:
232,142,89215,2,0,P|219:100|211:38,1,97.50000371933
98,274,89853,2,0,P|91:322|77:368,1,97.50000371933
325,193,90491,5,0,0:0:0:0:
49,153,90970,1,0,0:0:0:0:
49,153,91130,1,0,0:0:0:0:
277,270,91449,1,0,0:0:0:0:
380,90,91768,2,0,P|383:81|394:24,1,48.750001859665
444,153,92087,2,0,P|448:176|455:200,1,48.750001859665
300,132,92406,2,0,P|240:106|189:103,1,97.50000371933
59,367,93044,5,0,0:0:0:0:
136,186,93364,2,0,P|116:126|106:103,1,48.750001859665
54,190,93683,1,0,0:0:0:0:
240,286,94002,1,0,0:0:0:0:
240,58,94321,1,0,0:0:0:0:
147,281,94640,1,0,0:0:0:0:
387,226,94959,1,0,0:0:0:0:
264,178,95278,1,0,0:0:0:0:
413,359,95598,5,0,0:0:0:0:
276,31,96236,2,0,P|244:36|168:74,1,97.50000371933
376,347,96902,5,0,0:0:0:0:
301,133,97540,2,0,P|248:136|199:165,1,97.50000371933
347,328,98192,5,0,0:0:0:0:
325,228,98844,2,0,P|265:251|215:288,1,97.50000371933
174,351,99549,1,0,0:0:0:0:
