osu file format v14

[General]
AudioFilename: audio.mp3
AudioLeadIn: 0
PreviewTime: 181674
Countdown: 0
SampleSet: Soft
StackLeniency: 0
Mode: 0
LetterboxInBreaks: 0
WidescreenStoryboard: 1

[Editor]
DistanceSpacing: 1.25
BeatDivisor: 4
GridSize: 32
TimelineZoom: 1.2

[Metadata]
Title:Kataomoi
TitleUnicode:カタオモイ
Artist:Aimer
ArtistUnicode:Aimer
Creator:Moecho
Version:Normal
Source:
Tags:beren エメ studio album best selection blanc daydream androp takahito uchisawa kenji tamai masahiro tobinai 片想い one sided love unrequited japanese pop jpop storyboard
BeatmapID:2588957
BeatmapSetID:1058659

[Difficulty]
HPDrainRate:4
CircleSize:4
OverallDifficulty:5
ApproachRate:6
SliderMultiplier:1.2
SliderTickRate:1

[Events]
//Background and Video events
0,0,"background.jpg",0,0
//Break Periods
//Storyboard Layer 0 (Background)
//Storyboard Layer 1 (Fail)
//Storyboard Layer 2 (Pass)
//Storyboard Layer 3 (Foreground)
//Storyboard Layer 4 (Overlay)
//Storyboard Sound Samples

[TimingPoints]
-730,618.556701030928,4,2,1,50,1,0
4227,631.578947368421,4,2,1,50,1,0
6074,500,4,2,1,50,1,0
6199,731.707317073171,4,2,1,50,1,0
6692,618.556701030928,4,2,1,50,1,0
8857,600,4,2,1,50,1,0
9166,618.556701030928,4,2,1,50,1,0
11021,666.666666666667,4,2,1,50,1,0
11632,625,4,2,1,50,1,0
12874,645.161290322581,4,2,1,50,1,0
14122,618.556701030928,4,2,1,50,1,0
15049,638.297872340426,4,2,1,50,1,0
15846,612.244897959184,4,2,1,50,1,0
16589,612.244897959184,4,2,1,50,1,0
17814,652.173913043478,4,2,1,50,1,0
18466,594.059405940594,4,2,1,50,1,0
19063,618.556701030928,4,2,1,50,1,0
20609,625,4,2,1,50,1,0
21538,638.297872340426,4,2,1,55,1,0
22783,625,4,2,1,55,1,0
23408,638.297872340426,4,2,1,55,1,0
24008,600,4,2,1,55,1,0
24624,625,4,2,1,55,1,0
25713,625,4,2,1,55,1,0
26494,638.297872340426,4,2,1,55,1,0
27735,600,4,2,1,55,1,0
28335,674.157303370787,4,2,1,55,1,0
28964,645.161290322581,4,2,1,55,1,0
29909,645.161290322581,4,2,1,55,1,0
30392,566.037735849057,4,2,1,55,1,0
30830,645.161290322581,4,2,1,55,1,0
31448,625,4,2,1,55,1,0
32652,634.920634920635,4,2,1,55,1,0
33286,645.161290322581,4,2,1,55,1,0
33896,625,4,2,1,55,1,0
35598,600,4,2,1,55,1,0
36080,618.556701030928,4,2,1,55,1,0
36383,606.060606060606,4,2,1,60,1,0
37612,625,4,2,1,60,1,0
38237,612.244897959184,4,2,1,60,1,0
38857,618.556701030928,4,2,1,60,1,0
40712,-100,4,2,1,50,0,0
41337,618.556701030928,4,2,1,65,1,1
45666,-100,4,2,1,65,0,0
46285,-100,4,2,1,65,0,1
50610,697.674418604651,4,2,1,65,1,0
51235,618.556701030928,4,2,1,65,1,1
54637,576.923076923077,4,2,1,65,1,1
55213,731.707317073171,4,2,1,65,1,1
55558,666.666666666667,4,2,1,65,1,0
56210,588.235294117647,4,2,1,65,1,1
56802,618.556701030928,4,2,1,65,1,1
58039,-100,4,2,1,50,0,0
58660,618.556701030928,4,2,1,50,1,0
59278,652.173913043478,4,2,1,50,1,0
59888,631.578947368421,4,2,1,50,1,0
61125,625,4,2,1,50,1,0
62806,612.244897959184,4,2,1,50,1,0
63599,618.556701030928,4,2,1,50,1,0
66073,652.173913043478,4,2,1,50,1,0
66725,638.297872340426,4,2,1,50,1,0
67008,618.556701030928,4,2,1,50,1,0
68540,618.556701030928,4,2,1,50,1,0
69777,630.252100840336,4,2,1,50,1,0
71037,625,4,2,1,50,1,0
72101,618.556701030928,4,2,1,50,1,0
72874,600,4,2,1,50,1,0
73174,714.285714285714,4,2,1,50,1,0
73492,631.578947368421,4,2,1,50,1,0
74123,625,4,2,1,50,1,0
74728,618.556701030928,4,2,1,50,1,0
76892,-101.010101010101,4,2,1,50,0,0
77356,638.297872340426,4,2,1,50,1,0
78445,618.556701030928,4,2,1,55,1,0
85885,600,4,2,1,55,1,0
86486,618.556701030928,4,2,1,55,1,0
87723,674.157303370787,4,2,1,55,1,0
88341,625,4,2,1,55,1,0
89558,625,5,2,1,55,1,0
92671,714.285714285714,4,2,1,55,1,0
93290,618.556701030928,4,2,1,60,1,0
97310,645.161290322581,4,2,1,55,1,0
98244,618.556701030928,4,2,1,65,1,1
102573,-100,4,2,1,65,0,0
103192,-100,4,2,1,65,0,1
105666,619.834710743802,4,2,1,65,1,1
107525,-100,4,2,1,65,0,0
108140,618.556701030928,4,2,1,65,1,1
112469,-100,4,2,1,65,0,0
113038,681.818181818182,4,2,1,65,1,1
114011,625,4,2,1,65,1,1
115261,-100,4,2,1,65,0,0
115558,618.556701030928,4,2,1,70,1,1
117722,-100,4,2,1,70,0,0
118032,-100,4,2,1,70,0,1
120197,-100,4,2,1,70,0,0
120506,-100,4,2,1,70,0,1
122671,-100,4,2,1,70,0,0
122980,-100,4,2,1,70,0,1
125145,-100,4,2,1,70,0,0
125454,-100,4,2,1,70,0,1
127619,-100,4,2,1,70,0,0
127929,-100,4,2,1,70,0,1
130094,-100,4,2,1,70,0,0
130403,-100,4,2,1,70,0,1
132568,-100,4,2,1,70,0,0
132877,-100,4,2,1,70,0,1
135042,-100,4,2,1,70,0,0
135351,-100,4,2,1,70,0,1
136279,-100,4,2,1,70,0,0
136588,-100,4,2,1,70,0,1
137516,-100,4,2,1,70,0,0
137826,-100,4,2,1,70,0,1
138135,-100,4,2,1,70,0,0
138444,-100,4,2,1,70,0,1
138753,-100,4,2,1,70,0,0
139063,-100,4,2,1,70,0,1
139372,-100,4,2,1,70,0,0
139681,-100,4,2,1,70,0,1
140308,618.556701030928,4,2,1,50,1,0
145232,631.578947368421,4,2,1,50,1,0
147422,618.556701030928,4,2,1,50,1,8
147731,618.556701030928,4,2,1,50,1,0
151170,594.059405940594,4,2,1,50,1,0
152060,638.297872340426,4,2,1,50,1,0
152698,618.556701030928,4,2,1,50,1,0
153636,618.556701030928,4,2,1,50,1,0
155172,618.556701030928,4,2,1,50,1,0
155172,-95.9232613908873,4,2,1,50,0,0
155617,621.761658031088,4,2,1,50,1,0
155772,618.556701030928,4,2,1,50,1,0
158545,645.161290322581,4,2,1,50,1,0
159662,618.556701030928,4,2,1,50,1,0
160102,625,4,2,1,55,1,0
162586,618.556701030928,4,2,1,55,1,0
164441,600,4,2,1,55,1,0
165044,625,4,2,1,55,1,0
165981,618.556701030928,4,2,1,55,1,0
167527,618.556701030928,4,2,1,55,1,0
168464,618.556701030928,4,2,1,55,1,0
170927,625,4,2,1,55,1,0
170927,-101.522842639594,4,2,1,55,0,0
171405,625,4,2,1,55,1,0
171864,666.666666666667,4,2,1,55,1,0
172473,618.556701030928,4,2,1,55,1,0
174328,800,4,2,1,55,1,0
174948,618.556701030928,4,2,1,60,1,0
178813,-100,4,2,1,30,0,0
178968,-100,4,2,1,40,0,0
179277,-100,4,2,1,42,0,0
179587,-100,4,2,1,45,0,0
179896,-100,4,2,1,47,0,0
180205,-100,4,2,1,50,0,0
180515,-100,4,2,1,52,0,0
180824,-100,4,2,1,55,0,0
181133,-100,4,2,1,60,0,0
181752,666.666666666667,4,2,1,60,1,0
182364,618.556701030928,4,2,1,75,1,1
186693,-100,4,2,1,75,0,0
187312,-100,4,2,1,75,0,1
191642,681.818181818182,4,2,1,75,1,0
192260,618.556701030928,4,2,1,75,1,1
194741,621.11801242236,4,2,1,75,1,1
196604,810.810810810811,4,2,1,75,1,1
197212,659.340659340659,4,2,1,50,1,0
199131,666.666666666667,4,2,1,50,1,0
199726,666.666666666667,4,2,1,50,1,0
200059,-133.333333333333,4,2,1,50,0,0
200726,-133.333333333333,4,2,1,15,0,0
201392,-133.333333333333,4,2,1,10,0,0
202059,-133.333333333333,4,2,1,5,0,0

[Colours]
Combo1 : 245,150,0
Combo2 : 110,110,170
Combo3 : 145,90,140
Combo4 : 235,85,110
Combo5 : 225,110,80
Combo6 : 70,135,95
Combo7 : 0,125,165
Combo8 : 250,200,85

[HitObjects]
256,192,1125,5,2,0:1:0:0:
374,284,1744,102,0,P|425:253|484:241,1,120,2|0,0:0|3:0,0:0:0:0:
430,100,2981,2,0,P|371:111|320:142,1,120,2|0,0:0|3:0,0:0:0:0:
287,287,4227,2,0,P|277:244|247:211,1,90,2|2,0:0|0:0,0:0:0:0:
40,38,6074,101,2,0:1:0:0:
189,37,6692,6,0,P|158:88|146:147,1,120,2|0,0:0|3:0,0:0:0:0:
285,201,7929,2,0,P|296:142|327:91,1,120,2|0,0:0|3:0,0:0:0:0:
476,109,9166,2,0,P|463:197|421:276,1,180,2|2,0:0|0:0,0:0:0:0:
217,323,11021,101,2,3:1:0:0:
179,183,11632,6,0,P|120:194|69:225,1,120,2|0,0:0|3:0,0:0:0:0:
108,366,12874,2,0,P|159:334|217:323,1,120,2|0,0:0|3:0,0:0:0:0:
354,374,14122,2,0,P|363:330|393:297,1,90,2|2,0:0|0:0,0:0:0:0:
508,10,15999,101,2,0:1:0:0:
463,146,16589,6,0,P|411:114|353:103,1,120,2|0,0:0|3:0,0:0:0:0:
298,242,17814,2,0,P|356:253|407:284,1,120,2|0,0:0|3:0,0:0:0:0:
264,329,19063,2,0,P|222:250|209:161,1,180,2|2,0:0|0:0,0:0:0:0:
25,35,20921,101,2,3:1:0:0:
167,8,21538,70,0,P|135:59|124:117,1,120,2|0,0:0|3:0,0:0:0:0:
263,76,22783,2,0,P|231:127|220:185,1,120,2|0,0:0|3:0,0:0:0:0:
126,303,24008,2,0,P|169:312|202:342,1,90,2|2,0:0|0:0,0:0:0:0:
312,311,24936,1,0,0:0:0:0:
474,157,25869,37,2,0:1:0:0:
381,43,26494,70,0,P|322:54|271:85,1,120,2|0,0:0|3:0,0:0:0:0:
392,177,27735,2,0,P|333:188|282:219,1,120,2|0,0:0|3:0,0:0:0:0:
203,342,28964,2,0,P|193:298|163:265,1,90,2|2,0:0|0:0,0:0:0:0:
67,218,29909,1,2,0:0:0:0:
170,30,30830,37,2,3:1:0:0:
149,176,31448,70,0,P|207:187|258:218,1,120,2|0,0:0|3:0,0:0:0:0:
133,288,32652,2,0,P|191:299|242:330,1,120,2|0,0:0|3:0,0:0:0:0:
388,345,33896,2,0,P|344:354|311:384,1,90,2|2,0:0|0:0,0:0:0:0:
75,131,35748,37,2,0:1:0:0:
200,36,36383,70,0,P|258:47|309:78,1,120,2|0,3:2|3:0,0:0:0:0:
456,114,37612,2,0,P|398:125|347:156,1,120,2|0,3:2|3:0,0:0:0:0:
205,207,38857,2,0,P|249:216|282:246,1,90,2|2,3:2|0:0,0:0:0:0:
335,344,39784,1,2,0:0:0:0:
253,134,40712,101,2,3:2:0:0:
130,223,41337,6,0,P|119:165|88:114,1,120,6|8,3:1|3:2,0:0:0:0:
25,71,42264,2,0,B|94:87|69:40|139:56,1,120.000004577637,2|2,3:2|0:0,0:0:0:0:
206,22,43192,2,0,P|229:40|258:48,1,60,8|2,3:2|0:0,0:0:0:0:
323,183,44120,2,0,P|351:174|375:156,2,60,2|8|2,0:0|3:2|3:2,0:0:0:0:
174,162,45357,1,2,0:0:0:0:
130,223,45666,54,0,P|148:246|156:275,1,60,10|0,3:2|0:0,0:0:0:0:
139,348,46285,54,0,P|189:316|248:305,1,120,4|8,3:1|3:2,0:0:0:0:
307,350,47213,2,0,B|376:366|351:319|421:335,1,120.000004577637,2|2,3:2|0:0,0:0:0:0:
486,372,48141,2,0,P|504:349|512:320,1,60,8|2,3:2|0:0,0:0:0:0:
457,268,48759,53,2,3:2:0:0:
453,192,49068,1,2,0:0:0:0:
449,116,49378,2,0,P|420:123|396:142,1,60,10|2,3:2|0:0,0:0:0:0:
357,205,49996,2,0,P|364:233|383:257,1,60,2|2,3:2|0:0,0:0:0:0:
457,268,50610,37,10,3:2:0:0:
324,341,51235,6,0,P|265:351|215:384,1,120,6|8,3:1|3:2,0:0:0:0:
142,367,52162,2,0,B|126:298|173:323|157:253,1,120.000004577637,2|2,3:2|0:0,0:0:0:0:
98,205,53090,2,0,P|121:186|150:178,1,60,8|2,3:2|0:0,0:0:0:0:
201,37,54018,2,0,P|229:44|253:63,2,60,2|8|2,0:0|3:2|3:2,0:0:0:0:
52,18,55213,1,2,0:0:0:0:
8,79,55558,54,0,P|26:102|34:131,1,60,10|2,3:2|0:0,0:0:0:0:
19,204,56210,54,0,P|78:214|128:247,1,120,4|8,3:1|3:2,0:0:0:0:
162,314,57111,2,0,P|211:281|270:271,1,120,2|0,3:2|0:0,0:0:0:0:
344,286,58039,53,2,0:1:0:0:
470,369,58660,102,0,P|481:310|512:259,1,120,2|0,0:0|3:0,0:0:0:0:
387,177,59888,2,0,P|355:228|344:286,1,120,2|0,0:0|3:0,0:0:0:0:
233,380,61125,2,0,P|200:349|156:339,1,90,2|2,0:0|0:0,0:0:0:0:
123,354,61750,1,0,3:0:0:0:
0,84,62959,69,2,0:1:0:0:
154,97,63599,38,0,P|205:65|263:54,1,120,2|0,0:0|3:0,0:0:0:0:
283,202,64836,2,0,P|224:213|173:244,1,120,2|0,0:0|3:0,0:0:0:0:
47,313,66073,2,0,P|90:323|123:353,1,90,2|2,0:0|0:0,0:0:0:0:
146,384,66725,1,0,3:0:0:0:
223,380,67008,2,0,P|274:348|332:337,1,120,2|0,0:0|0:0,0:0:0:0:
405,353,67935,69,2,3:1:0:0:
506,246,68540,38,0,P|474:194|463:136,1,120,2|0,0:0|3:0,0:0:0:0:
317,158,69777,2,0,P|328:216|359:267,1,120,2|0,0:0|3:0,0:0:0:0:
499,325,71037,2,0,P|455:335|422:365,1,90,2|2,0:0|0:0,0:0:0:0:
256,292,72255,1,0,0:0:0:0:
126,376,72874,69,2,0:1:0:0:
61,243,73492,38,0,P|112:274|170:285,1,120,2|0,0:0|3:0,0:0:0:0:
266,174,74728,2,0,P|207:162|156:131,1,120,2|0,0:0|3:0,0:0:0:0:
82,0,75965,2,0,P|38:10|5:40,1,90,2|2,0:0|0:0,0:0:0:0:
7,78,76583,1,0,3:0:0:0:
69,119,76892,2,0,P|100:170|111:228,1,120,2|2,0:0|0:0,0:0:0:0:
100,302,77834,69,2,3:1:0:0:
223,384,78445,6,0,P|274:353|332:342,1,120,2|8,3:2|0:0,0:0:0:0:
201,268,79682,2,0,P|252:237|310:226,1,120,2|8,3:2|0:0,0:0:0:0:
405,109,80919,2,0,P|449:119|482:149,1,90,2|2,3:2|0:0,0:0:0:0:
490,185,81537,1,8,0:0:0:0:
201,268,82774,21,10,0:0:0:0:
156,124,83393,86,0,P|125:72|114:14,1,120,2|10,3:2|0:0,0:0:0:0:
40,146,84630,2,0,P|9:94|-1:36,1,120,2|8,3:2|0:0,0:0:0:0:
146,65,85885,2,0,P|179:35|222:25,1,90,2|2,3:2|0:0,0:0:0:0:
259,33,86486,1,8,0:0:0:0:
328,3,86795,2,0,P|386:13|437:44,1,120,2|0,3:2|0:0,0:0:0:0:
484,103,87723,21,8,0:0:0:0:
400,225,88341,86,0,P|341:236|290:266,1,120,2|8,3:2|0:0,0:0:0:0:
343,130,89558,2,0,P|284:140|233:171,1,120,2|8,3:2|0:0,0:0:0:0:
117,75,90808,2,0,P|87:107|77:151,1,90,2|2,3:2|0:0,0:0:0:0:
90,187,91433,1,8,0:0:0:0:
343,130,92671,21,8,0:0:0:0:
267,0,93290,86,0,P|256:58|225:109,1,120,2|8,3:2|0:0,0:0:0:0:
189,256,94527,2,0,P|178:198|147:147,1,120,2|8,3:2|0:0,0:0:0:0:
96,5,95764,2,0,P|87:49|57:82,1,90,2|2,3:2|0:0,0:0:0:0:
24,99,96382,1,8,0:0:0:0:
23,174,96692,2,0,P|82:184|133:215,1,120,2|0,3:2|0:0,0:0:0:0:
176,276,97632,85,2,3:2:0:0:
277,384,98244,6,0,P|328:353|386:343,1,120,6|8,3:1|3:2,0:0:0:0:
459,362,99171,2,0,B|475:293|428:318|444:248,1,120.000004577637,2|2,3:2|0:0,0:0:0:0:
501,198,100099,2,0,P|477:179|448:171,1,60,8|2,3:2|0:0,0:0:0:0:
340,68,101027,2,0,P|311:75|287:94,1,60,2|8,0:0|3:2,0:0:0:0:
264,165,101646,1,2,3:2:0:0:
116,140,102264,1,2,0:0:0:0:
52,179,102573,86,0,P|34:156|26:127,1,60,10|0,3:2|0:0,0:0:0:0:
74,68,103192,22,0,P|132:57|182:24,1,120,4|8,3:1|3:2,0:0:0:0:
251,53,104120,2,0,B|320:69|295:22|365:38,1,120.000004577637,2|2,3:2|0:0,0:0:0:0:
431,1,105048,2,0,P|449:24|457:52,1,60,8|2,3:2|0:0,0:0:0:0:
408,108,105666,85,2,3:2:0:0:
404,184,105975,1,2,0:0:0:0:
400,260,106285,2,0,P|371:253|347:234,1,60,10|2,3:2|0:0,0:0:0:0:
308,171,106905,2,0,P|315:143|334:119,1,60,2|2,3:2|0:0,0:0:0:0:
408,108,107525,5,10,3:2:0:0:
305,0,108140,6,0,P|255:32|196:44,1,120,6|8,3:1|3:2,0:0:0:0:
124,25,109067,2,0,B|108:94|155:69|139:139,1,120.000004577637,2|2,3:2|0:0,0:0:0:0:
85,192,109995,2,0,P|108:210|137:218,1,60,8|2,3:2|0:0,0:0:0:0:
200,355,110923,2,0,P|229:346|252:327,1,60,2|8,0:0|3:2,0:0:0:0:
283,259,111542,1,2,3:2:0:0:
138,218,112160,1,2,0:0:0:0:
192,166,112469,86,0,P|215:184|244:192,1,60,10|0,3:2|0:0,0:0:0:0:
283,259,113038,22,0,P|341:247|391:215,1,120,4|8,3:1|3:2,0:0:0:0:
422,144,114011,1,2,3:2:0:0:
240,11,114948,86,0,P|217:29|189:37,1,60,8|0,3:2|0:0,0:0:0:0:
125,79,115558,86,0,P|92:48|48:38,1,90,6|2,3:1|3:2,0:0:0:0:
14,52,116176,1,8,3:2:0:0:
0,125,116485,1,2,3:2:0:0:
141,173,117104,2,0,P|169:165|193:146,2,60,2|10|2,3:2|3:2|0:0,0:0:0:0:
97,234,118032,102,0,P|107:277|138:309,1,90,6|2,3:1|3:2,0:0:0:0:
170,327,118650,1,8,3:2:0:0:
245,323,118960,1,2,3:2:0:0:
246,173,119578,2,0,P|222:154|193:146,2,60,2|10|2,3:2|3:2|0:0,0:0:0:0:
300,225,120506,6,0,P|332:194|375:183,1,90,6|2,3:1|3:2,0:0:0:0:
413,189,121125,1,8,3:2:0:0:
462,245,121434,1,2,3:2:0:0:
337,328,122052,2,0,P|313:309|284:301,1,60,2|8,3:2|3:2,0:0:0:0:
210,315,122671,1,2,0:0:0:0:
147,355,122980,6,0,P|116:322|105:279,1,90,6|2,3:1|3:2,0:0:0:0:
121,245,123599,1,8,3:2:0:0:
195,235,123908,2,0,P|225:202|236:159,1,90,2|2,3:2|3:2,0:0:0:0:
208,133,124527,2,0,P|201:104|182:80,1,60,0|10,3:0|3:2,0:0:0:0:
107,79,125145,1,2,0:0:0:0:
39,45,125454,6,0,P|72:14|115:3,1,90,6|2,3:1|3:2,0:0:0:0:
150,15,126073,1,8,0:0:0:0:
224,4,126382,2,0,P|274:36|332:48,1,120,2|2,3:2|3:2,0:0:0:0:
398,84,127310,2,0,P|421:65|450:58,1,60,8|2,3:2|3:2,0:0:0:0:
510,103,127929,22,0,P|498:146|468:178,1,90,6|2,3:1|3:2,0:0:0:0:
432,190,128547,1,8,0:0:0:0:
404,259,128856,2,0,P|462:271|512:303,1,120,2|2,3:2|3:2,0:0:0:0:
501,378,129784,1,10,3:2:0:0:
404,259,130403,22,0,P|360:270|328:300,1,90,6|2,3:1|0:0,0:0:0:0:
314,335,131021,1,8,3:2:0:0:
242,358,131331,2,0,P|229:299|197:249,1,120,2|2,3:2|3:2,0:0:0:0:
191,174,132259,2,0,P|162:181|139:199,1,60,8|2,3:2|3:2,0:0:0:0:
83,249,132877,6,0,P|39:238|7:208,1,90,6|2,3:1|0:0,0:0:0:0:
0,171,133496,1,8,3:2:0:0:
74,156,133805,2,0,P|106:105|118:47,1,120,2|2,3:2|3:2,0:0:0:0:
54,8,134733,1,10,3:2:0:0:
74,156,135351,101,6,3:1:0:0:
219,120,135970,1,8,3:2:0:0:
364,84,136588,1,4,3:1:0:0:
437,67,136898,1,2,3:2:0:0:
509,48,137207,1,8,3:2:0:0:
366,0,137826,85,6,3:1:0:0:
318,142,138444,1,4,3:1:0:0:
182,205,139063,1,4,3:1:0:0:
107,207,139372,1,2,3:2:0:0:
32,210,139681,2,0,P|13:187|6:158,1,60,4|10,3:1|3:2,0:0:0:0:
46,92,140308,6,0,P|104:103|155:134,1,120,2|0,3:2|3:0,0:0:0:0:
182,205,141235,1,2,0:0:0:0:
347,53,142163,101,2,0:1:0:0:
492,94,142782,6,0,P|481:50|451:18,1,90,2|2,0:0|0:0,0:0:0:0:
413,17,143400,1,0,3:0:0:0:
347,53,143710,1,2,0:0:0:0:
182,205,144637,101,2,0:1:0:0:
292,293,145232,6,0,P|335:303|367:333,1,90,2|2,0:0|0:0,0:0:0:0:
378,370,145863,1,0,3:0:0:0:
452,360,146179,2,0,P|463:302|494:251,1,120,2|0,0:0|0:0,0:0:0:0:
423,224,147126,101,2,0:1:0:0:
292,293,147731,6,0,P|248:303|216:333,1,90,2|2,0:0|0:0,0:0:0:0:
202,368,148349,1,0,3:0:0:0:
134,335,148658,1,2,0:0:0:0:
232,142,149586,101,2,0:1:0:0:
122,244,150205,6,0,P|78:254|46:284,1,90,2|2,0:0|0:0,0:0:0:0:
60,319,150823,1,0,3:0:0:0:
134,335,151170,2,0,P|192:346|243:377,1,120,2|0,0:0|0:0,0:0:0:0:
318,366,152060,101,2,0:1:0:0:
435,265,152698,6,0,P|445:221|475:189,1,90,2|2,0:0|0:0,0:0:0:0:
512,180,153316,1,0,3:0:0:0:
472,114,153636,1,2,0:0:0:0:
380,319,154563,101,2,0:1:0:0:
242,249,155172,6,0,P|198:259|166:289,1,90,2|2,0:0|0:0,0:0:0:0:
164,326,155772,1,0,3:0:0:0:
92,349,156081,2,0,P|67:232|-1:135,1,240,2|0,0:0|0:0,0:0:0:0:
1,60,157627,102,0,P|33:29|76:20,1,90,2|2,0:0|0:0,0:0:0:0:
114,27,158246,1,0,3:0:0:0:
136,99,158545,2,0,P|194:110|245:141,1,120,2|0,0:0|0:0,0:0:0:0:
282,207,159512,5,2,0:1:0:0:
418,244,160102,54,0,P|360:255|309:286,1,120,2|8,3:2|0:0,0:0:0:0:
238,312,161039,2,0,P|296:323|347:354,1,120,2|0,3:2|0:0,0:0:0:0:
414,319,161977,5,8,0:0:0:0:
470,182,162586,102,0,P|481:124|512:73,1,120,2|8,3:2|0:0,0:0:0:0:
457,21,163513,2,0,P|406:52|347:63,1,120,2|0,3:2|0:0,0:0:0:0:
270,63,164441,5,8,0:0:0:0:
136,7,165044,102,0,P|78:18|27:49,1,120,2|8,3:2|0:0,0:0:0:0:
62,116,165981,2,0,P|120:105|171:74,1,120,2|0,3:2|0:0,0:0:0:0:
213,11,166908,5,8,0:0:0:0:
281,144,167527,102,0,P|249:194|238:253,1,120,2|8,3:2|0:0,0:0:0:0:
189,313,168464,2,0,P|130:324|79:355,1,120,2|0,3:2|0:0,0:0:0:0:
6,340,169391,5,8,0:0:0:0:
124,247,170010,102,0,P|113:189|82:138,1,120,2|8,3:2|0:0,0:0:0:0:
56,67,170927,2,0,P|45:125|14:176,1,120,2|0,3:2|0:0,0:0:0:0:
50,241,171864,5,8,0:0:0:0:
173,322,172473,102,0,P|223:290|282:279,1,120,2|8,3:2|0:0,0:0:0:0:
322,216,173400,2,0,P|380:227|431:258,1,120,2|0,3:2|0:0,0:0:0:0:
478,320,174328,5,8,0:0:0:0:
329,345,174948,102,0,P|285:354|252:384,1,90,2|2,3:2|0:0,0:0:0:0:
215,378,175566,1,8,0:0:0:0:
175,314,175875,1,2,3:2:0:0:
26,332,176494,2,0,P|7:354|0:383,2,60,2|8|0,0:1|0:0|0:0,0:0:0:0:
100,318,177422,6,0,P|91:274|61:241,1,90,2|2,3:2|0:0,0:0:0:0:
24,232,178040,1,8,0:0:0:0:
59,165,178350,1,2,3:2:0:0:
256,192,178659,12,6,181133,3:1:0:0:
256,192,181752,5,2,3:2:0:0:
212,333,182364,54,0,P|162:301|103:289,1,120,6|8,3:1|3:2,0:0:0:0:
31,309,183291,2,0,B|15:240|62:265|46:195,1,120.000004577637,2|2,3:2|0:0,0:0:0:0:
10,128,184219,2,0,P|38:120|62:101,1,60,10|2,3:2|3:2,0:0:0:0:
121,56,184838,70,0,P|149:63|173:82,1,60,2|0,3:1|0:0,0:0:0:0:
182,156,185456,1,8,3:2:0:0:
123,203,185766,1,2,3:2:0:0:
256,271,186384,1,2,0:0:0:0:
315,224,186693,53,10,3:2:0:0:
270,367,187312,102,0,P|219:335|160:323,1,120,6|8,3:1|3:2,0:0:0:0:
114,264,188240,2,0,B|45:280|70:233|0:249,1,120.000004577637,2|2,3:2|0:0,0:0:0:0:
0,174,189168,2,0,P|23:155|52:148,1,60,10|2,3:2|0:0,0:0:0:0:
114,190,189786,69,2,3:1:0:0:
190,194,190095,1,2,3:2:0:0:
242,145,190405,2,0,P|260:168|267:197,1,60,10|2,3:2|3:1,0:0:0:0:
324,245,191023,2,0,P|317:273|298:297,1,60,2|2,3:2|0:2,0:0:0:0:
227,319,191642,101,10,3:2:0:0:
92,384,192260,54,0,P|80:325|48:274,1,120,6|8,3:1|3:2,0:0:0:0:
7,212,193187,2,0,B|-9:143|38:168|22:98,1,120.000004577637,2|2,3:2|0:0,0:0:0:0:
28,22,194115,2,0,P|57:28|80:47,1,60,10|2,3:2|3:2,0:0:0:0:
126,108,194741,70,0,P|155:101|178:82,1,60,2|0,3:1|0:0,0:0:0:0:
251,64,195362,1,8,3:2:0:0:
296,123,195672,1,2,3:2:0:0:
443,150,196293,1,2,0:0:0:0:
398,91,196604,101,10,3:2:0:0:
488,209,197212,53,6,3:1:0:0:
393,325,197871,5,2,0:0:0:0:
244,343,198530,5,2,0:0:0:0:
115,301,199131,6,0,L|111:271,1,30,2|2,0:0|0:0,0:0:0:0:
200,234,199726,5,2,0:0:0:0:
267,268,200059,2,0,B|316:145|385:261|460:140|396:38|293:86,1,337.5,2|0,0:1|0:0,0:0:0:0:
