osu file format v14

[General]
AudioFilename: audio.mp3
AudioLeadIn: 0
PreviewTime: 62863
Countdown: 0
SampleSet: Soft
StackLeniency: 0.4
Mode: 0
LetterboxInBreaks: 0
WidescreenStoryboard: 0

[Editor]
Bookmarks: 197,12997,38597,64197,88587,89797,115397,128197,153797,179397,203787,204997,230597,259397,288197,307397,313797,339397,345787
DistanceSpacing: 0.1
BeatDivisor: 8
GridSize: 4
TimelineZoom: 1.3

[Metadata]
Title:Kanashimi no Mukougawa
TitleUnicode:悲しみの向こう側
Artist:Aimer
ArtistUnicode:Aimer
Creator:SeaRasp
Version:Recollection
Source:
Tags:エメ SPARK-AGAIN album single Sony Music Entertainment japanese j-pop
BeatmapID:2718118
BeatmapSetID:1311417

[Difficulty]
HPDrainRate:6
CircleSize:4
OverallDifficulty:8
ApproachRate:8.7
SliderMultiplier:3.4
SliderTickRate:1

[Events]
//Background and Video events
0,0,"AIMER BG.jpg",0,0
//Break Periods
2,237563,254718
//Storyboard Layer 0 (Background)
//Storyboard Layer 1 (Fail)
//Storyboard Layer 2 (Pass)
//Storyboard Layer 3 (Foreground)
//Storyboard Layer 4 (Overlay)
//Storyboard Sound Samples

[TimingPoints]
183,800,4,2,1,30,1,0
183,-166.666666666667,4,2,1,30,0,0
11383,-166.666666666667,4,2,1,25,0,0
11783,-166.666666666667,4,2,1,20,0,0
12183,-166.666666666667,4,2,1,15,0,0
12583,-166.666666666667,4,2,1,10,0,0
12963,800,4,2,1,25,1,0
12963,-166.666666666667,4,2,1,25,0,0
20563,-333.333333333333,4,2,1,15,0,0
21363,-166.666666666667,4,2,1,25,0,0
38563,-166.666666666667,4,2,1,35,0,0
60963,-166.666666666667,4,2,1,45,0,0
62963,-166.666666666667,4,2,1,50,0,0
63763,-111.111111111111,4,2,1,60,0,0
64063,-111.111111111111,4,2,1,5,0,0
64163,-90.9090909090909,4,2,1,70,0,1
76863,-90.9090909090909,4,2,1,5,0,1
76963,-90.9090909090909,4,2,1,70,0,1
88563,-90.9090909090909,4,2,1,70,0,0
89663,-90.9090909090909,4,2,1,5,0,0
89763,-90.9090909090909,4,2,1,70,0,1
115263,-90.9090909090909,4,2,1,5,0,1
115363,-200,4,2,1,30,0,0
126563,-250,4,2,1,30,0,0
128063,-250,4,2,1,5,0,0
128163,-133.333333333333,4,2,1,45,0,0
153763,-111.111111111111,4,2,1,55,0,0
172863,-111.111111111111,4,2,1,5,0,0
172963,-111.111111111111,4,2,1,55,0,0
176163,-166.666666666667,4,2,1,55,0,0
177763,-111.111111111111,4,2,1,55,0,0
178463,-111.111111111111,4,2,1,5,0,0
178563,-111.111111111111,4,2,1,65,0,0
179363,-90.9090909090909,4,2,1,70,0,1
192063,-90.9090909090909,4,2,1,5,0,1
192163,-90.9090909090909,4,2,1,70,0,1
203763,-90.9090909090909,4,2,1,70,0,0
204863,-90.9090909090909,4,2,1,5,0,0
204963,-90.9090909090909,4,2,1,70,0,1
230463,-90.9090909090909,4,2,1,5,0,1
230563,-200,4,2,1,50,0,0
256063,-200,4,2,1,5,0,0
256163,-133.333333333333,4,2,1,40,0,0
256363,-133.333333333333,4,2,1,5,0,0
256563,-133.333333333333,4,2,1,45,0,0
256763,-133.333333333333,4,2,1,5,0,0
256963,-133.333333333333,4,2,1,50,0,0
257163,-133.333333333333,4,2,1,5,0,0
257363,-133.333333333333,4,2,1,55,0,0
257563,-133.333333333333,4,2,1,5,0,0
257763,-133.333333333333,4,2,1,60,0,0
259363,-100,4,2,1,65,0,0
284963,-100,4,2,1,70,0,0
285263,-100,4,2,1,5,0,0
285363,-100,4,2,1,70,0,0
285663,-100,4,2,1,5,0,0
285763,-100,4,2,1,70,0,0
286063,-100,4,2,1,5,0,0
286163,-100,4,2,1,70,0,0
286563,-333.333333333333,4,2,1,60,0,0
288163,-200,4,2,1,30,0,0
306563,-100,4,2,1,45,0,0
307363,-100,4,2,1,50,0,0
308163,-100,4,2,1,55,0,0
308963,-100,4,2,1,60,0,0
309763,-100,4,2,1,65,0,0
313763,-90.9090909090909,4,2,1,70,0,1
339263,-90.9090909090909,4,2,1,5,0,1
339363,-200,4,2,1,50,0,0
339863,-200,4,2,1,30,0,0

[Colours]
Combo1 : 160,209,124
Combo2 : 185,255,255
Combo3 : 255,226,198
Combo4 : 205,205,156

[HitObjects]
120,112,183,6,0,P|93:102|63:93,2,50.9999984436036,2|2|2,0:3|0:3|0:3,0:0:0:0:
231,89,783,2,0,P|218:131|199:211,1,101.999996887207,2|2,0:3|0:3,0:0:0:0:
140,257,1383,1,2,0:3:0:0:
134,271,3383,6,0,L|66:281,2,50.9999984436036,2|2|2,0:3|0:3|0:3,0:3:0:0:
219,325,3983,2,0,L|333:338,1,101.999996887207,2|2,0:3|0:3,0:3:0:0:
397,278,4583,1,2,0:3:0:0:
408,270,6583,6,0,P|423:238|422:203,2,50.9999984436036,2|2|2,0:3|0:3|0:3,0:3:0:0:
333,217,7183,2,0,L|318:106,1,101.999996887207,2|2,0:3|0:3,0:3:0:0:
387,52,7783,1,2,0:3:0:0:
256,192,8183,12,2,12963,0:3:0:0:
179,74,13363,6,0,P|151:68|126:61,1,50.9999984436036,2|2,0:0|0:0,0:0:0:0:
59,129,13763,2,0,P|71:196|84:285,1,152.999995330811,0|2,0:0|0:0,0:0:0:0:
180,369,14563,2,0,P|190:312|205:260,1,101.999996887207,2|2,0:3|0:0,0:0:0:0:
433,266,15363,2,0,P|378:285|326:298,1,101.999996887207,2|2,0:0|0:0,0:0:0:0:
335,296,15963,1,2,0:0:0:0:
285,203,16163,6,0,P|230:169|187:169,1,101.999996887207,2|2,0:3|0:0,0:0:0:0:
42,316,16963,2,0,P|98:285|120:248,1,101.999996887207,2|2,0:0|0:0,0:0:0:0:
124,79,17763,2,0,P|76:165|117:254,1,203.999993774414,2|2,0:3|0:3,0:0:0:0:
118,272,19363,6,0,P|166:255|246:252,1,101.999996887207,2|2,0:3|0:0,0:0:0:0:
316,192,19963,2,0,L|337:81,1,101.999996887207,2|2,0:0|0:0,0:0:0:0:
254,50,20563,2,0,L|246:-1,2,50.9999984436036,2|2|2,0:3|0:3|0:2,0:3:0:0:
416,148,21763,1,2,0:0:0:0:
410,174,22163,1,2,0:0:0:0:
297,284,22563,6,0,L|315:406,1,101.999996887207,2|2,0:3|0:0,0:0:0:0:
497,278,23163,1,2,0:0:0:0:
492,271,23363,2,0,B|439:247|387:273|409:284|344:324|270:267,1,203.999993774414,0|2,0:0|0:3,0:0:0:0:
58,69,25763,6,0,P|116:107|156:104,1,101.999996887207,2|2,0:3|0:0,0:0:0:0:
213,56,26363,1,2,0:0:0:0:
279,109,26563,2,0,L|257:222,1,101.999996887207,2|2,0:3|0:0,0:0:0:0:
400,357,27363,2,0,L|419:256,1,101.999996887207,2|2,0:3|0:0,0:0:0:0:
279,109,28163,2,0,L|257:222,1,101.999996887207,2|2,0:0|0:0,0:0:0:0:
259,209,28763,1,2,0:0:0:0:
185,312,28963,6,0,P|134:319|79:329,1,101.999996887207,2|2,0:3|0:0,0:0:0:0:
185,122,29763,2,0,P|134:115|79:105,1,101.999996887207,2|2,0:0|0:0,0:0:0:0:
0,234,30563,2,0,B|46:204|104:223|91:238|148:255|209:214,1,203.999993774414,2|2,0:3|0:3,0:0:0:0:
204,216,32163,6,0,P|254:212|307:247,1,101.999996887207,2|2,0:3|0:0,0:0:0:0:
365,316,32763,2,0,P|415:319|468:284,1,101.999996887207,2|2,0:0|0:0,0:0:0:0:
490,201,33363,2,0,L|508:78,1,101.999996887207,2|2,0:0|0:3,0:0:0:0:
496,93,34563,2,0,L|481:193,1,101.999996887207,2|2,0:3|0:0,0:0:0:0:
396,244,35163,1,2,0:0:0:0:
396,244,35363,5,2,0:3:0:0:
351,60,35763,1,2,0:3:0:0:
261,118,36163,5,2,0:3:0:0:
242,218,36563,1,2,0:3:0:0:
124,15,36963,6,0,L|150:123,1,101.999996887207,2|2,0:3|0:0,0:0:0:0:
124,369,37763,2,0,L|150:261,1,101.999996887207,2|2,0:3|0:0,0:0:0:0:
338,124,38463,1,2,0:3:0:0:
334,132,38563,6,0,L|450:124,1,101.999996887207,2|2,0:3|0:0,0:0:0:0:
334,252,39363,2,0,L|450:260,1,101.999996887207,2|2,0:3|0:0,0:0:0:0:
272,50,40163,2,0,P|238:91|229:155,1,101.999996887207,2|2,0:3|0:0,0:0:0:0:
289,339,40963,2,0,P|323:298|332:234,1,101.999996887207,2|2,0:3|0:0,0:0:0:0:
181,227,41763,6,0,L|68:248,1,101.999996887207,2|2,0:3|0:0,0:0:0:0:
33,378,42563,2,0,L|133:359,1,101.999996887207,2|2,0:3|0:0,0:0:0:0:
61,249,43163,5,2,0:0:0:0:
124,186,43363,2,0,P|134:151|135:127,1,50.9999984436036,2|0,0:3|0:0,0:0:0:0:
74,16,43763,5,2,0:0:0:0:
97,102,43963,2,0,P|122:128|142:141,1,50.9999984436036,2|2,0:0|0:3,0:0:0:0:
270,144,44363,5,2,0:0:0:0:
182,122,44563,2,0,P|146:130|125:141,1,50.9999984436036,2|0,0:0|0:0,0:0:0:0:
257,238,44963,6,0,P|307:232|354:190,1,101.999996887207,2|2,0:3|0:0,0:0:0:0:
408,26,45763,2,0,L|420:123,1,76.4999976654053,2|0,0:3|0:0,0:0:0:0:
428,115,46163,1,2,0:0:0:0:
491,190,46463,1,2,0:3:0:0:
480,204,46563,2,0,L|469:318,1,101.999996887207,2|2,0:3|0:0,0:0:0:0:
390,362,47163,1,2,0:0:0:0:
324,288,47363,2,0,B|284:264|232:272|232:272|224:312|184:328,1,152.999995330811,2|2,0:3|0:0,0:0:0:0:
136,252,48163,6,0,L|120:132,1,101.999996887207,2|0,0:3|0:0,0:0:0:0:
220,20,48963,2,0,L|233:119,1,76.4999976654053,2|0,0:3|0:0,0:0:0:0:
240,112,49363,1,2,0:0:0:0:
324,184,49563,1,2,0:2:0:0:
324,184,49663,1,0,0:0:0:0:
324,184,49763,2,0,B|356:164|396:172|392:180|432:196|476:164,1,152.999995330811,2|2,0:3|0:0,0:0:0:0:
364,260,50563,2,0,L|352:368,1,101.999996887207,2|2,0:3|0:0,0:0:0:0:
352,361,51363,5,2,0:3:0:0:
160,188,51763,2,0,P|112:196|64:248,1,101.999996887207,2|2,0:0|0:3,0:0:0:0:
132,344,52563,2,0,P|180:336|228:284,1,101.999996887207,2|2,0:0|0:3,0:0:0:0:
167,86,53363,2,0,L|159:194,1,101.999996887207,2|2,0:0|0:3,0:0:0:0:
284,48,53963,1,0,0:0:0:0:
276,128,54163,2,0,L|274:154,3,25.4999992218018,2|0|0|0,0:0|0:0|0:0|0:0,0:0:0:0:
364,216,54563,6,0,L|476:192,1,101.999996887207,2|0,0:3|0:0,0:0:0:0:
488,76,55363,2,0,L|388:97,1,101.999996887207,2|2,0:3|0:3,0:0:0:0:
305,336,56163,2,0,P|357:300|357:204,1,152.999995330811,2|0,0:3|0:0,0:0:0:0:
276,128,56963,2,0,P|272:80|300:28,1,101.999996887207,2|2,0:3|0:0,0:0:0:0:
192,284,57763,6,0,L|84:264,1,101.999996887207,2|0,0:3|0:0,0:0:0:0:
96,100,58563,2,0,P|139:120|170:170,1,101.999996887207,2|0,0:3|0:0,0:0:0:0:
81,363,59363,2,0,P|109:307|213:291,1,152.999995330811,2|0,0:3|0:0,0:0:0:0:
416,264,60163,1,2,0:3:0:0:
341,263,60363,1,2,0:0:0:0:
292,208,60563,1,2,0:0:0:0:
292,208,60963,6,0,B|316:160|376:156|376:172|436:168|468:100,2,203.999993774414,2|2|2,0:3|0:3|0:3,0:0:0:0:
292,208,62963,6,0,P|240:216|200:200,1,76.4999976654053,2|0,0:0|0:0,0:0:0:0:
212,192,63363,1,10,3:0:0:0:
84,20,63763,2,0,P|132:27|175:96,1,114.749996498108,2|0,0:0|0:0,0:0:0:0:
188,92,64163,6,0,P|180:164|169:291,1,187.000005706787,6|2,3:2|0:0,0:0:0:0:
32,112,64763,2,0,P|52:168|64:224,1,93.5000028533936,2|8,3:2|0:3,0:0:0:0:
60,336,65163,1,2,0:0:0:0:
212,192,65363,2,0,P|255:185|308:172,1,93.5000028533936,2|0,0:0|0:0,0:0:0:0:
440,340,65763,2,0,P|394:328|348:321,1,93.5000028533936
448,64,66163,2,0,P|420:120|404:212,1,140.25000428009,0|0,3:0|0:0,0:0:0:0:
408,224,66563,1,10,0:0:0:0:
284,56,66763,1,0,0:0:0:0:
192,276,66963,2,0,P|128:270|28:260,1,140.25000428009,2|0,0:0|0:0,0:0:0:0:
24,272,67363,6,0,P|4:216|4:164,1,93.5000028533936,2|0,3:2|0:0,0:0:0:0:
120,52,67763,1,2,0:0:0:0:
280,248,67963,2,0,P|333:257|372:264,1,93.5000028533936,2|8,3:2|0:3,0:0:0:0:
144,176,68363,1,2,0:0:0:0:
336,132,68563,2,0,P|364:92|368:20,1,93.5000028533936,2|0,0:0|0:0,0:0:0:0:
224,0,68963,2,0,P|232:40|244:112,1,93.5000028533936
400,340,69363,2,0,P|416:248|436:176,1,140.25000428009,2|0,3:2|0:0,0:0:0:0:
448,184,69763,1,8,0:0:0:0:
288,376,69963,1,0,0:0:0:0:
496,292,70163,1,6,0:1:0:0:
320,152,70363,1,2,0:0:0:0:
424,88,70563,6,0,P|440:36|440:-8,1,93.5000028533936,2|0,3:2|0:0,0:0:0:0:
308,264,70963,1,2,0:0:0:0:
224,60,71163,2,0,P|156:48|100:36,1,93.5000028533936,2|8,3:2|0:3,0:0:0:0:
60,296,71563,1,0,0:0:0:0:
128,188,71763,2,0,P|173:178|219:171,1,93.5000028533936,2|0,0:0|0:0,0:0:0:0:
4,20,72163,6,0,P|28:65|36:111,1,93.5000028533936,2|0,0:0|0:0,0:0:0:0:
280,364,72563,2,0,P|256:319|248:273,1,93.5000028533936,2|0,3:2|0:0,0:0:0:0:
488,24,72963,5,10,0:0:0:0:
396,268,73163,1,0,0:0:0:0:
236,64,73363,5,2,0:0:0:0:
408,136,73563,1,2,0:0:0:0:
248,264,73763,6,0,P|200:271|148:280,1,93.5000028533936,2|0,3:3|0:0,0:0:0:0:
0,184,74163,1,2,0:3:0:0:
96,376,74363,1,2,3:3:0:0:
128,152,74563,2,0,P|160:104|212:84,1,93.5000028533936,10|0,0:3|0:0,0:0:0:0:
336,196,74963,1,2,0:3:0:0:
336,196,75163,1,2,0:3:0:0:
272,360,75363,2,0,P|261:307|252:264,1,93.5000028533936,2|0,0:3|0:0,0:0:0:0:
440,56,75763,6,0,P|429:101|421:147,1,93.5000028533936,2|0,3:2|0:0,0:0:0:0:
280,364,76163,2,0,P|269:311|260:268,1,93.5000028533936,10|0,0:0|0:0,0:0:0:0:
128,20,76563,2,0,P|117:78|96:188,1,140.25000428009,6|0,0:1|0:0,0:0:0:0:
88,184,76963,6,0,B|136:156|188:176|176:188|228:212|300:148,1,187.000005706787,2|2,3:2|0:0,0:0:0:0:
472,136,77563,1,2,3:2:0:0:
328,92,77763,2,0,P|320:39|312:-4,1,93.5000028533936,8|0,0:3|0:0,0:0:0:0:
468,220,78163,2,0,P|474:173|483:127,1,93.5000028533936
372,328,78563,1,0,0:0:0:0:
372,328,78763,1,0,0:0:0:0:
216,164,78963,2,0,P|168:176|124:232,1,93.5000028533936,2|0,3:2|0:0,0:0:0:0:
108,384,79363,1,10,0:0:0:0:
224,268,79563,1,0,0:0:0:0:
120,196,79763,2,0,P|112:115|104:40,1,140.25000428009,2|0,0:0|0:0,0:0:0:0:
104,28,80163,6,0,P|168:52|220:44,1,93.5000028533936,2|0,3:2|0:0,0:0:0:0:
440,8,80563,1,2,0:0:0:0:
328,156,80763,2,0,P|323:198|316:280,1,93.5000028533936,2|8,3:2|0:3,0:0:0:0:
320,48,81163,1,2,0:0:0:0:
440,204,81363,2,0,P|444:250|449:297,1,93.5000028533936,2|0,0:0|0:0,0:0:0:0:
223,360,81763,2,0,P|215:284|208:208,1,140.25000428009
216,192,82163,1,0,3:0:0:0:
92,348,82363,1,0,0:0:0:0:
8,108,82563,1,10,0:0:0:0:
104,220,82763,1,0,0:0:0:0:
220,60,82963,2,0,P|288:72|332:152,1,140.25000428009,6|0,0:1|0:0,0:0:0:0:
352,140,83363,6,0,P|346:179|336:264,1,93.5000028533936,2|0,3:2|0:0,0:0:0:0:
120,16,83763,2,0,P|125:62|132:108,1,93.5000028533936,2|0,0:2|3:0,0:0:0:0:
0,344,84163,6,0,P|68:312|128:320,1,93.5000028533936,10|0,0:3|0:0,0:0:0:0:
412,304,84563,2,0,P|344:336|284:328,1,93.5000028533936,2|0,0:0|0:0,0:0:0:0:
56,200,84963,6,0,B|106:188|155:231|133:232|176:277|256:252,2,187.000005706787,2|2|10,0:0|3:2|0:0,0:0:0:0:
200,368,85963,5,0,0:0:0:0:
292,156,86163,1,2,0:0:0:0:
152,220,86363,1,0,0:0:0:0:
368,300,86563,6,0,P|416:272|440:132,1,187.000005706787,2|0,3:2|0:0,0:0:0:0:
288,0,87163,1,0,3:0:0:0:
168,156,87363,2,0,P|124:150|64:100,1,93.5000028533936,10|2,0:3|0:0,0:0:0:0:
312,124,87763,1,2,0:0:0:0:
172,28,87963,1,2,0:0:0:0:
68,116,88163,2,0,P|78:184|92:292,1,140.25000428009,2|0,0:0|0:0,0:0:0:0:
84,284,88563,5,10,3:0:0:0:
288,208,88763,1,0,3:0:0:0:
440,384,88963,5,10,0:0:0:0:
260,292,89163,1,8,0:0:0:0:
440,176,89363,6,0,P|468:124|452:40,1,140.25000428009,14|0,3:0|0:0,0:0:0:0:
468,20,89763,6,0,P|375:35|260:52,1,187.000005706787,6|2,3:2|0:0,0:0:0:0:
120,208,90363,2,0,P|72:197|20:188,1,93.5000028533936,2|8,3:2|0:0,0:0:0:0:
228,272,90763,1,2,0:0:0:0:
88,108,90963,2,0,P|76:56|88:12,1,93.5000028533936,2|0,0:0|0:0,0:0:0:0:
224,8,91363,2,0,P|236:60|224:104,1,93.5000028533936
332,240,91763,2,0,P|405:247|488:256,1,140.25000428009,0|0,3:2|0:0,0:0:0:0:
496,240,92163,1,10,0:0:0:0:
352,356,92363,1,0,0:0:0:0:
276,172,92563,2,0,P|208:124|132:144,1,140.25000428009,2|0,0:0|0:0,0:0:0:0:
144,156,92963,6,0,P|90:184|54:183,1,93.5000028533936,2|0,3:2|0:0,0:0:0:0:
188,260,93363,1,2,0:0:0:0:
76,92,93563,2,0,P|66:44|56:-4,1,93.5000028533936,2|8,3:2|0:0,0:0:0:0:
184,268,93963,1,2,0:0:0:0:
256,64,94163,2,0,P|302:67|341:92,1,93.5000028533936,2|0,0:0|0:0,0:0:0:0:
336,352,94563,2,0,P|316:310|318:263,1,93.5000028533936
512,128,94963,2,0,P|472:184|384:188,1,140.25000428009,2|0,3:2|0:0,0:0:0:0:
380,180,95363,1,8,0:0:0:0:
500,320,95563,1,0,0:0:0:0:
304,244,95763,1,2,0:0:0:0:
420,88,95963,1,2,0:0:0:0:
216,16,96163,6,0,P|168:10|108:0,1,93.5000028533936,2|0,3:2|0:2,0:0:0:0:
320,120,96563,1,2,0:0:0:0:
124,128,96763,2,0,P|84:168|76:232,1,93.5000028533936,2|8,3:2|0:0,0:0:0:0:
48,364,97163,1,0,0:0:0:0:
180,224,97363,2,0,P|227:219|288:212,1,93.5000028533936,2|0,0:0|0:0,0:0:0:0:
496,368,97763,6,0,P|449:362|403:358,1,93.5000028533936,2|0,0:0|0:0,0:0:0:0:
316,24,98163,2,0,P|269:29|223:33,1,93.5000028533936,2|0,3:2|0:0,0:0:0:0:
36,340,98563,5,10,0:0:0:0:
288,216,98763,1,0,0:0:0:0:
56,0,98963,5,2,0:0:0:0:
120,180,99163,1,2,0:0:0:0:
396,244,99363,6,0,P|384:152|292:108,1,187.000005706787,2|2,3:2|0:3,0:0:0:0:
188,260,99963,1,0,3:0:0:0:
108,172,100163,2,0,P|105:122|100:68,1,93.5000028533936,8|0,0:0|0:0,0:0:0:0:
296,304,100563,2,0,P|298:254|304:200,1,93.5000028533936,2|0,0:3|0:0,0:0:0:0:
472,68,100963,6,0,B|416:52|384:84|392:92|360:124|284:96,1,187.000005706787,2|0,0:0|3:2,0:0:0:0:
452,151,101563,1,0,0:0:0:0:
228,40,101763,2,0,P|200:92|216:148,1,93.5000028533936,10|0,0:0|0:0,0:0:0:0:
428,236,102163,2,0,P|456:184|440:128,1,93.5000028533936
204,352,102563,6,0,P|107:343|17:337,1,187.000005706787,2|0,3:2|0:0,0:0:0:0:
276,252,103163,1,0,3:2:0:0:
356,352,103363,2,0,P|406:347|472:344,1,93.5000028533936,10|0,0:0|0:0,0:0:0:0:
359,158,103763,2,0,P|405:155|452:151,1,93.5000028533936,2|0,0:0|0:0,0:0:0:0:
488,4,104163,2,0,P|424:24|400:68,1,93.5000028533936,2|0,0:0|0:0,0:0:0:0:
260,252,104563,2,0,P|196:232|172:188,1,93.5000028533936,0|0,3:2|0:0,0:0:0:0:
196,40,104963,2,0,B|220:20|220:20|304:72|248:172,1,187.000005706787,10|2,0:0|0:0,0:0:0:0:
96,256,105563,1,2,0:0:0:0:
24,184,105763,6,0,P|19:132|12:72,1,93.5000028533936,2|0,3:2|0:0,0:0:0:0:
216,16,106163,1,2,0:0:0:0:
140,128,106363,1,0,3:2:0:0:
340,200,106563,2,0,P|386:192|464:180,1,93.5000028533936,10|0,0:0|0:0,0:0:0:0:
288,292,106963,1,2,0:0:0:0:
444,188,107163,1,0,0:0:0:0:
356,112,107363,2,0,P|347:58|340:8,1,93.5000028533936
200,220,107763,2,0,P|192:266|184:312,1,93.5000028533936,2|0,3:2|0:0,0:0:0:0:
8,76,108163,2,0,B|65:60|102:92|94:95|124:118|186:95,1,187.000005706787,8|2,0:0|0:0,0:0:0:0:
44,204,108763,1,2,0:0:0:0:
200,220,108963,6,0,P|256:248|280:292,1,93.5000028533936,2|0,3:2|0:0,0:0:0:0:
144,384,109363,1,2,0:0:0:0:
20,268,109563,2,0,P|16:205|42:162,1,93.5000028533936,0|8,3:2|0:0,0:0:0:0:
232,100,109963,1,2,0:0:0:0:
112,224,110163,1,2,0:0:0:0:
156,32,110363,1,2,0:0:0:0:
320,168,110563,2,0,P|307:249|292:364,2,187.000005706787,2|0|8,0:3|3:2|0:0,0:0:0:0:
408,92,111563,1,0,0:0:0:0:
488,172,111763,2,0,P|496:218|508:280,1,93.5000028533936,2|2,0:0|0:0,0:0:0:0:
296,72,112163,6,0,P|328:16|368:-4,1,93.5000028533936,2|0,3:2|0:0,0:0:0:0:
320,264,112563,1,2,0:0:0:0:
192,120,112763,2,0,P|146:108|88:92,1,93.5000028533936,2|8,3:2|0:0,0:0:0:0:
24,368,113163,1,0,0:0:0:0:
120,260,113363,2,0,P|165:247|210:236,1,93.5000028533936,2|0,0:0|0:0,0:0:0:0:
480,376,113763,6,0,P|432:360|392:304,1,93.5000028533936,2|0,0:0|0:0,0:0:0:0:
448,12,114163,2,0,P|482:73|453:136,1,140.25000428009,2|0,3:2|0:0,0:0:0:0:
436,152,114563,1,10,3:2:0:0:
260,12,114763,1,2,3:2:0:0:
208,112,114963,2,0,P|281:95|348:84,1,140.25000428009,6|0,0:1|0:0,0:0:0:0:
345,84,115363,6,0,P|324:116|324:176,1,85,0|2,0:0|0:0,0:0:0:0:
256,192,115863,12,2,121763,0:3:0:0:
154,117,126563,6,0,P|161:87|131:136,1,255
132,146,128163,6,0,L|268:125,1,127.500004863739,2|2,3:0|0:0,0:0:0:0:
334,73,128763,1,2,0:0:0:0:
413,121,128963,2,0,P|438:152|425:249,1,127.500004863739,4|2,0:3|3:2,0:0:0:0:
479,322,129563,1,2,0:0:0:0:
401,375,129763,2,0,L|247:361,1,127.500004863739,2|2,0:3|0:0,0:0:0:0:
274,363,130563,2,0,P|253:331|242:298,1,63.7500024318696,10|0,0:0|0:0,0:0:0:0:
75,285,130963,2,0,P|96:253|107:220,1,63.7500024318696,2|0,0:0|0:0,0:0:0:0:
221,104,131363,6,0,L|360:125,2,127.500004863739,2|2|6,3:0|0:0|0:1,0:0:0:0:
110,56,132363,1,0,0:0:0:0:
133,144,132563,1,2,3:2:0:0:
133,144,132963,2,0,P|157:172|192:190,1,63.7500024318696,2|0,0:3|0:0,0:0:0:0:
280,83,133363,2,0,P|243:89|210:111,1,63.7500024318696
250,248,133763,1,10,0:0:0:0:
281,171,133963,1,2,0:0:0:0:
250,248,134163,2,0,L|265:348,1,95.6250036478044,2|0,0:0|0:0,0:0:0:0:
280,351,134563,6,0,P|337:335|366:336,1,63.7500024318696,2|0,3:0|0:0,0:0:0:0:
436,364,134963,1,2,0:0:0:0:
493,290,135163,2,0,L|506:220,1,63.7500024318696,2|4,0:0|0:1,0:0:0:0:
360,143,135563,1,0,0:0:0:0:
388,74,135763,2,0,L|411:199,1,127.500004863739,2|0,3:2|0:0,0:0:0:0:
411,199,136563,2,0,L|399:261,1,63.7500024318696,2|0,0:0|0:0,0:0:0:0:
280,114,136963,2,0,L|268:176,1,63.7500024318696,10|0,0:0|0:0,0:0:0:0:
187,305,137363,2,0,P|142:319|111:314,1,63.7500024318696,2|0,0:0|0:0,0:0:0:0:
49,142,137763,6,0,P|100:156|137:239,1,127.500004863739,2|2,3:0|0:0,0:0:0:0:
112,309,138363,1,2,0:0:0:0:
234,374,138563,2,0,L|372:355,1,127.500004863739,0|2,0:0|3:0,0:0:0:0:
478,127,139363,2,0,L|351:144,1,127.500004863739,2|0,0:3|0:0,0:0:0:0:
351,144,140163,1,8,0:0:0:0:
424,248,140363,1,2,0:0:0:0:
280,208,140563,2,0,P|259:167|263:102,1,95.6250036478044,2|0,0:0|0:0,0:0:0:0:
270,103,140963,5,2,3:0:0:0:
115,18,141363,2,0,L|97:91,1,63.7500024318696,2|2,0:0|0:0,0:0:0:0:
53,301,141763,2,0,L|33:160,1,127.500004863739,4|2,0:1|3:2,0:0:0:0:
19,91,142363,1,2,0:0:0:0:
140,157,142563,2,0,P|196:158|261:99,1,127.500004863739,2|0,0:3|0:0,0:0:0:0:
251,117,143363,2,0,P|236:151|239:195,1,63.7500024318696,10|0,0:0|0:0,0:0:0:0:
383,220,143763,2,0,P|398:186|395:142,1,63.7500024318696,2|2,0:0|0:0,0:0:0:0:
291,257,144163,6,0,L|300:391,2,127.500004863739,2|2|6,3:0|0:0|0:1,0:0:0:0:
189,364,145163,1,0,0:0:0:0:
200,275,145363,1,2,3:2:0:0:
200,275,145763,2,0,P|162:277|128:297,1,63.7500024318696,2|0,0:3|0:0,0:0:0:0:
27,361,146163,2,0,P|44:327|43:287,1,63.7500024318696
34,156,146563,1,10,0:0:0:0:
81,224,146763,1,2,0:0:0:0:
34,156,146963,2,0,L|27:47,1,95.6250036478044,2|0,0:0|0:0,0:0:0:0:
28,41,147363,6,0,P|83:66|109:68,1,63.7500024318696,2|0,3:0|0:0,0:0:0:0:
177,26,147763,1,2,0:0:0:0:
261,77,147963,2,0,P|268:107|267:139,1,63.7500024318696,2|4,0:0|0:1,0:0:0:0:
214,279,148363,1,2,0:0:0:0:
217,178,148563,2,0,P|240:156|267:140,1,63.7500024318696,2|0,3:2|0:0,0:0:0:0:
386,158,148963,2,0,P|337:169|261:133,1,127.500004863739,2|0,0:3|0:0,0:0:0:0:
267,140,149763,2,0,L|274:215,1,63.7500024318696,10|0,0:0|0:0,0:0:0:0:
380,94,150163,2,0,L|387:169,1,63.7500024318696,2|2,0:0|0:0,0:0:0:0:
483,354,150563,6,0,P|426:327|364:337,3,127.500004863739,2|2|6|2,3:3|0:3|0:3|3:3,0:3:0:0:
364,337,152163,2,0,P|323:354|293:358,1,63.7500024318696,2|0,0:0|0:0,0:0:0:0:
113,234,152563,2,0,P|154:251|184:255,1,63.7500024318696,2|0,0:0|0:0,0:0:0:0:
311,157,152963,1,10,0:0:0:0:
290,253,153163,1,2,0:0:0:0:
157,64,153363,2,0,L|173:182,1,95.6250036478044,6|0,0:1|0:0,0:0:0:0:
184,178,153763,6,0,L|168:287,1,76.4999976654053,6|0,3:0|0:0,0:0:0:0:
21,378,154163,2,0,L|37:269,1,76.4999976654053,2|0,0:2|0:0,0:0:0:0:
248,309,154563,6,0,P|213:337|159:347,1,76.4999976654053,6|0,0:1|0:0,0:0:0:0:
102,127,154963,2,0,P|137:99|191:89,1,76.4999976654053,2|0,3:2|0:0,0:0:0:0:
375,205,155363,6,0,L|273:185,1,76.4999976654053,2|0,0:3|0:0,0:0:0:0:
329,68,155763,2,0,L|404:82,1,76.4999976654053,2|0,0:0|0:0,0:0:0:0:
510,324,156163,6,0,B|465:313|436:333|443:338|405:363|349:336,1,152.999995330811,10|0,0:0|0:0,0:0:0:0:
222,195,156763,1,0,0:0:0:0:
150,284,156963,6,0,L|60:297,1,76.4999976654053,2|0,3:0|0:0,0:0:0:0:
36,154,157363,2,0,L|111:143,1,76.4999976654053,2|0,0:0|0:0,0:0:0:0:
272,48,157763,2,0,P|230:111|217:186,1,152.999995330811,4|0,0:1|3:0,0:0:0:0:
443,351,158363,5,2,0:0:0:0:
429,255,158563,2,0,P|401:214|359:198,1,76.4999976654053,2|0,0:3|0:0,0:0:0:0:
217,186,158963,5,2,0:0:0:0:
307,221,159163,2,0,P|355:217|390:189,1,76.4999976654053,2|8,0:0|0:0,0:0:0:0:
472,72,159563,5,2,0:0:0:0:
398,132,159763,2,0,P|376:175|383:220,1,76.4999976654053,6|0,0:1|0:0,0:0:0:0:
451,357,160163,5,2,3:0:0:0:
451,357,160563,2,0,L|357:343,1,76.4999976654053,2|0,0:0|0:0,0:0:0:0:
216,367,160963,1,6,0:1:0:0:
283,282,161163,1,0,0:0:0:0:
147,248,161363,2,0,P|128:201|130:150,1,76.4999976654053,2|0,3:2|0:0,0:0:0:0:
252,92,161763,2,0,L|237:167,1,76.4999976654053,2|0,0:0|0:0,0:0:0:0:
160,14,162163,2,0,L|145:89,1,76.4999976654053,2|0,0:0|0:0,0:0:0:0:
11,274,162563,2,0,P|79:232|155:254,1,152.999995330811,10|2,0:0|0:0,0:0:0:0:
264,299,163163,1,2,0:0:0:0:
402,191,163363,6,0,L|433:17,2,152.999995330811,2|0|4,3:0|0:0|0:3,0:0:0:0:
434,283,164363,1,0,0:0:0:0:
335,253,164563,2,0,P|312:214|307:161,1,76.4999976654053,2|2,3:2|0:0,0:0:0:0:
471,119,164963,2,0,P|494:158|499:211,1,76.4999976654053,2|0,0:0|0:0,0:0:0:0:
360,348,165363,2,0,L|265:338,1,76.4999976654053,2|0,0:0|0:0,0:0:0:0:
117,378,165763,1,10,0:0:0:0:
221,261,165963,1,2,0:0:0:0:
118,274,166163,2,0,P|65:239|50:166,1,114.749996498108,6|0,0:1|0:0,0:0:0:0:
53,170,166563,5,2,3:0:0:0:
451,121,166963,2,0,L|424:281,1,152.999995330811,2|2,0:0|0:3,0:0:0:0:
125,23,167763,2,0,L|152:183,1,152.999995330811,2|2,3:2|0:3,0:0:0:0:
479,19,168563,6,0,B|434:8|405:28|412:33|374:58|318:31,1,152.999995330811,2|10,0:0|0:0,0:0:0:0:
252,0,169163,1,0,0:0:0:0:
332,37,169363,2,0,P|350:84|344:132,1,76.4999976654053,2|2,0:0|0:0,0:0:0:0:
114,270,169763,6,0,P|150:222|263:221,1,152.999995330811,2|0,3:0|0:0,0:0:0:0:
445,373,170563,2,0,P|385:365|328:268,1,152.999995330811,6|0,0:3|3:0,0:0:0:0:
368,35,171363,2,0,P|391:90|335:188,1,152.999995330811,2|0,0:3|0:0,0:0:0:0:
359,172,172163,6,0,L|434:162,1,76.4999976654053,10|0,0:0|0:0,0:0:0:0:
210,306,172563,2,0,L|96:320,1,114.749996498108,6|0,0:1|0:0,0:0:0:0:
78,334,172963,6,0,B|42:353|42:353|26:292|71:222,1,152.999995330811,2|0,3:0|0:0,0:0:0:0:
287,164,173763,2,0,B|321:185|321:185|276:230|193:226,1,152.999995330811,6|0,0:3|3:0,0:0:0:0:
35,68,174563,2,0,B|36:27|36:27|97:43|135:117,1,152.999995330811,2|0,0:3|0:0,0:0:0:0:
122,94,175363,5,10,0:0:0:0:
139,188,175563,1,2,0:0:0:0:
303,244,175763,5,2,0:0:0:0:
286,337,175963,1,2,0:0:0:0:
443,127,176163,6,0,B|400:168|342:153|347:138|295:124|250:156,1,203.999993774414,2|6,3:0|0:3,0:0:0:0:
71,302,177363,2,0,L|66:334,3,25.4999992218018,0|0|0|0,3:0|3:0|3:0|3:0,3:0:0:0:
30,219,177763,5,2,3:0:0:0:
30,219,178163,2,0,L|20:97,1,114.749996498108,2|0,0:0|0:0,0:0:0:0:
77,40,178563,5,10,0:0:0:0:
103,30,178663,1,2,0:0:0:0:
132,30,178763,1,2,0:0:0:0:
158,40,178863,1,2,0:0:0:0:
180,59,178963,1,2,0:0:0:0:
206,69,179063,1,2,0:0:0:0:
235,69,179163,1,2,0:0:0:0:
261,59,179263,1,2,0:0:0:0:
281,39,179363,6,0,B|238:26|238:26|181:91|230:195,1,187.000005706787,6|2,3:2|0:0,0:0:0:0:
376,275,179963,2,0,P|424:262|483:253,1,93.5000028533936,2|8,3:2|0:0,0:0:0:0:
329,134,180363,1,2,0:0:0:0:
235,323,180563,2,0,P|195:313|131:305,1,93.5000028533936,2|0,0:0|0:0,0:0:0:0:
0,143,180963,2,0,P|46:136|91:125,1,93.5000028533936
204,22,181363,2,0,P|195:88|185:173,1,140.25000428009,0|0,3:0|0:0,0:0:0:0:
199,186,181763,1,10,0:0:0:0:
82,21,181963,1,0,0:0:0:0:
277,112,182163,1,2,0:0:0:0:
61,238,182363,1,0,3:0:0:0:
61,238,182463,1,0,3:0:0:0:
61,238,182563,6,0,P|45:293|49:346,1,93.5000028533936,2|0,3:2|0:0,0:0:0:0:
113,112,182963,1,2,0:0:0:0:
231,308,183163,2,0,P|277:298|339:289,1,93.5000028533936,2|8,3:2|0:0,0:0:0:0:
451,60,183563,1,2,0:0:0:0:
353,139,183763,2,0,P|306:131|261:122,1,93.5000028533936,2|0,0:0|3:0,0:0:0:0:
236,108,184063,1,0,3:0:0:0:
236,108,184163,2,0,P|244:158|253:217,1,93.5000028533936,0|0,3:0|0:0,0:0:0:0:
425,380,184563,2,0,P|439:301|457:222,1,140.25000428009,2|0,3:2|0:0,0:0:0:0:
468,220,184963,1,8,0:0:0:0:
326,34,185163,1,0,0:0:0:0:
458,83,185363,1,2,0:0:0:0:
269,225,185563,1,2,3:2:0:0:
269,225,185663,1,0,3:0:0:0:
269,225,185763,6,0,P|217:224|162:187,1,93.5000028533936,2|0,3:2|0:0,0:0:0:0:
108,89,186163,1,2,0:0:0:0:
67,265,186363,2,0,P|74:304|89:381,1,93.5000028533936,2|8,3:2|0:0,0:0:0:0:
245,128,186763,1,2,0:0:0:0:
317,296,186963,2,0,P|364:301|418:311,1,93.5000028533936,2|0,0:0|0:0,0:0:0:0:
490,26,187363,6,0,P|414:48|391:88,1,93.5000028533936,2|0,0:0|0:0,0:0:0:0:
302,384,187763,2,0,P|320:307|297:267,1,93.5000028533936,2|0,3:2|0:0,0:0:0:0:
85,42,188163,5,10,0:0:0:0:
208,326,188363,1,0,0:0:0:0:
300,22,188563,5,2,0:0:0:0:
80,174,188763,2,0,P|72:202|70:241,1,46.7500014266968,2|0,3:2|3:0,3:0:0:0:
322,287,188963,6,0,L|433:272,1,93.5000028533936,2|0,3:0|0:0,0:0:0:0:
500,192,189363,1,2,0:3:0:0:
399,384,189563,1,2,3:3:0:0:
313,177,189763,2,0,P|270:143|212:137,1,93.5000028533936,10|0,0:0|0:0,0:0:0:0:
103,303,190163,1,2,0:3:0:0:
231,242,190363,1,2,3:3:0:0:
231,242,190463,1,0,3:0:0:0:
231,242,190563,1,2,3:3:0:0:
64,161,190763,1,0,0:0:0:0:
166,7,190963,6,0,P|160:48|152:111,1,93.5000028533936,2|0,3:2|0:0,0:0:0:0:
333,360,191363,2,0,P|326:313|320:267,1,93.5000028533936,10|0,0:0|0:0,0:0:0:0:
495,8,191763,2,0,P|486:76|471:179,1,140.25000428009,6|0,0:1|0:0,0:0:0:0:
484,173,192163,6,0,B|441:141|392:156|404:168|352:188|304:160,1,187.000005706787,2|0,3:2|0:0,0:0:0:0:
105,57,192763,1,2,3:2:0:0:
17,192,192963,2,0,P|10:237|23:282,1,93.5000028533936,8|0,0:0|0:0,0:0:0:0:
210,263,193363,2,0,P|216:217|203:172,1,93.5000028533936,0|0,0:0|3:0,0:0:0:0:
178,158,193663,1,0,3:0:0:0:
178,158,193763,2,0,P|128:152|72:144,1,93.5000028533936,0|0,3:0|0:0,0:0:0:0:
319,269,194163,2,0,P|365:262|411:257,1,93.5000028533936,2|0,3:2|0:0,0:0:0:0:
465,42,194563,1,10,0:0:0:0:
345,133,194763,1,2,0:0:0:0:
482,199,194963,2,0,P|502:242|463:337,1,140.25000428009,2|0,0:0|0:0,0:0:0:0:
452,342,195363,6,0,P|401:346|346:354,1,93.5000028533936,2|0,3:2|0:0,0:0:0:0:
195,237,195763,1,2,0:0:0:0:
355,154,195963,2,0,P|381:95|367:37,1,93.5000028533936,2|8,3:2|0:0,0:0:0:0:
316,261,196363,1,2,0:0:0:0:
238,76,196563,2,0,P|188:63|136:48,1,93.5000028533936,2|0,0:0|0:0,0:0:0:0:
32,268,196963,2,0,P|111:245|197:230,1,140.25000428009
195,237,197363,1,0,3:0:0:0:
5,102,197563,1,0,0:0:0:0:
213,5,197763,1,10,0:0:0:0:
138,133,197963,1,2,0:0:0:0:
310,192,198163,2,0,P|303:251|295:336,1,140.25000428009,6|0,0:1|0:0,0:0:0:0:
295,359,198563,6,0,P|360:336|420:343,1,93.5000028533936,2|0,3:2|0:0,0:0:0:0:
465,37,198963,2,0,P|400:60|340:53,1,93.5000028533936,2|0,0:0|3:0,0:0:0:0:
477,270,199363,6,0,P|485:209|492:168,1,93.5000028533936,10|0,0:0|0:0,0:0:0:0:
235,5,199763,2,0,P|242:51|248:97,1,93.5000028533936,2|0,0:0|0:0,0:0:0:0:
27,322,200163,6,0,B|75:338|128:299|106:296|153:255|230:287,2,187.000005706787,2|2|10,0:0|3:2|0:0,0:0:0:0:
41,227,201163,5,0,0:0:0:0:
179,368,201363,1,2,0:0:0:0:
209,172,201563,1,0,3:0:0:0:
209,172,201663,1,0,3:0:0:0:
209,172,201763,6,0,P|276:113|399:157,1,187.000005706787,2|0,3:2|0:0,0:0:0:0:
506,221,202363,1,0,3:0:0:0:
489,35,202563,2,0,P|476:76|461:143,1,93.5000028533936,10|2,0:0|0:0,0:0:0:0:
436,324,202963,1,2,0:0:0:0:
312,207,203163,1,2,3:2:0:0:
312,207,203263,1,0,3:0:0:0:
312,207,203363,2,0,P|298:124|285:45,1,140.25000428009,2|0,3:2|0:0,0:0:0:0:
303,44,203763,5,10,3:0:0:0:
89,183,203963,1,0,3:0:0:0:
12,13,204163,5,10,0:0:0:0:
203,115,204363,1,8,0:0:0:0:
16,328,204563,6,0,P|66:287|163:286,1,140.25000428009,14|0,3:0|0:0,0:0:0:0:
166,270,204963,6,0,P|256:285|360:303,1,187.000005706787,6|2,3:2|0:0,0:0:0:0:
340,111,205563,2,0,P|293:172|298:230,1,93.5000028533936,2|8,3:2|0:0,0:0:0:0:
315,384,205963,1,2,0:0:0:0:
462,287,206163,2,0,P|432:215|379:191,1,93.5000028533936,2|0,0:0|0:0,0:0:0:0:
146,299,206563,2,0,P|192:294|239:290,1,93.5000028533936
241,91,206963,2,0,P|194:87|147:82,1,93.5000028533936,0|0,3:0|0:0,0:0:0:0:
7,321,207363,1,10,0:0:0:0:
183,187,207563,1,0,0:0:0:0:
1,40,207763,1,2,0:0:0:0:
77,149,207963,1,0,3:2:0:0:
77,149,208063,1,0,3:2:0:0:
77,149,208163,6,0,P|84:192|93:257,1,93.5000028533936,2|0,3:2|0:0,0:0:0:0:
192,4,208563,1,2,0:0:0:0:
284,167,208763,2,0,P|336:187|398:176,1,93.5000028533936,2|8,3:2|0:0,0:0:0:0:
460,2,209163,1,2,0:0:0:0:
358,92,209363,1,2,0:0:0:0:
477,184,209563,1,0,3:2:0:0:
477,184,209663,1,0,3:2:0:0:
477,184,209763,6,0,P|467:227|457:287,1,93.5000028533936,0|0,3:0|0:0,0:0:0:0:
266,381,210163,2,0,P|257:335|247:289,1,93.5000028533936,2|0,3:2|3:0,0:0:0:0:
231,268,210463,1,0,3:2:0:0:
231,268,210563,1,8,3:2:0:0:
150,371,210763,1,0,0:0:0:0:
356,260,210963,1,6,0:1:0:0:
162,166,211163,1,2,0:0:0:0:
301,19,211363,6,0,P|293:59|282:140,1,93.5000028533936,2|0,3:2|0:0,0:0:0:0:
150,32,211763,1,2,0:0:0:0:
55,199,211963,2,0,P|63:244|70:291,1,93.5000028533936,2|8,3:2|0:0,0:0:0:0:
171,134,212363,1,0,0:0:0:0:
246,276,212563,2,0,P|307:296|350:290,1,93.5000028533936,2|0,0:0|0:0,0:0:0:0:
441,0,212963,6,0,P|393:42|376:83,1,93.5000028533936,2|0,3:2|0:0,0:0:0:0:
376,384,213363,2,0,P|423:341|440:300,1,93.5000028533936,2|0,3:2|0:0,0:0:0:0:
211,52,213763,5,10,0:0:0:0:
340,288,213963,1,0,0:0:0:0:
497,100,214163,5,2,0:0:0:0:
293,197,214363,1,2,3:2:0:0:
293,197,214463,1,0,3:0:0:0:
293,197,214563,6,0,P|245:239|228:280,1,93.5000028533936,2|0,3:0|0:0,0:0:0:0:
131,362,214963,1,2,0:3:0:0:
340,288,215163,1,0,3:0:0:0:
134,161,215363,2,0,P|122:103|109:48,1,93.5000028533936,10|0,0:0|0:0,0:0:0:0:
314,9,215763,2,0,P|303:54|294:100,1,93.5000028533936,2|0,0:3|0:0,0:0:0:0:
451,335,216163,6,0,P|469:263|374:187,1,187.000005706787,2|0,0:0|3:0,0:0:0:0:
222,143,216763,1,0,3:2:0:0:
222,143,216863,1,0,3:2:0:0:
222,143,216963,1,10,3:2:0:0:
363,286,217163,1,0,0:0:0:0:
192,345,217363,2,0,P|133:339|45:331,1,140.25000428009,4|0,0:1|0:0,0:0:0:0:
38,356,217763,6,0,B|12:296|12:296|37:226|91:192,1,187.000005706787,2|0,3:2|0:0,0:0:0:0:
293,212,218363,1,0,3:0:0:0:
115,99,218563,2,0,P|72:90|9:78,1,93.5000028533936,10|0,0:0|0:0,0:0:0:0:
287,0,218963,2,0,P|304:53|291:94,1,93.5000028533936,2|0,0:0|0:0,0:0:0:0:
207,305,219363,2,0,P|190:252|203:211,1,93.5000028533936,2|0,0:0|0:0,0:0:0:0:
380,206,219763,2,0,P|422:214|485:226,1,93.5000028533936,0|0,3:0|0:0,0:0:0:0:
493,48,220163,2,0,P|401:66|309:84,1,187.000005706787,10|2,0:0|0:0,0:0:0:0:
202,128,220763,1,2,0:0:0:0:
295,253,220963,6,0,P|312:306|299:347,1,93.5000028533936,2|0,3:2|0:0,0:0:0:0:
63,380,221363,1,2,0:0:0:0:
207,305,221563,1,0,3:0:0:0:
70,218,221763,2,0,P|62:162|55:118,1,93.5000028533936,10|0,0:0|0:0,0:0:0:0:
234,17,222163,1,2,0:0:0:0:
178,138,222363,1,0,0:0:0:0:
19,30,222563,2,0,P|85:31|126:65,1,93.5000028533936
187,152,222963,2,0,P|253:151|294:117,1,93.5000028533936,2|0,3:2|0:0,0:0:0:0:
462,44,223363,2,0,B|426:14|426:14|374:62|379:165,1,187.000005706787,8|2,0:0|0:0,0:0:0:0:
496,249,223963,1,2,0:0:0:0:
409,332,224163,6,0,P|357:325|303:320,1,93.5000028533936,2|0,3:2|0:0,0:0:0:0:
214,378,224563,1,2,0:0:0:0:
379,232,224763,2,0,P|387:172|370:126,1,93.5000028533936,2|8,3:2|0:0,0:0:0:0:
152,31,225163,1,2,0:0:0:0:
289,193,225363,1,2,0:0:0:0:
353,0,225563,1,2,0:0:0:0:
192,121,225763,2,0,B|172:150|162:184|162:184|206:235|188:306,2,187.000005706787,2|0|8,0:3|3:0|0:0,0:0:0:0:
77,267,226763,1,0,0:0:0:0:
39,140,226963,2,0,P|25:87|10:29,1,93.5000028533936,2|2,0:0|0:0,0:0:0:0:
207,293,227363,6,0,P|260:279|317:264,1,93.5000028533936,2|0,3:2|0:0,0:0:0:0:
463,309,227763,1,2,0:0:0:0:
308,169,227963,2,0,P|291:119|293:58,1,93.5000028533936,2|8,3:2|0:0,0:0:0:0:
431,203,228363,1,0,0:0:0:0:
486,27,228563,2,0,P|503:77|501:138,1,93.5000028533936,2|0,0:0|0:0,0:0:0:0:
296,291,228963,6,0,P|251:283|184:273,1,93.5000028533936,2|0,0:0|0:0,0:0:0:0:
123,51,229363,2,0,P|194:63|303:80,1,140.25000428009,2|0,3:2|0:0,0:0:0:0:
289,78,229763,1,10,0:0:0:0:
115,337,229963,1,2,0:0:0:0:
115,337,230163,2,0,P|84:275|103:210,1,140.25000428009,6|0,0:1|0:0,0:0:0:0:
103,210,230563,6,0,L|196:196,1,85,4|2,3:2|0:0,0:0:0:0:
256,192,231063,12,2,237363,0:3:0:0:
308,325,255363,6,0,L|466:305,1,148.75,8|0,0:0|0:0,0:0:0:0:
466,309,256163,6,0,P|478:273|482:235,1,63.7500024318696,4|0,3:0|0:0,0:0:0:0:
461,157,256563,2,0,P|435:128|404:106,1,63.7500024318696,4|0,3:0|0:0,0:0:0:0:
326,86,256963,2,0,P|288:93|253:108,1,63.7500024318696,4|0,3:0|0:0,0:0:0:0:
197,166,257363,2,0,P|184:201|180:239,1,63.7500024318696,4|0,3:0|0:0,0:0:0:0:
85,329,257763,5,8,3:2:0:0:
335,223,257963,1,8,3:0:0:0:
85,329,258163,1,0,3:0:0:0:
267,299,258363,5,8,3:0:0:0:
155,260,258563,1,8,3:2:0:0:
267,299,258763,1,0,3:0:0:0:
119,60,258963,5,2,3:0:0:0:
119,60,259363,6,0,P|206:47|318:29,1,170,6|2,3:2|0:0,0:0:0:0:
427,181,259963,2,0,P|469:187|510:196,1,85,2|8,3:2|0:0,0:0:0:0:
479,70,260363,1,2,0:0:0:0:
332,119,260563,2,0,P|309:169|319:233,1,85,2|0,0:0|0:0,0:0:0:0:
496,377,260963,1,0,0:0:0:0:
448,272,261163,1,0,0:0:0:0:
314,364,261363,2,0,P|271:366|217:374,1,85,2|0,3:2|0:0,0:0:0:0:
219,172,261763,2,0,P|176:177|134:179,1,85,10|0,0:0|0:0,0:0:0:0:
4,374,262163,2,0,P|51:331|42:257,1,127.5,2|0,0:0|0:0,0:0:0:0:
37,254,262563,6,0,P|20:206|30:152,1,85,2|0,3:2|0:0,0:0:0:0:
251,50,262963,1,2,0:0:0:0:
120,191,263163,1,2,3:2:0:0:
0,61,263363,2,0,P|82:80|181:103,1,170,8|0,0:0|0:0,0:0:0:0:
223,254,263963,1,0,0:0:0:0:
376,113,264163,2,0,P|393:64|387:6,1,85,2|0,0:3|0:0,0:0:0:0:
428,247,264563,2,0,P|472:252|530:259,1,85,2|0,3:3|0:0,0:0:0:0:
277,51,264963,2,0,P|260:100|266:158,1,85,8|0,0:0|0:0,0:0:0:0:
419,348,265363,1,6,0:1:0:0:
348,195,265563,1,2,0:0:0:0:
296,283,265763,6,0,B|254:268|209:285|220:290|175:313|127:300,1,170,2|2,3:2|0:0,0:0:0:0:
265,377,266363,1,2,3:2:0:0:
151,213,266563,2,0,P|70:226|38:320,1,170,8|0,0:0|0:0,0:0:0:0:
130,300,267163,1,0,0:0:0:0:
233,159,267363,2,0,P|237:116|243:74,1,85,2|0,0:3|0:0,0:0:0:0:
50,34,267763,2,0,P|55:76|60:118,1,85,2|0,3:0|0:0,0:0:0:0:
305,0,268163,1,8,0:0:0:0:
152,63,268363,1,0,0:0:0:0:
342,96,268563,2,0,P|331:159|318:257,1,127.5,2|0,0:0|0:0,0:0:0:0:
319,243,268963,6,0,B|358:221|403:243|397:251|436:271|499:237,1,170,2|2,3:2|0:0,0:0:0:0:
441,158,269563,1,2,3:2:0:0:
358,331,269763,2,0,P|306:343|226:264,1,170,8|0,0:0|0:0,0:0:0:0:
319,243,270363,1,0,0:0:0:0:
232,147,270563,2,0,P|174:133|143:125,1,85,2|0,0:3|0:0,0:0:0:0:
39,348,270963,2,0,P|80:337|121:327,1,85,2|0,3:0|0:0,0:0:0:0:
38,64,271363,1,10,0:0:0:0:
92,231,271563,1,2,0:0:0:0:
153,99,271763,2,0,P|201:64|284:78,1,127.5,4|0,0:1|0:0,0:0:0:0:
283,80,272163,6,0,P|310:113|319:175,1,85,2|0,3:2|0:0,0:0:0:0:
221,252,272563,1,2,0:0:0:0:
381,335,272763,2,0,P|423:327|475:320,1,85,2|8,3:2|0:0,0:0:0:0:
398,226,273163,1,0,0:0:0:0:
197,364,273363,2,0,P|155:356|103:349,1,85,2|0,3:2|0:0,0:0:0:0:
144,144,273763,2,0,P|186:152|238:159,1,85,0|0,3:2|0:0,0:0:0:0:
10,344,274163,1,2,3:2:0:0:
175,251,274363,1,2,0:0:0:0:
17,179,274563,2,0,P|11:137|24:97,1,85,10|0,0:0|0:0,0:0:0:0:
322,29,274963,1,2,0:0:0:0:
114,146,275163,1,2,0:0:0:0:
212,0,275363,6,0,P|217:70|226:178,1,170,2|2,3:2|0:0,0:0:0:0:
349,328,275963,1,2,3:2:0:0:
446,293,276163,2,0,P|404:241|282:251,1,170,8|0,0:0|0:0,0:0:0:0:
204,376,276763,1,0,0:0:0:0:
103,296,276963,2,0,P|86:246|90:203,1,85,2|0,0:3|0:0,0:0:0:0:
246,97,277363,2,0,P|289:92|348:86,1,85,2|0,3:0|0:0,0:0:0:0:
115,47,277763,1,8,0:0:0:0:
190,239,277963,1,0,0:0:0:0:
281,0,278163,1,4,0:1:0:0:
159,136,278363,1,2,3:2:0:0:
159,136,278463,1,0,3:2:0:0:
159,136,278563,6,0,P|107:148|19:84,1,170,2|0,3:2|0:0,0:0:0:0:
248,80,279163,1,0,3:0:0:0:
339,124,279363,2,0,P|358:155|361:220,1,85,10|0,0:0|0:0,0:0:0:0:
200,343,279763,1,0,0:0:0:0:
257,186,279963,1,0,0:0:0:0:
390,300,280163,2,0,P|434:304|500:313,1,85,2|0,0:0|0:0,0:0:0:0:
509,80,280563,2,0,P|464:75|399:67,1,85,2|0,3:2|0:0,0:0:0:0:
284,278,280963,1,10,0:0:0:0:
453,177,281163,1,0,0:0:0:0:
363,0,281363,2,0,P|331:47|344:122,1,127.5,2|0,0:0|0:0,0:0:0:0:
347,132,281763,6,0,B|299:105|260:125|266:133|221:155|182:133,1,170,2|0,3:2|0:0,0:0:0:0:
75,79,282363,1,0,3:0:0:0:
184,134,282563,2,0,P|213:191|205:234,1,85,8|0,0:0|0:0,0:0:0:0:
49,257,282963,2,0,P|20:200|28:157,1,85
153,300,283363,2,0,L|144:391,1,85,10|0,3:0|0:0,0:0:0:0:
320,218,283763,2,0,L|311:309,1,85,10|0,3:2|0:0,0:0:0:0:
512,92,284163,1,10,3:2:0:0:
423,271,284363,1,2,0:0:0:0:
314,107,284563,1,6,0:1:0:0:
314,107,284963,6,0,B|272:102|272:102|229:127|229:127|172:120,1,127.5,8|0,3:0|0:0,0:0:0:0:
120,26,285363,6,0,B|136:64|136:64|179:88|179:88|202:141,1,127.5,8|0,3:0|0:0,0:0:0:0:
148,235,285763,6,0,B|172:201|172:201|172:151|172:151|207:105,1,127.5,8|0,3:0|0:0,0:0:0:0:
314,107,286163,5,10,3:0:0:0:
314,107,286563,2,0,L|421:127,1,101.999996887207,10|10,3:0|0:0,0:0:0:0:
77,334,288163,6,0,L|167:317,1,85,2|2,0:3|0:0,0:0:0:0:
240,248,288763,1,2,0:0:0:0:
240,248,288963,2,0,L|323:263,1,85,2|2,0:3|0:0,0:0:0:0:
412,328,289763,2,0,P|358:259|399:185,1,170,2|2,0:3|0:3,0:3:0:0:
388,191,291363,6,0,P|404:161|402:105,1,85,2|2,0:3|0:0,0:0:0:0:
344,30,291963,1,2,0:0:0:0:
344,30,292163,2,0,L|245:42,1,85,2|2,0:3|0:0,0:0:0:0:
0,77,292963,2,0,L|169:93,1,170,2|2,0:3|0:3,0:3:0:0:
169,92,294163,2,0,L|162:145,1,42.5,2|2,0:3|0:0,0:0:0:0:
38,227,294563,6,0,L|49:311,1,85,2|2,0:3|0:0,0:0:0:0:
139,301,295163,1,2,0:0:0:0:
139,301,295363,2,0,L|127:216,1,85,2|2,0:3|0:0,0:0:0:0:
278,60,296163,6,0,P|338:57|372:50,1,85,2|2,0:3|0:0,0:0:0:0:
275,336,296963,2,0,P|335:339|369:346,1,85,2|2,0:3|0:0,0:0:0:0:
504,192,297763,6,0,B|430:137|317:178|364:220|261:268|176:193,1,340,2|2,0:3|0:3,0:0:0:0:
187,202,299763,2,0,L|175:108,2,85,2|2|2,0:3|0:3|0:3,0:3:0:0:
353,212,300963,6,0,L|342:296,1,85,2|2,0:3|0:3,0:3:0:0:
275,384,301563,1,2,0:0:0:0:
275,384,301763,2,0,P|302:350|421:340,1,170,2|2,0:3|0:3,0:0:0:0:
416,120,302963,2,0,P|461:142|506:137,2,85,2|2|2,0:3|0:3|0:0,0:3:0:0:
304,45,304163,6,0,P|261:45|225:65,1,85,2|2,0:3|0:0,0:0:0:0:
150,128,304763,1,2,0:0:0:0:
150,128,304963,2,0,L|48:113,1,85,2|2,0:3|0:3,0:0:0:0:
29,257,305763,2,0,L|205:238,1,170,2|10,0:3|3:3,0:3:0:0:
467,87,307163,1,0,3:0:0:0:
469,76,307263,1,0,3:0:0:0:
471,66,307363,5,8,3:0:0:0:
435,331,307763,1,2,0:0:0:0:
364,256,308163,5,8,3:0:0:0:
348,130,308563,1,2,0:0:0:0:
263,42,308963,5,10,3:0:0:0:
221,342,309363,1,10,3:0:0:0:
140,257,309763,5,10,3:0:0:0:
122,114,310163,1,10,3:0:0:0:
44,201,310363,5,0,3:0:0:0:
44,201,310463,1,0,3:0:0:0:
44,201,310563,2,0,P|23:250|29:290,1,85,10|0,3:2|0:0,0:0:0:0:
250,263,310963,2,0,P|250:220|231:183,1,85,8|8,3:2|3:0,0:0:0:0:
0,82,311363,5,10,3:2:0:0:
140,263,311563,1,10,3:0:0:0:
282,34,311763,5,2,3:0:0:0:
135,122,311963,1,2,3:0:0:0:
422,132,312163,5,10,3:2:0:0:
422,132,312563,2,0,L|406:268,1,127.5,2|0,3:2|0:0,0:0:0:0:
465,325,312963,5,2,0:0:0:0:
429,347,313063,1,2,0:0:0:0:
387,349,313163,1,2,0:0:0:0:
349,331,313263,1,2,0:0:0:0:
324,297,313363,1,2,0:0:0:0:
288,274,313463,1,2,0:0:0:0:
246,272,313563,1,2,0:0:0:0:
208,290,313663,1,2,0:0:0:0:
183,324,313763,6,0,B|226:337|226:337|283:272|234:168,1,187.000005706787,6|0,3:2|0:0,0:0:0:0:
119,63,314363,2,0,P|71:58|12:51,1,93.5000028533936,2|8,3:2|0:0,0:0:0:0:
85,235,314763,1,2,0:0:0:0:
221,117,314963,2,0,P|242:68|232:13,1,93.5000028533936,2|0,0:0|0:0,0:0:0:0:
288,274,315363,2,0,P|334:268|380:263,1,93.5000028533936
512,115,315763,2,0,P|444:110|346:103,1,140.25000428009,0|0,3:0|0:0,0:0:0:0:
345,94,316163,1,10,0:0:0:0:
449,16,316363,1,0,0:0:0:0:
430,199,316563,2,0,P|423:268|416:349,1,140.25000428009,2|0,0:0|0:0,0:0:0:0:
412,366,316963,6,0,P|364:344|302:349,1,93.5000028533936,2|0,3:2|0:0,0:0:0:0:
97,368,317363,1,2,0:0:0:0:
211,220,317563,2,0,P|221:163|227:118,1,93.5000028533936,2|8,3:2|0:0,0:0:0:0:
228,328,317963,1,2,0:0:0:0:
94,186,318163,2,0,P|84:129|78:84,1,93.5000028533936,2|0,0:0|3:0,0:0:0:0:
70,71,318463,1,0,3:0:0:0:
70,71,318563,2,0,P|118:64|197:51,1,93.5000028533936,2|0,3:0|0:0,0:0:0:0:
456,211,318963,2,0,P|372:196|288:185,1,140.25000428009,2|0,3:2|0:0,0:0:0:0:
292,172,319363,1,8,0:0:0:0:
444,324,319563,1,0,0:0:0:0:
500,120,319763,1,6,0:1:0:0:
376,248,319963,1,2,0:0:0:0:
320,76,320163,6,0,P|296:20|232:-12,1,93.5000028533936,2|0,3:2|0:0,0:0:0:0:
396,152,320563,1,2,0:0:0:0:
240,288,320763,2,0,P|188:281|132:276,1,93.5000028533936,2|8,3:2|0:0,0:0:0:0:
284,184,321163,1,0,0:0:0:0:
352,376,321363,2,0,P|403:369|460:364,1,93.5000028533936,2|0,0:0|0:0,0:0:0:0:
77,204,321763,6,0,P|37:268|45:316,1,93.5000028533936,2|0,0:0|0:0,0:0:0:0:
354,270,322163,2,0,P|394:206|386:158,1,93.5000028533936,2|0,3:2|0:0,0:0:0:0:
0,13,322563,5,10,0:0:0:0:
144,280,322763,1,0,0:0:0:0:
286,0,322963,5,2,0:0:0:0:
117,109,323163,1,2,0:0:0:0:
301,194,323363,6,0,P|349:191|401:190,1,93.5000028533936,2|0,3:3|0:0,0:0:0:0:
476,384,323763,1,2,0:3:0:0:
348,288,323963,1,2,3:3:0:0:
476,136,324163,2,0,P|480:84|488:20,1,93.5000028533936,8|0,0:0|0:0,0:0:0:0:
285,214,324563,2,0,P|280:162|273:98,1,93.5000028533936,2|0,0:3|0:0,0:0:0:0:
480,32,324963,2,0,P|469:124|461:218,1,187.000005706787,2|0,0:0|3:0,0:0:0:0:
276,28,325563,1,0,0:0:0:0:
436,112,325763,1,10,0:0:0:0:
285,214,325963,1,2,0:0:0:0:
456,372,326163,2,0,P|408:332|296:356,1,140.25000428009,4|0,0:1|0:0,0:0:0:0:
304,328,326563,6,0,P|248:360|196:352,1,93.5000028533936,2|0,3:2|0:0,0:0:0:0:
64,148,326963,1,0,0:0:0:0:
236,268,327163,1,0,3:0:0:0:
68,368,327363,2,0,P|60:316|40:236,1,93.5000028533936,10|0,0:0|0:0,0:0:0:0:
196,172,327763,2,0,P|202:125|212:80,1,93.5000028533936,2|0,0:0|0:0,0:0:0:0:
32,44,328163,2,0,P|41:89|48:135,1,93.5000028533936,2|0,0:0|0:0,0:0:0:0:
192,284,328563,2,0,P|237:279|275:252,1,93.5000028533936,0|0,3:0|0:0,0:0:0:0:
512,224,328963,2,0,P|464:172|340:188,1,187.000005706787,10|2,0:0|0:0,0:0:0:0:
200,188,329563,1,2,0:0:0:0:
412,272,329763,6,0,P|406:318|402:364,1,93.5000028533936,2|0,3:2|0:0,0:0:0:0:
200,384,330163,1,2,0:0:0:0:
284,292,330363,1,0,3:0:0:0:
116,232,330563,2,0,P|111:185|106:139,1,93.5000028533936,10|0,0:0|0:0,0:0:0:0:
280,104,330963,1,2,0:0:0:0:
212,196,331163,1,0,0:0:0:0:
168,52,331363,2,0,P|116:28|56:40,1,93.5000028533936
324,200,331763,2,0,P|370:199|411:177,1,93.5000028533936,2|0,3:2|0:0,0:0:0:0:
489,44,332163,2,0,P|409:92|429:200,1,187.000005706787,8|6,0:0|0:1,0:0:0:0:
512,280,332763,1,2,0:0:0:0:
320,384,332963,6,0,P|276:377|204:372,1,93.5000028533936,2|0,3:2|0:0,0:0:0:0:
420,336,333363,1,2,0:0:0:0:
252,268,333563,2,0,P|228:220|224:172,1,93.5000028533936,2|8,3:2|0:0,0:0:0:0:
272,0,333963,1,2,0:0:0:0:
332,200,334163,1,2,0:0:0:0:
132,144,334363,1,2,0:0:0:0:
304,96,334563,2,0,B|352:76|404:100|388:112|440:148|512:100,2,187.000005706787,2|0|8,0:3|3:0|0:0,0:0:0:0:
452,28,335563,1,0,0:0:0:0:
336,188,335763,2,0,P|328:256|340:296,1,93.5000028533936,2|2,0:0|0:0,0:0:0:0:
120,360,336163,6,0,P|75:353|8:344,1,93.5000028533936,2|0,3:2|0:0,0:0:0:0:
232,324,336563,1,2,0:0:0:0:
96,252,336763,2,0,P|80:196|92:132,1,93.5000028533936,2|8,3:2|0:0,0:0:0:0:
220,16,337163,1,0,0:0:0:0:
292,112,337363,2,0,P|345:121|404:132,1,93.5000028533936,2|0,0:0|3:0,0:0:0:0:
416,128,337663,1,0,3:0:0:0:
416,128,337763,6,0,P|409:175|403:220,1,93.5000028533936,2|0,3:2|0:0,0:0:0:0:
208,352,338163,2,0,P|218:277|227:206,1,140.25000428009,2|0,3:2|0:0,0:0:0:0:
216,188,338563,1,10,0:0:0:0:
354,308,338763,1,2,0:0:0:0:
354,308,338963,2,0,P|422:317|480:280,1,140.25000428009,6|0,0:1|0:0,0:0:0:0:
479,280,339363,6,0,P|472:328|472:372,1,85,0|2,0:0|0:0,0:0:0:0:
256,192,339863,12,2,345763,0:3:0:0:
