osu file format v14

[General]
AudioFilename: audio.mp3
AudioLeadIn: 0
PreviewTime: 149485
Countdown: 0
SampleSet: None
StackLeniency: 0.7
Mode: 3
LetterboxInBreaks: 0
SpecialStyle: 0
WidescreenStoryboard: 0

[Editor]
Bookmarks: 23485
DistanceSpacing: 1.1
BeatDivisor: 12
GridSize: 4
TimelineZoom: 1.2

[Metadata]
Title:Hz
TitleUnicode:Hz
Artist:Aimer
ArtistUnicode:Aimer
Creator:CelesTaLz
Version:Celestial Light
Source:
Tags:Aimer Hz
BeatmapID:1291210
BeatmapSetID:611719

[Difficulty]
HPDrainRate:8
CircleSize:4
OverallDifficulty:5
ApproachRate:5
SliderMultiplier:1.4
SliderTickRate:1

[Events]
//Background and Video events
0,0,"17799425_1842762675940593_3395525716583099515_n.jpg",0,0
//Break Periods
//Storyboard Layer 0 (Background)
//Storyboard Layer 1 (Fail)
//Storyboard Layer 2 (Pass)
//Storyboard Layer 3 (Foreground)
//Storyboard Sound Samples

[TimingPoints]
7542,437.956204379562,4,3,0,100,1,0
47213,-64.5161290322581,4,3,0,100,0,0
47313,-100,4,3,0,100,0,0
47651,-64.5161290322581,4,3,0,100,0,0
47833,-100,4,3,0,100,0,0
48089,-64.5161290322581,4,3,0,100,0,0
48271,-100,4,3,0,100,0,0
63428,-166.666666666667,4,3,0,100,0,0
64800,-62.5,4,3,0,100,0,0
65133,-100,4,3,0,100,0,1
91264,-50,4,3,0,100,0,1
91848,-100,4,3,0,100,0,1
93162,-100,4,3,0,100,0,0
149658,-200,4,3,0,100,0,0
150096,-62.5,4,3,0,100,0,0
151082,-100,4,3,0,100,0,1
177031,-66.6666666666667,4,3,0,100,0,1
177359,-100,4,3,0,100,0,1
177578,-66.6666666666667,4,3,0,100,0,1
177906,-100,4,3,0,100,0,1
177909,-66.6666666666667,4,3,0,100,0,1
178125,-100,4,3,0,100,0,1
178746,-100,4,3,0,100,0,0
210534,-74.0740740740741,4,3,0,100,0,0
210972,-100,4,3,0,100,0,0
211045,-74.0740740740741,4,3,0,100,0,0
211410,-100,4,3,0,100,0,0
212067,-66.6666666666667,4,3,0,100,0,0
212483,-200,4,3,0,100,0,0
212505,-62.5,4,3,0,100,0,0
214038,-100,4,3,0,100,0,0
217541,-100,4,3,0,100,0,1
239877,-66.6666666666667,4,3,0,100,0,1
240096,-100,4,3,0,100,0,1
240169,-66.6666666666667,4,3,0,100,0,1
240425,-100,4,3,0,100,0,1
240644,-66.6666666666667,4,3,0,100,0,1
240972,-100,4,3,0,100,0,1
241045,-66.6666666666667,4,3,0,100,0,1
241191,-100,4,3,0,100,0,1
241629,-66.6666666666667,4,3,0,100,0,1
241903,-100,4,3,0,100,0,1
247323,-100,4,3,0,100,0,0

[HitObjects]
320,192,7541,128,0,7760:0:0:0:0:
448,192,7541,128,0,7760:0:0:0:0:
64,192,7762,128,0,7981:0:0:0:0:
192,192,7762,128,0,7981:0:0:0:0:
320,192,7981,128,0,8200:0:0:0:0:
448,192,7981,128,0,8200:0:0:0:0:
192,192,8200,128,0,8419:0:0:0:0:
64,192,8200,128,0,8419:0:0:0:0:
64,192,8636,1,0,0:0:0:0:
192,192,8636,1,0,0:0:0:0:
320,192,8636,1,0,0:0:0:0:
448,192,8636,1,0,0:0:0:0:
320,192,8855,128,0,9074:0:0:0:0:
192,192,8855,128,0,9074:0:0:0:0:
448,192,9074,128,0,9293:0:0:0:0:
64,192,9074,128,0,9293:0:0:0:0:
192,192,9293,128,0,9512:0:0:0:0:
320,192,9293,128,0,9512:0:0:0:0:
448,192,9512,128,0,9731:0:0:0:0:
64,192,9512,128,0,9731:0:0:0:0:
448,192,9944,1,0,0:0:0:0:
192,192,9944,1,0,0:0:0:0:
64,192,10169,1,0,0:0:0:0:
320,192,10169,1,0,0:0:0:0:
192,192,10388,1,0,0:0:0:0:
448,192,10388,1,0,0:0:0:0:
64,192,10607,1,0,0:0:0:0:
192,192,10607,1,0,0:0:0:0:
64,192,10826,1,0,0:0:0:0:
192,192,10826,1,0,0:0:0:0:
448,192,11045,128,0,11264:0:0:0:0:
320,192,11264,128,0,11483:0:0:0:0:
192,192,11483,128,0,11702:0:0:0:0:
64,192,11702,128,0,11921:0:0:0:0:
320,192,11921,1,0,0:0:0:0:
64,192,12140,1,0,0:0:0:0:
448,192,12140,1,0,0:0:0:0:
64,192,12359,128,0,12578:0:0:0:0:
192,192,12578,128,0,12797:0:0:0:0:
320,192,12797,128,0,13016:0:0:0:0:
448,192,13016,128,0,13454:0:0:0:0:
192,192,13454,1,0,0:0:0:0:
320,192,13673,1,0,0:0:0:0:
192,192,13673,1,0,0:0:0:0:
64,192,13892,1,0,0:0:0:0:
448,192,13892,1,0,0:0:0:0:
192,192,14111,1,0,0:0:0:0:
320,192,14111,1,0,0:0:0:0:
192,192,14330,1,0,0:0:0:0:
320,192,14330,1,0,0:0:0:0:
64,192,14549,128,0,14768:0:0:0:0:
192,192,14549,128,0,14768:0:0:0:0:
448,192,14768,128,0,14987:0:0:0:0:
320,192,14768,1,0,0:0:0:0:
320,192,14987,128,0,15206:0:0:0:0:
192,192,14987,128,0,15206:0:0:0:0:
64,192,14987,1,0,0:0:0:0:
448,192,15206,128,0,15425:0:0:0:0:
64,192,15206,128,0,15425:0:0:0:0:
64,192,15602,1,0,0:0:0:0:
448,192,15602,1,0,0:0:0:0:
192,192,15863,128,0,16082:0:0:0:0:
448,192,15863,128,0,16082:0:0:0:0:
64,192,16082,1,0,0:0:0:0:
320,192,16082,128,0,16301:0:0:0:0:
448,192,16301,128,0,16520:0:0:0:0:
64,192,16301,128,0,16520:0:0:0:0:
192,192,16301,128,0,16520:0:0:0:0:
320,192,16520,128,0,16739:0:0:0:0:
64,192,16739,1,0,0:0:0:0:
448,192,16739,1,0,0:0:0:0:
192,192,16958,1,0,0:0:0:0:
448,192,16958,1,0,0:0:0:0:
192,192,17177,1,0,0:0:0:0:
320,192,17177,1,0,0:0:0:0:
64,192,17396,1,0,0:0:0:0:
448,192,17396,1,0,0:0:0:0:
192,192,17614,1,0,0:0:0:0:
320,192,17614,1,0,0:0:0:0:
192,192,17833,1,0,0:0:0:0:
320,192,17833,1,0,0:0:0:0:
64,192,18052,128,0,18928:0:0:0:0:
320,192,18271,128,0,18928:0:0:0:0:
192,192,18490,128,0,18928:0:0:0:0:
448,192,18709,128,0,18928:0:0:0:0:
192,192,19147,1,0,0:0:0:0:
320,192,19147,1,0,0:0:0:0:
192,192,19366,128,0,20242:0:0:0:0:
448,192,19622,128,0,20242:0:0:0:0:
64,192,19841,128,0,20242:0:0:0:0:
320,192,20023,128,0,20242:0:0:0:0:
448,192,20461,1,0,0:0:0:0:
64,192,20461,1,0,0:0:0:0:
192,192,20680,1,0,0:0:0:0:
320,192,20680,1,0,0:0:0:0:
448,192,20899,1,0,0:0:0:0:
64,192,20899,1,0,0:0:0:0:
448,192,21118,1,0,0:0:0:0:
64,192,21118,1,0,0:0:0:0:
64,192,21337,128,0,21775:0:0:0:0:
448,192,21337,1,0,0:0:0:0:
320,192,21556,1,0,0:0:0:0:
192,192,21775,1,0,0:0:0:0:
320,192,21775,128,0,22213:0:0:0:0:
64,192,21994,1,0,0:0:0:0:
192,192,22213,1,0,0:0:0:0:
448,192,22213,1,0,0:0:0:0:
64,192,22213,128,0,22651:0:0:0:0:
320,192,22432,1,0,0:0:0:0:
192,192,22651,1,0,0:0:0:0:
448,192,22651,1,0,0:0:0:0:
320,192,22651,128,0,22870:0:0:0:0:
448,192,22870,1,0,0:0:0:0:
192,192,22870,1,0,0:0:0:0:
320,192,23089,128,0,23308:0:0:0:0:
64,192,23089,128,0,23527:0:0:0:0:
448,192,23089,1,0,0:0:0:0:
192,192,23308,1,0,0:0:0:0:
448,192,23308,128,0,23527:0:0:0:0:
320,192,23527,1,0,0:0:0:0:
192,192,23527,128,0,23965:0:0:0:0:
448,192,23746,1,0,0:0:0:0:
64,192,23965,1,0,0:0:0:0:
320,192,23965,1,0,0:0:0:0:
448,192,23965,128,0,24403:0:0:0:0:
192,192,24184,1,0,0:0:0:0:
64,192,24403,128,0,24841:0:0:0:0:
320,192,24403,1,0,0:0:0:0:
448,192,24622,1,0,0:0:0:0:
192,192,24841,128,0,25060:0:0:0:0:
320,192,24841,128,0,25060:0:0:0:0:
448,192,24841,1,0,0:0:0:0:
448,192,25060,1,0,0:0:0:0:
64,192,25060,1,0,0:0:0:0:
448,192,25279,1,0,0:0:0:0:
64,192,25279,1,0,0:0:0:0:
448,192,25498,1,0,0:0:0:0:
64,192,25498,1,0,0:0:0:0:
448,192,25717,1,0,0:0:0:0:
64,192,25717,1,0,0:0:0:0:
320,192,25936,1,0,0:0:0:0:
64,192,26155,1,0,0:0:0:0:
192,192,26155,1,0,0:0:0:0:
320,192,26155,1,0,0:0:0:0:
448,192,26155,1,0,0:0:0:0:
320,192,26374,1,0,0:0:0:0:
192,192,26374,1,0,0:0:0:0:
320,192,26593,1,0,0:0:0:0:
192,192,26593,1,0,0:0:0:0:
320,192,26812,1,0,0:0:0:0:
192,192,26812,1,0,0:0:0:0:
448,192,27031,1,0,0:0:0:0:
320,192,27031,1,0,0:0:0:0:
192,192,27031,1,0,0:0:0:0:
64,192,27031,1,0,0:0:0:0:
192,192,27250,1,0,0:0:0:0:
448,192,27469,1,0,0:0:0:0:
64,192,27469,1,0,0:0:0:0:
192,192,27687,1,0,0:0:0:0:
320,192,27687,1,0,0:0:0:0:
64,192,27906,1,0,0:0:0:0:
448,192,27906,1,0,0:0:0:0:
320,192,28125,1,0,0:0:0:0:
192,192,28125,1,0,0:0:0:0:
64,192,28344,128,0,30096:0:0:0:0:
320,192,28782,1,0,0:0:0:0:
448,192,28782,1,0,0:0:0:0:
192,192,29001,1,0,0:0:0:0:
320,192,29220,1,0,0:0:0:0:
448,192,29220,1,0,0:0:0:0:
192,192,29439,1,0,0:0:0:0:
320,192,29659,1,0,0:0:0:0:
448,192,29659,1,0,0:0:0:0:
192,192,29877,1,0,0:0:0:0:
448,192,30096,128,0,31848:0:0:0:0:
64,192,30315,1,0,0:0:0:0:
192,192,30315,1,0,0:0:0:0:
192,192,30534,1,0,0:0:0:0:
320,192,30534,1,0,0:0:0:0:
64,192,30753,1,0,0:0:0:0:
192,192,30972,1,0,0:0:0:0:
64,192,31191,1,0,0:0:0:0:
320,192,31191,1,0,0:0:0:0:
192,192,31410,1,0,0:0:0:0:
64,192,31410,1,0,0:0:0:0:
320,192,31629,1,0,0:0:0:0:
320,192,31848,1,0,0:0:0:0:
192,192,31848,1,0,0:0:0:0:
64,192,31848,1,0,0:0:0:0:
448,192,32067,128,0,32286:0:0:0:0:
64,192,32286,128,0,32505:0:0:0:0:
320,192,32505,128,0,32724:0:0:0:0:
192,192,32724,128,0,32943:0:0:0:0:
448,192,33162,1,0,0:0:0:0:
320,192,33162,1,0,0:0:0:0:
192,192,33162,1,0,0:0:0:0:
64,192,33162,1,0,0:0:0:0:
64,192,33381,128,0,33600:0:0:0:0:
320,192,33600,128,0,33819:0:0:0:0:
192,192,33819,128,0,34038:0:0:0:0:
448,192,34038,128,0,34257:0:0:0:0:
64,192,34257,1,0,0:0:0:0:
192,192,34257,1,0,0:0:0:0:
320,192,34366,1,0,0:0:0:0:
192,192,34476,1,0,0:0:0:0:
448,192,34476,1,0,0:0:0:0:
64,192,34549,1,0,0:0:0:0:
320,192,34622,1,0,0:0:0:0:
192,192,34695,1,0,0:0:0:0:
320,192,34768,1,0,0:0:0:0:
448,192,34768,1,0,0:0:0:0:
64,192,34841,1,0,0:0:0:0:
192,192,34841,1,0,0:0:0:0:
320,192,34914,1,0,0:0:0:0:
448,192,35023,1,0,0:0:0:0:
64,192,35023,1,0,0:0:0:0:
192,192,35133,1,0,0:0:0:0:
320,192,35133,128,0,36009:0:0:0:0:
192,192,35352,128,0,36009:0:0:0:0:
64,192,35352,1,0,0:0:0:0:
448,192,35352,1,0,0:0:0:0:
64,192,35571,1,0,0:0:0:0:
448,192,35571,1,0,0:0:0:0:
448,192,35790,1,0,0:0:0:0:
64,192,35790,1,0,0:0:0:0:
64,192,36009,128,0,36775:0:0:0:0:
448,192,36009,1,0,0:0:0:0:
448,192,36228,128,0,36447:0:0:0:0:
192,192,36447,1,0,0:0:0:0:
192,192,36666,1,0,0:0:0:0:
448,192,36666,1,0,0:0:0:0:
320,192,36775,128,0,37760:0:0:0:0:
64,192,37104,1,0,0:0:0:0:
448,192,37104,1,0,0:0:0:0:
192,192,37323,1,0,0:0:0:0:
448,192,37323,1,0,0:0:0:0:
448,192,37541,1,0,0:0:0:0:
64,192,37541,1,0,0:0:0:0:
192,192,37760,128,0,38417:0:0:0:0:
64,192,37760,1,0,0:0:0:0:
448,192,37760,1,0,0:0:0:0:
320,192,37979,1,0,0:0:0:0:
64,192,37979,1,0,0:0:0:0:
320,192,38198,1,0,0:0:0:0:
448,192,38198,1,0,0:0:0:0:
448,192,38417,1,0,0:0:0:0:
64,192,38417,1,0,0:0:0:0:
64,192,38636,128,0,39512:0:0:0:0:
448,192,38636,1,0,0:0:0:0:
192,192,38855,1,0,0:0:0:0:
320,192,38855,1,0,0:0:0:0:
320,192,39074,1,0,0:0:0:0:
448,192,39074,1,0,0:0:0:0:
192,192,39293,1,0,0:0:0:0:
320,192,39293,1,0,0:0:0:0:
320,192,39512,1,0,0:0:0:0:
448,192,39512,128,0,40388:0:0:0:0:
192,192,39731,1,0,0:0:0:0:
64,192,39731,1,0,0:0:0:0:
192,192,39950,1,0,0:0:0:0:
320,192,39950,1,0,0:0:0:0:
64,192,40169,1,0,0:0:0:0:
192,192,40169,1,0,0:0:0:0:
320,192,40388,128,0,41264:0:0:0:0:
192,192,40388,128,0,41264:0:0:0:0:
64,192,40607,1,0,0:0:0:0:
448,192,40607,1,0,0:0:0:0:
448,192,40826,1,0,0:0:0:0:
64,192,40826,1,0,0:0:0:0:
64,192,41045,1,0,0:0:0:0:
448,192,41045,1,0,0:0:0:0:
448,192,41264,128,0,41921:0:0:0:0:
64,192,41264,128,0,41921:0:0:0:0:
192,192,41483,1,0,0:0:0:0:
320,192,41483,1,0,0:0:0:0:
192,192,41702,1,0,0:0:0:0:
320,192,41702,1,0,0:0:0:0:
192,192,41921,1,0,0:0:0:0:
320,192,41921,1,0,0:0:0:0:
448,192,42140,128,0,43016:0:0:0:0:
192,192,42140,128,0,43016:0:0:0:0:
320,192,42359,1,0,0:0:0:0:
64,192,42578,1,0,0:0:0:0:
320,192,42797,1,0,0:0:0:0:
320,192,43016,128,0,43892:0:0:0:0:
64,192,43016,128,0,43892:0:0:0:0:
448,192,43235,1,0,0:0:0:0:
192,192,43454,1,0,0:0:0:0:
448,192,43673,1,0,0:0:0:0:
448,192,43892,128,0,44768:0:0:0:0:
192,192,43892,128,0,44768:0:0:0:0:
320,192,44111,1,0,0:0:0:0:
64,192,44111,1,0,0:0:0:0:
320,192,44330,1,0,0:0:0:0:
64,192,44330,1,0,0:0:0:0:
64,192,44549,1,0,0:0:0:0:
320,192,44768,128,0,45644:0:0:0:0:
64,192,44768,128,0,45644:0:0:0:0:
192,192,44987,1,0,0:0:0:0:
448,192,45206,1,0,0:0:0:0:
192,192,45425,1,0,0:0:0:0:
448,192,45425,1,0,0:0:0:0:
192,192,45644,128,0,47177:0:0:0:0:
448,192,45863,1,0,0:0:0:0:
320,192,46082,1,0,0:0:0:0:
448,192,46301,1,0,0:0:0:0:
64,192,46301,1,0,0:0:0:0:
320,192,46520,1,0,0:0:0:0:
320,192,46739,1,0,0:0:0:0:
64,192,46739,1,0,0:0:0:0:
320,192,46958,1,0,0:0:0:0:
448,192,46958,1,0,0:0:0:0:
448,192,47177,1,0,0:0:0:0:
64,192,47177,1,0,0:0:0:0:
320,192,47396,128,0,47614:0:0:0:0:
192,192,47396,128,0,47614:0:0:0:0:
192,192,47833,128,0,48052:0:0:0:0:
320,192,47833,128,0,48052:0:0:0:0:
64,192,48271,128,0,48490:0:0:0:0:
448,192,48271,128,0,48490:0:0:0:0:
192,192,48490,128,0,48819:0:0:0:0:
320,192,48600,1,0,0:0:0:0:
448,192,48709,1,0,0:0:0:0:
320,192,48819,1,0,0:0:0:0:
192,192,48928,1,0,0:0:0:0:
64,192,49001,1,0,0:0:0:0:
192,192,49074,1,0,0:0:0:0:
320,192,49147,1,0,0:0:0:0:
448,192,49220,1,0,0:0:0:0:
320,192,49330,1,0,0:0:0:0:
192,192,49330,128,0,50023:0:0:0:0:
64,192,49330,128,0,50023:0:0:0:0:
448,192,49585,1,0,0:0:0:0:
320,192,49804,1,0,0:0:0:0:
448,192,50023,1,0,0:0:0:0:
448,192,50242,128,0,50899:0:0:0:0:
64,192,50242,128,0,50899:0:0:0:0:
192,192,50461,1,0,0:0:0:0:
320,192,50461,1,0,0:0:0:0:
320,192,50680,1,0,0:0:0:0:
192,192,50680,1,0,0:0:0:0:
192,192,50899,128,0,51775:0:0:0:0:
320,192,50899,128,0,51775:0:0:0:0:
448,192,51118,1,0,0:0:0:0:
64,192,51118,1,0,0:0:0:0:
448,192,51337,1,0,0:0:0:0:
64,192,51337,1,0,0:0:0:0:
448,192,51556,1,0,0:0:0:0:
64,192,51556,1,0,0:0:0:0:
448,192,51775,128,0,52432:0:0:0:0:
64,192,51775,128,0,52432:0:0:0:0:
192,192,51994,1,0,0:0:0:0:
320,192,51994,1,0,0:0:0:0:
192,192,52213,1,0,0:0:0:0:
320,192,52213,1,0,0:0:0:0:
192,192,52432,1,0,0:0:0:0:
320,192,52432,1,0,0:0:0:0:
192,192,52630,1,0,0:0:0:0:
448,192,52630,1,0,0:0:0:0:
320,192,52870,128,0,53527:0:0:0:0:
64,192,52870,1,0,0:0:0:0:
448,192,52870,1,0,0:0:0:0:
192,192,53089,1,0,0:0:0:0:
448,192,53089,1,0,0:0:0:0:
448,192,53308,1,0,0:0:0:0:
64,192,53308,1,0,0:0:0:0:
192,192,53527,128,0,54403:0:0:0:0:
320,192,53746,1,0,0:0:0:0:
64,192,53746,1,0,0:0:0:0:
320,192,53965,1,0,0:0:0:0:
64,192,53965,1,0,0:0:0:0:
448,192,54184,1,0,0:0:0:0:
64,192,54184,1,0,0:0:0:0:
320,192,54403,128,0,55279:0:0:0:0:
192,192,54622,1,0,0:0:0:0:
448,192,54622,1,0,0:0:0:0:
192,192,54841,1,0,0:0:0:0:
448,192,54841,1,0,0:0:0:0:
64,192,55060,1,0,0:0:0:0:
448,192,55060,1,0,0:0:0:0:
448,192,55279,128,0,55717:0:0:0:0:
64,192,55279,128,0,55717:0:0:0:0:
320,192,55498,128,0,55717:0:0:0:0:
192,192,55498,128,0,55717:0:0:0:0:
192,192,55936,1,0,0:0:0:0:
448,192,56045,1,0,0:0:0:0:
64,192,56155,1,0,0:0:0:0:
448,192,56264,1,0,0:0:0:0:
320,192,56374,1,0,0:0:0:0:
192,192,56374,1,0,0:0:0:0:
192,192,56593,1,0,0:0:0:0:
320,192,56593,1,0,0:0:0:0:
64,192,56812,1,0,0:0:0:0:
448,192,56812,1,0,0:0:0:0:
192,192,57031,1,0,0:0:0:0:
64,192,57250,1,0,0:0:0:0:
448,192,57250,1,0,0:0:0:0:
320,192,57469,1,0,0:0:0:0:
448,192,57687,1,0,0:0:0:0:
64,192,57687,1,0,0:0:0:0:
192,192,57906,1,0,0:0:0:0:
448,192,58125,1,0,0:0:0:0:
320,192,58125,1,0,0:0:0:0:
64,192,58125,1,0,0:0:0:0:
192,192,58125,1,0,0:0:0:0:
320,192,58344,1,0,0:0:0:0:
64,192,58563,1,0,0:0:0:0:
192,192,58563,1,0,0:0:0:0:
320,192,58563,1,0,0:0:0:0:
448,192,58563,1,0,0:0:0:0:
192,192,58782,1,0,0:0:0:0:
448,192,59001,1,0,0:0:0:0:
320,192,59001,1,0,0:0:0:0:
64,192,59001,1,0,0:0:0:0:
192,192,59001,1,0,0:0:0:0:
64,192,59220,1,0,0:0:0:0:
448,192,59220,1,0,0:0:0:0:
320,192,59439,1,0,0:0:0:0:
192,192,59439,1,0,0:0:0:0:
448,192,59658,1,0,0:0:0:0:
64,192,59658,1,0,0:0:0:0:
448,192,59877,1,0,0:0:0:0:
320,192,59877,1,0,0:0:0:0:
192,192,59877,1,0,0:0:0:0:
64,192,59877,1,0,0:0:0:0:
320,192,60096,1,0,0:0:0:0:
64,192,60315,1,0,0:0:0:0:
192,192,60315,1,0,0:0:0:0:
320,192,60315,1,0,0:0:0:0:
448,192,60315,1,0,0:0:0:0:
192,192,60534,1,0,0:0:0:0:
448,192,60753,1,0,0:0:0:0:
320,192,60753,1,0,0:0:0:0:
192,192,60753,1,0,0:0:0:0:
64,192,60753,1,0,0:0:0:0:
64,192,60972,1,0,0:0:0:0:
192,192,60972,1,0,0:0:0:0:
320,192,61191,1,0,0:0:0:0:
448,192,61191,1,0,0:0:0:0:
192,192,61410,1,0,0:0:0:0:
64,192,61410,1,0,0:0:0:0:
320,192,61629,1,0,0:0:0:0:
448,192,61848,1,0,0:0:0:0:
64,192,61848,1,0,0:0:0:0:
192,192,62067,1,0,0:0:0:0:
320,192,62067,1,0,0:0:0:0:
64,192,62250,1,0,0:0:0:0:
448,192,62286,1,0,0:0:0:0:
320,192,62396,1,0,0:0:0:0:
192,192,62505,1,0,0:0:0:0:
64,192,62614,1,0,0:0:0:0:
192,192,62724,1,0,0:0:0:0:
320,192,62830,1,0,0:0:0:0:
448,192,62943,1,0,0:0:0:0:
320,192,63052,1,0,0:0:0:0:
192,192,63162,1,0,0:0:0:0:
320,192,63271,1,0,0:0:0:0:
448,192,63381,1,0,0:0:0:0:
192,192,63381,1,0,0:0:0:0:
64,192,63381,1,0,0:0:0:0:
448,192,65133,1,0,0:0:0:0:
320,192,65133,1,0,0:0:0:0:
192,192,65133,1,0,0:0:0:0:
64,192,65133,1,0,0:0:0:0:
320,192,65571,1,0,0:0:0:0:
448,192,65571,1,0,0:0:0:0:
192,192,65790,1,0,0:0:0:0:
64,192,65790,1,0,0:0:0:0:
448,192,65899,1,0,0:0:0:0:
192,192,66009,1,0,0:0:0:0:
320,192,66118,1,0,0:0:0:0:
448,192,66118,1,0,0:0:0:0:
192,192,66228,1,0,0:0:0:0:
64,192,66228,1,0,0:0:0:0:
320,192,66447,1,0,0:0:0:0:
448,192,66447,1,0,0:0:0:0:
64,192,66447,1,0,0:0:0:0:
64,192,66666,1,0,0:0:0:0:
192,192,66666,1,0,0:0:0:0:
448,192,66885,1,0,0:0:0:0:
192,192,66994,1,0,0:0:0:0:
64,192,67104,1,0,0:0:0:0:
448,192,67104,1,0,0:0:0:0:
448,192,67323,1,0,0:0:0:0:
64,192,67432,1,0,0:0:0:0:
448,192,67541,1,0,0:0:0:0:
64,192,67651,1,0,0:0:0:0:
320,192,67759,1,0,0:0:0:0:
192,192,67870,1,0,0:0:0:0:
448,192,67979,1,0,0:0:0:0:
64,192,67979,1,0,0:0:0:0:
320,192,68089,1,0,0:0:0:0:
192,192,68198,128,0,68527:0:0:0:0:
448,192,68198,128,0,68527:0:0:0:0:
64,192,68636,128,0,70826:0:0:0:0:
320,192,68636,1,0,0:0:0:0:
192,192,68855,1,0,0:0:0:0:
320,192,69074,1,0,0:0:0:0:
448,192,69074,1,0,0:0:0:0:
192,192,69293,1,0,0:0:0:0:
320,192,69512,1,0,0:0:0:0:
448,192,69512,1,0,0:0:0:0:
192,192,69622,1,0,0:0:0:0:
320,192,69730,1,0,0:0:0:0:
448,192,69731,1,0,0:0:0:0:
448,192,69950,1,0,0:0:0:0:
192,192,69950,1,0,0:0:0:0:
192,192,70388,1,0,0:0:0:0:
448,192,70388,1,0,0:0:0:0:
320,192,70607,1,0,0:0:0:0:
192,192,70826,1,0,0:0:0:0:
448,192,70826,1,0,0:0:0:0:
448,192,71045,128,0,71264:0:0:0:0:
320,192,71045,1,0,0:0:0:0:
64,192,71045,1,0,0:0:0:0:
192,192,71155,1,0,0:0:0:0:
320,192,71264,128,0,71702:0:0:0:0:
64,192,71264,1,0,0:0:0:0:
192,192,71374,1,0,0:0:0:0:
64,192,71483,1,0,0:0:0:0:
448,192,71483,1,0,0:0:0:0:
192,192,71702,1,0,0:0:0:0:
448,192,71702,1,0,0:0:0:0:
192,192,71921,1,0,0:0:0:0:
320,192,72031,1,0,0:0:0:0:
448,192,72140,1,0,0:0:0:0:
64,192,72140,1,0,0:0:0:0:
192,192,72359,1,0,0:0:0:0:
320,192,72359,1,0,0:0:0:0:
448,192,72578,1,0,0:0:0:0:
64,192,72578,1,0,0:0:0:0:
192,192,72797,1,0,0:0:0:0:
64,192,72906,1,0,0:0:0:0:
320,192,73016,1,0,0:0:0:0:
192,192,73125,1,0,0:0:0:0:
320,192,73235,1,0,0:0:0:0:
448,192,73235,128,0,73673:0:0:0:0:
192,192,73344,1,0,0:0:0:0:
64,192,73454,1,0,0:0:0:0:
320,192,73454,1,0,0:0:0:0:
64,192,73673,128,0,74111:0:0:0:0:
320,192,73782,1,0,0:0:0:0:
192,192,73892,1,0,0:0:0:0:
448,192,73892,1,0,0:0:0:0:
448,192,74111,128,0,74330:0:0:0:0:
320,192,74330,1,0,0:0:0:0:
64,192,74330,1,0,0:0:0:0:
192,192,74330,128,0,74549:0:0:0:0:
448,192,74549,1,0,0:0:0:0:
320,192,74549,128,0,74768:0:0:0:0:
64,192,74768,128,0,75206:0:0:0:0:
448,192,74877,1,0,0:0:0:0:
192,192,74987,1,0,0:0:0:0:
320,192,75206,1,0,0:0:0:0:
448,192,75206,1,0,0:0:0:0:
192,192,75425,1,0,0:0:0:0:
320,192,75644,1,0,0:0:0:0:
448,192,75644,1,0,0:0:0:0:
64,192,75644,1,0,0:0:0:0:
320,192,75863,1,0,0:0:0:0:
448,192,76082,1,0,0:0:0:0:
192,192,76082,1,0,0:0:0:0:
64,192,76082,1,0,0:0:0:0:
192,192,76301,1,0,0:0:0:0:
320,192,76520,1,0,0:0:0:0:
448,192,76520,1,0,0:0:0:0:
192,192,76630,1,0,0:0:0:0:
64,192,76630,1,0,0:0:0:0:
320,192,76739,1,0,0:0:0:0:
448,192,76739,1,0,0:0:0:0:
192,192,76848,1,0,0:0:0:0:
64,192,76848,1,0,0:0:0:0:
448,192,76958,1,0,0:0:0:0:
320,192,77067,1,0,0:0:0:0:
192,192,77177,1,0,0:0:0:0:
320,192,77286,1,0,0:0:0:0:
448,192,77396,1,0,0:0:0:0:
64,192,77396,1,0,0:0:0:0:
192,192,77614,1,0,0:0:0:0:
320,192,77614,1,0,0:0:0:0:
448,192,77833,1,0,0:0:0:0:
320,192,77833,1,0,0:0:0:0:
192,192,77833,1,0,0:0:0:0:
64,192,77833,1,0,0:0:0:0:
320,192,78052,1,0,0:0:0:0:
448,192,78052,1,0,0:0:0:0:
192,192,78162,1,0,0:0:0:0:
64,192,78162,1,0,0:0:0:0:
320,192,78271,1,0,0:0:0:0:
448,192,78271,1,0,0:0:0:0:
192,192,78381,1,0,0:0:0:0:
64,192,78490,1,0,0:0:0:0:
192,192,78600,1,0,0:0:0:0:
64,192,78709,1,0,0:0:0:0:
192,192,78819,1,0,0:0:0:0:
320,192,78928,1,0,0:0:0:0:
448,192,78928,1,0,0:0:0:0:
192,192,79038,1,0,0:0:0:0:
448,192,79147,1,0,0:0:0:0:
64,192,79147,1,0,0:0:0:0:
320,192,79366,1,0,0:0:0:0:
192,192,79585,1,0,0:0:0:0:
320,192,79585,1,0,0:0:0:0:
448,192,79804,128,0,80461:0:0:0:0:
64,192,79804,128,0,80461:0:0:0:0:
320,192,79914,1,0,0:0:0:0:
192,192,80023,1,0,0:0:0:0:
320,192,80133,1,0,0:0:0:0:
192,192,80242,1,0,0:0:0:0:
192,192,80459,1,0,0:0:0:0:
320,192,80459,1,0,0:0:0:0:
448,192,80680,1,0,0:0:0:0:
64,192,80680,1,0,0:0:0:0:
448,192,80899,1,0,0:0:0:0:
64,192,80899,1,0,0:0:0:0:
320,192,81118,1,0,0:0:0:0:
192,192,81337,1,0,0:0:0:0:
448,192,81337,1,0,0:0:0:0:
64,192,81556,1,0,0:0:0:0:
192,192,81775,1,0,0:0:0:0:
448,192,81885,1,0,0:0:0:0:
320,192,81994,1,0,0:0:0:0:
192,192,82104,1,0,0:0:0:0:
448,192,82213,1,0,0:0:0:0:
64,192,82213,1,0,0:0:0:0:
448,192,82651,1,0,0:0:0:0:
64,192,82651,1,0,0:0:0:0:
320,192,82870,1,0,0:0:0:0:
448,192,82870,1,0,0:0:0:0:
64,192,83089,1,0,0:0:0:0:
192,192,83089,1,0,0:0:0:0:
320,192,83308,1,0,0:0:0:0:
448,192,83308,1,0,0:0:0:0:
192,192,83417,1,0,0:0:0:0:
448,192,83527,1,0,0:0:0:0:
64,192,83527,1,0,0:0:0:0:
320,192,83636,1,0,0:0:0:0:
192,192,83636,1,0,0:0:0:0:
448,192,83746,1,0,0:0:0:0:
64,192,83746,1,0,0:0:0:0:
448,192,83965,1,0,0:0:0:0:
320,192,83965,1,0,0:0:0:0:
64,192,83965,1,0,0:0:0:0:
192,192,83965,1,0,0:0:0:0:
192,192,84184,1,0,0:0:0:0:
64,192,84293,1,0,0:0:0:0:
192,192,84403,1,0,0:0:0:0:
448,192,84512,1,0,0:0:0:0:
320,192,84622,1,0,0:0:0:0:
64,192,84622,1,0,0:0:0:0:
448,192,84841,1,0,0:0:0:0:
64,192,84841,1,0,0:0:0:0:
192,192,85060,1,0,0:0:0:0:
320,192,85060,1,0,0:0:0:0:
448,192,85169,1,0,0:0:0:0:
64,192,85169,1,0,0:0:0:0:
320,192,85279,1,0,0:0:0:0:
192,192,85279,1,0,0:0:0:0:
448,192,85388,1,0,0:0:0:0:
64,192,85388,1,0,0:0:0:0:
320,192,85498,1,0,0:0:0:0:
448,192,85607,1,0,0:0:0:0:
64,192,85607,1,0,0:0:0:0:
192,192,85717,1,0,0:0:0:0:
320,192,85717,1,0,0:0:0:0:
192,192,85936,128,0,86374:0:0:0:0:
64,192,85936,128,0,86374:0:0:0:0:
448,192,86374,1,0,0:0:0:0:
320,192,86593,1,0,0:0:0:0:
448,192,86593,1,0,0:0:0:0:
192,192,86812,128,0,87031:0:0:0:0:
64,192,86812,128,0,87031:0:0:0:0:
448,192,87031,1,0,0:0:0:0:
320,192,87140,1,0,0:0:0:0:
192,192,87250,1,0,0:0:0:0:
64,192,87250,1,0,0:0:0:0:
448,192,87250,1,0,0:0:0:0:
192,192,87469,1,0,0:0:0:0:
320,192,87469,1,0,0:0:0:0:
448,192,87687,1,0,0:0:0:0:
192,192,87687,1,0,0:0:0:0:
64,192,87687,1,0,0:0:0:0:
192,192,87906,128,0,88125:0:0:0:0:
448,192,88125,1,0,0:0:0:0:
64,192,88125,1,0,0:0:0:0:
448,192,88344,1,0,0:0:0:0:
64,192,88344,1,0,0:0:0:0:
448,192,88563,1,0,0:0:0:0:
192,192,88563,1,0,0:0:0:0:
64,192,88563,1,0,0:0:0:0:
320,192,88782,1,0,0:0:0:0:
192,192,88782,1,0,0:0:0:0:
448,192,89001,1,0,0:0:0:0:
320,192,89001,1,0,0:0:0:0:
64,192,89001,1,0,0:0:0:0:
192,192,89111,1,0,0:0:0:0:
320,192,89220,1,0,0:0:0:0:
448,192,89330,1,0,0:0:0:0:
320,192,89439,1,0,0:0:0:0:
448,192,89549,1,0,0:0:0:0:
192,192,89658,128,0,90534:0:0:0:0:
64,192,89658,128,0,90534:0:0:0:0:
448,192,90096,1,0,0:0:0:0:
320,192,90315,128,0,90534:0:0:0:0:
448,192,90863,128,0,91191:0:0:0:0:
320,192,90863,128,0,91191:0:0:0:0:
192,192,91848,128,0,92286:0:0:0:0:
64,192,91848,128,0,92286:0:0:0:0:
448,192,92286,1,0,0:0:0:0:
320,192,92505,1,0,0:0:0:0:
448,192,92505,1,0,0:0:0:0:
192,192,92724,1,0,0:0:0:0:
64,192,92724,1,0,0:0:0:0:
320,192,92943,1,0,0:0:0:0:
448,192,92943,1,0,0:0:0:0:
448,192,93162,1,0,0:0:0:0:
320,192,93162,1,0,0:0:0:0:
192,192,93162,1,0,0:0:0:0:
64,192,93162,1,0,0:0:0:0:
192,192,93381,1,0,0:0:0:0:
64,192,93381,1,0,0:0:0:0:
320,192,93600,1,0,0:0:0:0:
448,192,93600,1,0,0:0:0:0:
64,192,93819,1,0,0:0:0:0:
192,192,93819,1,0,0:0:0:0:
448,192,94038,128,0,94476:0:0:0:0:
320,192,94038,128,0,94476:0:0:0:0:
64,192,94476,1,0,0:0:0:0:
192,192,94695,1,0,0:0:0:0:
64,192,94695,1,0,0:0:0:0:
320,192,94914,1,0,0:0:0:0:
448,192,94914,1,0,0:0:0:0:
192,192,95133,1,0,0:0:0:0:
64,192,95133,1,0,0:0:0:0:
192,192,95352,128,0,96009:0:0:0:0:
320,192,95352,128,0,96009:0:0:0:0:
448,192,96228,1,0,0:0:0:0:
64,192,96228,1,0,0:0:0:0:
192,192,96447,1,0,0:0:0:0:
448,192,96666,1,0,0:0:0:0:
64,192,96666,1,0,0:0:0:0:
448,192,96885,128,0,97067:0:0:0:0:
192,192,96885,128,0,97067:0:0:0:0:
64,192,96885,128,0,97067:0:0:0:0:
320,192,97104,128,0,97286:0:0:0:0:
192,192,97104,128,0,97286:0:0:0:0:
64,192,97104,128,0,97286:0:0:0:0:
448,192,97323,128,0,97505:0:0:0:0:
192,192,97323,128,0,97505:0:0:0:0:
64,192,97323,128,0,97505:0:0:0:0:
448,192,97541,128,0,97760:0:0:0:0:
320,192,97541,128,0,97760:0:0:0:0:
192,192,97541,128,0,97760:0:0:0:0:
448,192,97979,1,0,0:0:0:0:
64,192,97979,1,0,0:0:0:0:
448,192,98198,128,0,98417:0:0:0:0:
320,192,98417,128,0,98636:0:0:0:0:
192,192,98636,128,0,98855:0:0:0:0:
64,192,98855,128,0,99074:0:0:0:0:
448,192,99293,1,0,0:0:0:0:
320,192,99293,1,0,0:0:0:0:
192,192,99293,1,0,0:0:0:0:
64,192,99293,1,0,0:0:0:0:
320,192,99512,1,0,0:0:0:0:
192,192,99512,1,0,0:0:0:0:
448,192,99731,1,0,0:0:0:0:
64,192,99731,1,0,0:0:0:0:
320,192,99950,1,0,0:0:0:0:
448,192,99950,1,0,0:0:0:0:
192,192,100169,1,0,0:0:0:0:
64,192,100169,1,0,0:0:0:0:
64,192,100388,128,0,100607:0:0:0:0:
192,192,100607,128,0,100826:0:0:0:0:
320,192,100826,128,0,101045:0:0:0:0:
448,192,101045,128,0,101264:0:0:0:0:
448,192,101483,1,0,0:0:0:0:
320,192,101483,1,0,0:0:0:0:
192,192,101483,1,0,0:0:0:0:
64,192,101483,1,0,0:0:0:0:
192,192,101702,128,0,101921:0:0:0:0:
64,192,101702,128,0,101921:0:0:0:0:
320,192,101921,128,0,102140:0:0:0:0:
448,192,101921,128,0,102140:0:0:0:0:
192,192,102140,128,0,102359:0:0:0:0:
64,192,102140,128,0,102359:0:0:0:0:
320,192,102359,128,0,102578:0:0:0:0:
448,192,102359,128,0,102578:0:0:0:0:
192,192,102797,1,0,0:0:0:0:
320,192,103016,1,0,0:0:0:0:
64,192,103016,1,0,0:0:0:0:
320,192,103235,1,0,0:0:0:0:
448,192,103235,1,0,0:0:0:0:
192,192,103454,1,0,0:0:0:0:
320,192,103454,1,0,0:0:0:0:
320,192,103673,1,0,0:0:0:0:
448,192,103673,1,0,0:0:0:0:
448,192,103892,128,0,104768:0:0:0:0:
320,192,103892,128,0,104111:0:0:0:0:
64,192,104111,128,0,104330:0:0:0:0:
320,192,104330,128,0,104549:0:0:0:0:
64,192,104549,128,0,104768:0:0:0:0:
192,192,104549,128,0,104768:0:0:0:0:
320,192,104987,1,0,0:0:0:0:
64,192,104987,1,0,0:0:0:0:
320,192,105206,128,0,105425:0:0:0:0:
192,192,105425,128,0,105644:0:0:0:0:
320,192,105644,128,0,105863:0:0:0:0:
448,192,105753,1,0,0:0:0:0:
192,192,105863,1,0,0:0:0:0:
64,192,105863,128,0,106082:0:0:0:0:
320,192,105972,1,0,0:0:0:0:
448,192,105972,1,0,0:0:0:0:
192,192,106082,1,0,0:0:0:0:
448,192,106191,1,0,0:0:0:0:
320,192,106191,1,0,0:0:0:0:
192,192,106301,1,0,0:0:0:0:
64,192,106301,1,0,0:0:0:0:
448,192,106410,1,0,0:0:0:0:
320,192,106410,1,0,0:0:0:0:
192,192,106520,1,0,0:0:0:0:
64,192,106520,1,0,0:0:0:0:
320,192,106629,1,0,0:0:0:0:
448,192,106739,1,0,0:0:0:0:
64,192,106739,1,0,0:0:0:0:
192,192,106848,1,0,0:0:0:0:
320,192,106848,1,0,0:0:0:0:
448,192,106958,1,0,0:0:0:0:
64,192,106958,1,0,0:0:0:0:
192,192,107067,1,0,0:0:0:0:
320,192,107067,1,0,0:0:0:0:
448,192,107177,128,0,107614:0:0:0:0:
64,192,107177,128,0,107614:0:0:0:0:
320,192,107614,1,0,0:0:0:0:
192,192,107614,1,0,0:0:0:0:
448,192,107724,128,0,108490:0:0:0:0:
64,192,107724,128,0,108490:0:0:0:0:
192,192,108490,1,0,0:0:0:0:
320,192,108490,1,0,0:0:0:0:
448,192,108600,128,0,109366:0:0:0:0:
64,192,108600,128,0,109366:0:0:0:0:
320,192,109366,1,0,0:0:0:0:
192,192,109366,1,0,0:0:0:0:
192,192,109585,128,0,110023:0:0:0:0:
64,192,109585,128,0,110023:0:0:0:0:
320,192,110023,1,0,0:0:0:0:
448,192,110023,1,0,0:0:0:0:
64,192,110133,1,0,0:0:0:0:
448,192,110133,1,0,0:0:0:0:
192,192,110242,1,0,0:0:0:0:
320,192,110242,1,0,0:0:0:0:
448,192,110352,1,0,0:0:0:0:
64,192,110352,1,0,0:0:0:0:
192,192,110461,1,0,0:0:0:0:
320,192,110461,1,0,0:0:0:0:
64,192,110680,1,0,0:0:0:0:
192,192,110680,1,0,0:0:0:0:
320,192,110680,1,0,0:0:0:0:
448,192,110680,1,0,0:0:0:0:
192,192,110899,128,0,111118:0:0:0:0:
64,192,110899,128,0,111118:0:0:0:0:
320,192,111118,128,0,111337:0:0:0:0:
448,192,111118,128,0,111337:0:0:0:0:
192,192,111337,128,0,111556:0:0:0:0:
64,192,111337,128,0,111556:0:0:0:0:
448,192,111556,128,0,111775:0:0:0:0:
320,192,111556,128,0,111775:0:0:0:0:
64,192,111773,1,0,0:0:0:0:
192,192,111994,1,0,0:0:0:0:
320,192,111994,1,0,0:0:0:0:
448,192,112213,128,0,112432:0:0:0:0:
64,192,112213,128,0,112432:0:0:0:0:
192,192,112432,128,0,112651:0:0:0:0:
320,192,112432,128,0,112651:0:0:0:0:
448,192,112651,128,0,112870:0:0:0:0:
64,192,112651,128,0,112870:0:0:0:0:
192,192,112870,128,0,113089:0:0:0:0:
320,192,112870,128,0,113089:0:0:0:0:
448,192,113089,1,0,0:0:0:0:
64,192,113089,1,0,0:0:0:0:
448,192,113308,1,0,0:0:0:0:
320,192,113308,1,0,0:0:0:0:
192,192,113308,1,0,0:0:0:0:
64,192,113308,1,0,0:0:0:0:
320,192,113527,1,0,0:0:0:0:
192,192,113527,1,0,0:0:0:0:
320,192,113746,1,0,0:0:0:0:
448,192,113746,1,0,0:0:0:0:
192,192,113746,1,0,0:0:0:0:
64,192,113746,1,0,0:0:0:0:
192,192,113965,1,0,0:0:0:0:
320,192,113965,1,0,0:0:0:0:
64,192,114184,1,0,0:0:0:0:
192,192,114184,1,0,0:0:0:0:
320,192,114184,1,0,0:0:0:0:
448,192,114184,1,0,0:0:0:0:
320,192,114622,1,0,0:0:0:0:
64,192,114622,1,0,0:0:0:0:
448,192,115060,1,0,0:0:0:0:
192,192,115060,1,0,0:0:0:0:
320,192,115498,1,0,0:0:0:0:
64,192,115498,1,0,0:0:0:0:
448,192,115936,1,0,0:0:0:0:
192,192,115936,1,0,0:0:0:0:
320,192,116374,1,0,0:0:0:0:
64,192,116374,1,0,0:0:0:0:
448,192,116812,1,0,0:0:0:0:
192,192,116812,1,0,0:0:0:0:
64,192,117031,1,0,0:0:0:0:
320,192,117031,1,0,0:0:0:0:
192,192,117140,1,0,0:0:0:0:
448,192,117140,1,0,0:0:0:0:
64,192,117250,1,0,0:0:0:0:
320,192,117250,1,0,0:0:0:0:
64,192,117687,1,0,0:0:0:0:
192,192,117687,1,0,0:0:0:0:
320,192,117687,1,0,0:0:0:0:
448,192,117687,1,0,0:0:0:0:
448,192,117906,128,0,118125:0:0:0:0:
320,192,117906,128,0,118125:0:0:0:0:
192,192,118125,128,0,118344:0:0:0:0:
64,192,118125,128,0,118344:0:0:0:0:
320,192,118344,128,0,118563:0:0:0:0:
448,192,118344,128,0,118563:0:0:0:0:
192,192,118563,128,0,118782:0:0:0:0:
64,192,118563,128,0,118782:0:0:0:0:
448,192,119001,1,0,0:0:0:0:
320,192,119001,1,0,0:0:0:0:
192,192,119001,1,0,0:0:0:0:
64,192,119001,1,0,0:0:0:0:
192,192,119220,128,0,119439:0:0:0:0:
320,192,119439,128,0,119658:0:0:0:0:
64,192,119658,128,0,119877:0:0:0:0:
448,192,119877,128,0,120096:0:0:0:0:
64,192,120096,1,0,0:0:0:0:
320,192,120315,1,0,0:0:0:0:
192,192,120315,1,0,0:0:0:0:
448,192,120425,1,0,0:0:0:0:
64,192,120425,1,0,0:0:0:0:
192,192,120534,1,0,0:0:0:0:
320,192,120534,1,0,0:0:0:0:
64,192,120644,1,0,0:0:0:0:
448,192,120644,1,0,0:0:0:0:
320,192,120753,1,0,0:0:0:0:
192,192,120863,1,0,0:0:0:0:
64,192,120972,1,0,0:0:0:0:
320,192,120972,1,0,0:0:0:0:
192,192,121082,1,0,0:0:0:0:
448,192,121082,1,0,0:0:0:0:
64,192,121191,1,0,0:0:0:0:
320,192,121191,1,0,0:0:0:0:
320,192,121410,1,0,0:0:0:0:
448,192,121410,1,0,0:0:0:0:
192,192,121629,1,0,0:0:0:0:
64,192,121630,1,0,0:0:0:0:
64,192,121848,1,0,0:0:0:0:
448,192,121848,1,0,0:0:0:0:
192,192,122067,1,0,0:0:0:0:
64,192,122067,1,0,0:0:0:0:
320,192,122286,1,0,0:0:0:0:
448,192,122286,1,0,0:0:0:0:
320,192,122505,1,0,0:0:0:0:
192,192,122505,1,0,0:0:0:0:
64,192,122724,1,0,0:0:0:0:
448,192,122724,1,0,0:0:0:0:
192,192,122943,1,0,0:0:0:0:
320,192,122943,1,0,0:0:0:0:
448,192,123162,1,0,0:0:0:0:
192,192,123162,1,0,0:0:0:0:
192,192,123381,1,0,0:0:0:0:
320,192,123381,1,0,0:0:0:0:
64,192,123600,1,0,0:0:0:0:
448,192,123600,1,0,0:0:0:0:
320,192,123819,1,0,0:0:0:0:
64,192,123819,1,0,0:0:0:0:
192,192,124030,1,0,0:0:0:0:
448,192,124030,1,0,0:0:0:0:
448,192,124257,1,0,0:0:0:0:
320,192,124257,1,0,0:0:0:0:
192,192,124257,1,0,0:0:0:0:
64,192,124257,1,0,0:0:0:0:
448,192,124476,128,0,125352:0:0:0:0:
320,192,124695,1,0,0:0:0:0:
64,192,124914,1,0,0:0:0:0:
320,192,125133,1,0,0:0:0:0:
64,192,125352,128,0,126228:0:0:0:0:
192,192,125571,1,0,0:0:0:0:
448,192,125790,1,0,0:0:0:0:
192,192,126009,1,0,0:0:0:0:
448,192,126228,128,0,127104:0:0:0:0:
192,192,126447,1,0,0:0:0:0:
320,192,126447,1,0,0:0:0:0:
192,192,126666,1,0,0:0:0:0:
64,192,126666,1,0,0:0:0:0:
192,192,126885,1,0,0:0:0:0:
320,192,126885,1,0,0:0:0:0:
64,192,127104,128,0,127760:0:0:0:0:
192,192,127323,1,0,0:0:0:0:
320,192,127323,1,0,0:0:0:0:
320,192,127541,1,0,0:0:0:0:
448,192,127541,1,0,0:0:0:0:
192,192,127760,1,0,0:0:0:0:
448,192,127760,1,0,0:0:0:0:
448,192,127979,128,0,128855:0:0:0:0:
320,192,127979,128,0,131483:0:0:0:0:
192,192,127979,128,0,130607:0:0:0:0:
64,192,127979,128,0,129731:0:0:0:0:
448,192,128892,128,0,133016:0:0:0:0:
64,192,129768,128,0,133016:0:0:0:0:
192,192,130644,128,0,133016:0:0:0:0:
320,192,131520,128,0,133016:0:0:0:0:
448,192,133235,128,0,133454:0:0:0:0:
192,192,133235,128,0,133454:0:0:0:0:
320,192,133454,1,0,0:0:0:0:
64,192,133454,1,0,0:0:0:0:
320,192,133673,128,0,133892:0:0:0:0:
64,192,133673,128,0,133892:0:0:0:0:
192,192,133892,1,0,0:0:0:0:
448,192,133892,1,0,0:0:0:0:
320,192,134111,128,0,134330:0:0:0:0:
64,192,134111,128,0,134330:0:0:0:0:
192,192,134111,1,0,0:0:0:0:
448,192,134111,1,0,0:0:0:0:
448,192,134330,1,0,0:0:0:0:
192,192,134439,1,0,0:0:0:0:
64,192,134549,1,0,0:0:0:0:
192,192,134658,1,0,0:0:0:0:
448,192,134658,1,0,0:0:0:0:
64,192,134768,128,0,134768:0:0:0:0:
320,192,134768,1,0,0:0:0:0:
448,192,134877,1,0,0:0:0:0:
192,192,134877,1,0,0:0:0:0:
320,192,134987,1,0,0:0:0:0:
64,192,134987,1,0,0:0:0:0:
192,192,135096,1,0,0:0:0:0:
448,192,135096,1,0,0:0:0:0:
320,192,135206,1,0,0:0:0:0:
64,192,135206,128,0,135863:0:0:0:0:
448,192,135425,1,0,0:0:0:0:
320,192,135425,1,0,0:0:0:0:
192,192,135644,1,0,0:0:0:0:
448,192,135644,1,0,0:0:0:0:
320,192,135863,1,0,0:0:0:0:
448,192,135863,128,0,136739:0:0:0:0:
320,192,136082,1,0,0:0:0:0:
192,192,136082,1,0,0:0:0:0:
192,192,136301,1,0,0:0:0:0:
64,192,136520,1,0,0:0:0:0:
320,192,136520,1,0,0:0:0:0:
192,192,136739,128,0,136958:0:0:0:0:
64,192,136739,128,0,138271:0:0:0:0:
448,192,136958,128,0,137614:0:0:0:0:
320,192,137614,128,0,138271:0:0:0:0:
192,192,138271,1,0,0:0:0:0:
448,192,138271,1,0,0:0:0:0:
448,192,138490,128,0,141556:0:0:0:0:
320,192,138490,128,0,139366:0:0:0:0:
192,192,138709,1,0,0:0:0:0:
64,192,138928,1,0,0:0:0:0:
192,192,139147,1,0,0:0:0:0:
192,192,139366,128,0,140242:0:0:0:0:
320,192,139585,1,0,0:0:0:0:
64,192,139804,1,0,0:0:0:0:
320,192,140023,1,0,0:0:0:0:
64,192,140242,128,0,141556:0:0:0:0:
320,192,140461,1,0,0:0:0:0:
192,192,140461,1,0,0:0:0:0:
320,192,140680,1,0,0:0:0:0:
192,192,140680,1,0,0:0:0:0:
192,192,140899,1,0,0:0:0:0:
320,192,140899,1,0,0:0:0:0:
192,192,141118,128,0,141556:0:0:0:0:
320,192,141337,128,0,141556:0:0:0:0:
192,192,141775,1,0,0:0:0:0:
448,192,141775,1,0,0:0:0:0:
320,192,141885,1,0,0:0:0:0:
64,192,141885,1,0,0:0:0:0:
192,192,141994,1,0,0:0:0:0:
448,192,141994,1,0,0:0:0:0:
320,192,142104,1,0,0:0:0:0:
64,192,142104,1,0,0:0:0:0:
448,192,142177,1,0,0:0:0:0:
192,192,142177,1,0,0:0:0:0:
64,192,142432,1,0,0:0:0:0:
448,192,142432,1,0,0:0:0:0:
320,192,142651,1,0,0:0:0:0:
192,192,142651,1,0,0:0:0:0:
64,192,142870,1,0,0:0:0:0:
448,192,142870,1,0,0:0:0:0:
448,192,143089,1,0,0:0:0:0:
192,192,143089,1,0,0:0:0:0:
64,192,143089,1,0,0:0:0:0:
448,192,143308,1,0,0:0:0:0:
320,192,143308,1,0,0:0:0:0:
64,192,143308,1,0,0:0:0:0:
320,192,143527,1,0,0:0:0:0:
192,192,143527,1,0,0:0:0:0:
64,192,143527,1,0,0:0:0:0:
192,192,143746,1,0,0:0:0:0:
320,192,143746,1,0,0:0:0:0:
448,192,143746,1,0,0:0:0:0:
320,192,143965,1,0,0:0:0:0:
448,192,143965,1,0,0:0:0:0:
64,192,143965,1,0,0:0:0:0:
192,192,144184,1,0,0:0:0:0:
448,192,144403,1,0,0:0:0:0:
192,192,144403,1,0,0:0:0:0:
64,192,144403,1,0,0:0:0:0:
320,192,144622,1,0,0:0:0:0:
448,192,144841,1,0,0:0:0:0:
320,192,144841,1,0,0:0:0:0:
64,192,144841,1,0,0:0:0:0:
448,192,145060,1,0,0:0:0:0:
192,192,145060,1,0,0:0:0:0:
64,192,145060,1,0,0:0:0:0:
320,192,145279,1,0,0:0:0:0:
192,192,145279,1,0,0:0:0:0:
320,192,145498,1,0,0:0:0:0:
192,192,145498,1,0,0:0:0:0:
64,192,145498,1,0,0:0:0:0:
448,192,145717,1,0,0:0:0:0:
320,192,145717,1,0,0:0:0:0:
192,192,145717,1,0,0:0:0:0:
448,192,145936,1,0,0:0:0:0:
64,192,145936,1,0,0:0:0:0:
192,192,146155,1,0,0:0:0:0:
64,192,146155,1,0,0:0:0:0:
320,192,146374,1,0,0:0:0:0:
448,192,146374,1,0,0:0:0:0:
192,192,146593,1,0,0:0:0:0:
64,192,146593,1,0,0:0:0:0:
320,192,146812,1,0,0:0:0:0:
448,192,146812,1,0,0:0:0:0:
448,192,147031,1,0,0:0:0:0:
64,192,147031,1,0,0:0:0:0:
192,192,147250,1,0,0:0:0:0:
320,192,147250,1,0,0:0:0:0:
448,192,147469,1,0,0:0:0:0:
64,192,147469,1,0,0:0:0:0:
192,192,147687,1,0,0:0:0:0:
64,192,147687,1,0,0:0:0:0:
320,192,147906,1,0,0:0:0:0:
448,192,147906,1,0,0:0:0:0:
192,192,148089,1,0,0:0:0:0:
64,192,148089,1,0,0:0:0:0:
320,192,148125,1,0,0:0:0:0:
448,192,148125,1,0,0:0:0:0:
64,192,148235,1,0,0:0:0:0:
192,192,148235,1,0,0:0:0:0:
448,192,148344,1,0,0:0:0:0:
320,192,148344,1,0,0:0:0:0:
192,192,148454,1,0,0:0:0:0:
448,192,148563,1,0,0:0:0:0:
64,192,148563,1,0,0:0:0:0:
320,192,148673,1,0,0:0:0:0:
192,192,148782,1,0,0:0:0:0:
64,192,148892,1,0,0:0:0:0:
448,192,148892,1,0,0:0:0:0:
192,192,149001,1,0,0:0:0:0:
320,192,149001,1,0,0:0:0:0:
448,192,149111,1,0,0:0:0:0:
64,192,149111,1,0,0:0:0:0:
192,192,149220,1,0,0:0:0:0:
320,192,149220,1,0,0:0:0:0:
448,192,151082,1,0,0:0:0:0:
320,192,151082,1,0,0:0:0:0:
192,192,151082,1,0,0:0:0:0:
64,192,151082,1,0,0:0:0:0:
448,192,151410,128,0,151848:0:0:0:0:
64,192,151410,1,0,0:0:0:0:
192,192,151848,1,0,0:0:0:0:
320,192,151958,1,0,0:0:0:0:
192,192,152067,1,0,0:0:0:0:
448,192,152067,1,0,0:0:0:0:
320,192,152286,1,0,0:0:0:0:
64,192,152505,128,0,152943:0:0:0:0:
448,192,152505,1,0,0:0:0:0:
320,192,152724,1,0,0:0:0:0:
448,192,152724,1,0,0:0:0:0:
192,192,152943,128,0,153600:0:0:0:0:
448,192,152943,1,0,0:0:0:0:
320,192,153162,1,0,0:0:0:0:
64,192,153381,1,0,0:0:0:0:
448,192,153600,128,0,154257:0:0:0:0:
320,192,153600,1,0,0:0:0:0:
64,192,153709,1,0,0:0:0:0:
192,192,153819,1,0,0:0:0:0:
320,192,154038,1,0,0:0:0:0:
64,192,154038,1,0,0:0:0:0:
448,192,154476,1,0,0:0:0:0:
192,192,154476,1,0,0:0:0:0:
64,192,154476,128,0,154914:0:0:0:0:
448,192,154914,128,0,155352:0:0:0:0:
320,192,154914,128,0,155352:0:0:0:0:
64,192,155352,128,0,155790:0:0:0:0:
192,192,155461,1,0,0:0:0:0:
448,192,155571,1,0,0:0:0:0:
320,192,155571,1,0,0:0:0:0:
320,192,155790,1,0,0:0:0:0:
448,192,155790,128,0,156009:0:0:0:0:
64,192,156009,128,0,156228:0:0:0:0:
192,192,156009,1,0,0:0:0:0:
320,192,156228,128,0,156666:0:0:0:0:
448,192,156228,128,0,156666:0:0:0:0:
192,192,156666,1,0,0:0:0:0:
64,192,156666,1,0,0:0:0:0:
64,192,156885,128,0,157104:0:0:0:0:
192,192,156885,1,0,0:0:0:0:
320,192,156994,1,0,0:0:0:0:
192,192,157104,1,0,0:0:0:0:
448,192,157104,128,0,157541:0:0:0:0:
320,192,157213,1,0,0:0:0:0:
64,192,157323,1,0,0:0:0:0:
192,192,157323,1,0,0:0:0:0:
64,192,157541,1,0,0:0:0:0:
320,192,157541,1,0,0:0:0:0:
64,192,157760,1,0,0:0:0:0:
320,192,157760,1,0,0:0:0:0:
192,192,157870,1,0,0:0:0:0:
448,192,157870,1,0,0:0:0:0:
64,192,157979,128,0,158417:0:0:0:0:
320,192,157979,128,0,158417:0:0:0:0:
192,192,158417,1,0,0:0:0:0:
448,192,158417,1,0,0:0:0:0:
320,192,158636,1,0,0:0:0:0:
448,192,158636,1,0,0:0:0:0:
64,192,158746,1,0,0:0:0:0:
448,192,158855,1,0,0:0:0:0:
320,192,158965,1,0,0:0:0:0:
448,192,159074,1,0,0:0:0:0:
192,192,159074,1,0,0:0:0:0:
64,192,159074,1,0,0:0:0:0:
320,192,159293,1,0,0:0:0:0:
192,192,159293,1,0,0:0:0:0:
448,192,159731,1,0,0:0:0:0:
192,192,159731,1,0,0:0:0:0:
320,192,159950,1,0,0:0:0:0:
64,192,159950,1,0,0:0:0:0:
192,192,160169,1,0,0:0:0:0:
320,192,160169,1,0,0:0:0:0:
64,192,160388,1,0,0:0:0:0:
448,192,160388,128,0,161045:0:0:0:0:
320,192,160388,128,0,160607:0:0:0:0:
192,192,160607,1,0,0:0:0:0:
64,192,160717,1,0,0:0:0:0:
192,192,160826,1,0,0:0:0:0:
320,192,161045,1,0,0:0:0:0:
64,192,161045,1,0,0:0:0:0:
320,192,161264,1,0,0:0:0:0:
192,192,161264,1,0,0:0:0:0:
448,192,161483,1,0,0:0:0:0:
192,192,161483,1,0,0:0:0:0:
64,192,161483,128,0,162359:0:0:0:0:
448,192,161702,128,0,162359:0:0:0:0:
320,192,161921,1,0,0:0:0:0:
192,192,161921,1,0,0:0:0:0:
320,192,162140,128,0,162359:0:0:0:0:
192,192,162359,1,0,0:0:0:0:
320,192,162578,1,0,0:0:0:0:
64,192,162578,1,0,0:0:0:0:
192,192,162687,1,0,0:0:0:0:
320,192,162797,1,0,0:0:0:0:
64,192,162797,1,0,0:0:0:0:
192,192,162906,1,0,0:0:0:0:
448,192,162906,1,0,0:0:0:0:
64,192,163016,128,0,163235:0:0:0:0:
320,192,163016,128,0,163235:0:0:0:0:
448,192,163454,1,0,0:0:0:0:
320,192,163454,1,0,0:0:0:0:
192,192,163454,1,0,0:0:0:0:
64,192,163454,1,0,0:0:0:0:
320,192,163673,1,0,0:0:0:0:
448,192,163673,1,0,0:0:0:0:
64,192,163673,1,0,0:0:0:0:
192,192,163892,1,0,0:0:0:0:
320,192,163892,1,0,0:0:0:0:
448,192,164002,1,0,0:0:0:0:
64,192,164002,1,0,0:0:0:0:
320,192,164111,1,0,0:0:0:0:
192,192,164220,1,0,0:0:0:0:
64,192,164220,1,0,0:0:0:0:
320,192,164330,1,0,0:0:0:0:
448,192,164330,1,0,0:0:0:0:
64,192,164439,1,0,0:0:0:0:
192,192,164439,1,0,0:0:0:0:
320,192,164512,1,0,0:0:0:0:
448,192,164512,1,0,0:0:0:0:
192,192,164585,1,0,0:0:0:0:
64,192,164585,1,0,0:0:0:0:
448,192,164659,1,0,0:0:0:0:
320,192,164659,1,0,0:0:0:0:
192,192,164768,1,0,0:0:0:0:
64,192,164768,1,0,0:0:0:0:
320,192,164841,1,0,0:0:0:0:
448,192,164841,1,0,0:0:0:0:
192,192,164914,1,0,0:0:0:0:
64,192,164914,1,0,0:0:0:0:
448,192,164987,128,0,165206:0:0:0:0:
320,192,164987,128,0,165206:0:0:0:0:
448,192,165425,128,0,165863:0:0:0:0:
192,192,165425,128,0,165863:0:0:0:0:
320,192,165425,1,0,0:0:0:0:
64,192,165425,1,0,0:0:0:0:
64,192,165863,128,0,166301:0:0:0:0:
320,192,165972,1,0,0:0:0:0:
448,192,166082,1,0,0:0:0:0:
192,192,166301,1,0,0:0:0:0:
448,192,166301,1,0,0:0:0:0:
64,192,166520,128,0,166958:0:0:0:0:
320,192,166739,1,0,0:0:0:0:
448,192,166739,1,0,0:0:0:0:
320,192,166958,128,0,167396:0:0:0:0:
64,192,167144,1,0,0:0:0:0:
448,192,167144,1,0,0:0:0:0:
192,192,167396,128,0,168490:0:0:0:0:
448,192,167396,1,0,0:0:0:0:
64,192,167505,1,0,0:0:0:0:
320,192,167614,1,0,0:0:0:0:
64,192,167724,1,0,0:0:0:0:
320,192,167830,1,0,0:0:0:0:
448,192,167833,128,0,168490:0:0:0:0:
64,192,168052,1,0,0:0:0:0:
320,192,168052,1,0,0:0:0:0:
320,192,168490,1,0,0:0:0:0:
64,192,168490,128,0,168928:0:0:0:0:
448,192,168928,128,0,169366:0:0:0:0:
320,192,168928,1,0,0:0:0:0:
192,192,169147,1,0,0:0:0:0:
320,192,169257,1,0,0:0:0:0:
192,192,169366,128,0,169585:0:0:0:0:
64,192,169366,1,0,0:0:0:0:
320,192,169476,1,0,0:0:0:0:
64,192,169585,1,0,0:0:0:0:
448,192,169585,128,0,169804:0:0:0:0:
320,192,169804,128,0,170023:0:0:0:0:
192,192,169804,1,0,0:0:0:0:
64,192,169804,1,0,0:0:0:0:
64,192,170023,128,0,170242:0:0:0:0:
192,192,170023,1,0,0:0:0:0:
448,192,170133,1,0,0:0:0:0:
192,192,170242,128,0,170680:0:0:0:0:
320,192,170242,1,0,0:0:0:0:
448,192,170352,1,0,0:0:0:0:
320,192,170459,1,0,0:0:0:0:
64,192,170461,1,0,0:0:0:0:
448,192,170680,1,0,0:0:0:0:
64,192,170680,1,0,0:0:0:0:
448,192,170899,1,0,0:0:0:0:
64,192,170899,1,0,0:0:0:0:
192,192,171009,1,0,0:0:0:0:
320,192,171118,1,0,0:0:0:0:
448,192,171228,1,0,0:0:0:0:
64,192,171228,1,0,0:0:0:0:
320,192,171282,1,0,0:0:0:0:
192,192,171337,1,0,0:0:0:0:
320,192,171392,1,0,0:0:0:0:
448,192,171447,1,0,0:0:0:0:
64,192,171447,1,0,0:0:0:0:
320,192,171556,1,0,0:0:0:0:
192,192,171556,1,0,0:0:0:0:
448,192,171775,128,0,172213:0:0:0:0:
320,192,171775,128,0,172213:0:0:0:0:
64,192,171775,1,0,0:0:0:0:
192,192,171775,1,0,0:0:0:0:
192,192,172213,128,0,172432:0:0:0:0:
64,192,172213,128,0,172432:0:0:0:0:
320,192,172432,128,0,172760:0:0:0:0:
448,192,172432,128,0,172760:0:0:0:0:
64,192,172870,1,0,0:0:0:0:
192,192,172870,1,0,0:0:0:0:
320,192,172979,1,0,0:0:0:0:
448,192,172979,1,0,0:0:0:0:
192,192,173089,128,0,173162:0:0:0:0:
64,192,173089,128,0,173162:0:0:0:0:
320,192,173308,1,0,0:0:0:0:
448,192,173308,1,0,0:0:0:0:
320,192,173527,128,0,173965:0:0:0:0:
64,192,173527,128,0,173965:0:0:0:0:
192,192,173965,1,0,0:0:0:0:
448,192,173965,1,0,0:0:0:0:
320,192,174184,1,0,0:0:0:0:
448,192,174403,1,0,0:0:0:0:
64,192,174403,1,0,0:0:0:0:
320,192,174622,1,0,0:0:0:0:
192,192,174622,1,0,0:0:0:0:
320,192,174841,1,0,0:0:0:0:
448,192,174841,1,0,0:0:0:0:
448,192,175060,1,0,0:0:0:0:
64,192,175060,1,0,0:0:0:0:
192,192,175169,1,0,0:0:0:0:
64,192,175279,1,0,0:0:0:0:
448,192,175279,1,0,0:0:0:0:
320,192,175388,1,0,0:0:0:0:
448,192,175498,1,0,0:0:0:0:
192,192,175498,1,0,0:0:0:0:
64,192,175936,1,0,0:0:0:0:
448,192,175936,1,0,0:0:0:0:
320,192,176155,1,0,0:0:0:0:
192,192,176155,1,0,0:0:0:0:
448,192,176374,1,0,0:0:0:0:
64,192,176374,1,0,0:0:0:0:
192,192,176593,1,0,0:0:0:0:
320,192,176593,1,0,0:0:0:0:
448,192,176812,128,0,177031:0:0:0:0:
320,192,176812,128,0,177031:0:0:0:0:
192,192,177031,128,0,177359:0:0:0:0:
64,192,177031,128,0,177359:0:0:0:0:
192,192,177578,128,0,177906:0:0:0:0:
64,192,177578,128,0,177906:0:0:0:0:
320,192,177906,128,0,178125:0:0:0:0:
448,192,177906,128,0,178125:0:0:0:0:
64,192,178125,1,0,0:0:0:0:
192,192,178125,1,0,0:0:0:0:
192,192,178344,1,0,0:0:0:0:
320,192,178344,1,0,0:0:0:0:
320,192,178563,128,0,178728:0:0:0:0:
192,192,178563,128,0,178728:0:0:0:0:
64,192,178563,128,0,178728:0:0:0:0:
448,192,178563,128,0,178728:0:0:0:0:
448,192,178782,128,0,180315:0:0:0:0:
320,192,178782,128,0,179001:0:0:0:0:
192,192,178782,128,0,179001:0:0:0:0:
64,192,178782,128,0,180315:0:0:0:0:
320,192,179220,1,0,0:0:0:0:
192,192,179439,1,0,0:0:0:0:
320,192,179658,1,0,0:0:0:0:
192,192,179877,1,0,0:0:0:0:
192,192,180315,1,0,0:0:0:0:
320,192,180315,1,0,0:0:0:0:
64,192,180534,128,0,181191:0:0:0:0:
192,192,180534,1,0,0:0:0:0:
448,192,180753,1,0,0:0:0:0:
192,192,180972,1,0,0:0:0:0:
320,192,181191,1,0,0:0:0:0:
448,192,181191,1,0,0:0:0:0:
448,192,181629,1,0,0:0:0:0:
64,192,181848,1,0,0:0:0:0:
192,192,182067,1,0,0:0:0:0:
320,192,182067,1,0,0:0:0:0:
448,192,182286,1,0,0:0:0:0:
64,192,182286,1,0,0:0:0:0:
320,192,182505,1,0,0:0:0:0:
192,192,182505,1,0,0:0:0:0:
448,192,182724,128,0,182916:0:0:0:0:
448,192,182943,128,0,183135:0:0:0:0:
192,192,182943,1,0,0:0:0:0:
64,192,182943,1,0,0:0:0:0:
448,192,183162,128,0,183354:0:0:0:0:
448,192,183381,128,0,183600:0:0:0:0:
192,192,183381,1,0,0:0:0:0:
64,192,183381,1,0,0:0:0:0:
192,192,183819,1,0,0:0:0:0:
64,192,183819,1,0,0:0:0:0:
64,192,184038,128,0,184229:0:0:0:0:
64,192,184257,128,0,184448:0:0:0:0:
320,192,184257,1,0,0:0:0:0:
448,192,184257,1,0,0:0:0:0:
64,192,184476,128,0,184667:0:0:0:0:
64,192,184695,128,0,184914:0:0:0:0:
320,192,184695,1,0,0:0:0:0:
448,192,184695,1,0,0:0:0:0:
320,192,185133,1,0,0:0:0:0:
448,192,185133,1,0,0:0:0:0:
320,192,185352,1,0,0:0:0:0:
192,192,185352,1,0,0:0:0:0:
192,192,185571,1,0,0:0:0:0:
64,192,185571,1,0,0:0:0:0:
448,192,185790,1,0,0:0:0:0:
192,192,185790,1,0,0:0:0:0:
448,192,186009,1,0,0:0:0:0:
320,192,186009,1,0,0:0:0:0:
64,192,186009,1,0,0:0:0:0:
192,192,186228,128,0,187104:0:0:0:0:
448,192,186228,128,0,186447:0:0:0:0:
64,192,186447,128,0,186666:0:0:0:0:
320,192,186666,128,0,186885:0:0:0:0:
448,192,186885,128,0,187104:0:0:0:0:
64,192,186885,128,0,187104:0:0:0:0:
448,192,187323,1,0,0:0:0:0:
192,192,187323,1,0,0:0:0:0:
64,192,187323,1,0,0:0:0:0:
320,192,187541,128,0,188417:0:0:0:0:
64,192,187541,128,0,187760:0:0:0:0:
448,192,187760,128,0,187979:0:0:0:0:
192,192,187979,128,0,188198:0:0:0:0:
448,192,188198,128,0,188417:0:0:0:0:
64,192,188198,128,0,188417:0:0:0:0:
448,192,188636,1,0,0:0:0:0:
320,192,188636,1,0,0:0:0:0:
64,192,188636,1,0,0:0:0:0:
64,192,188855,1,0,0:0:0:0:
448,192,188855,1,0,0:0:0:0:
192,192,189074,1,0,0:0:0:0:
320,192,189074,1,0,0:0:0:0:
64,192,189293,1,0,0:0:0:0:
320,192,189293,1,0,0:0:0:0:
448,192,189512,1,0,0:0:0:0:
64,192,189512,1,0,0:0:0:0:
192,192,189622,1,0,0:0:0:0:
448,192,189731,1,0,0:0:0:0:
64,192,189768,1,0,0:0:0:0:
192,192,189841,1,0,0:0:0:0:
320,192,189950,1,0,0:0:0:0:
448,192,189950,1,0,0:0:0:0:
192,192,190060,1,0,0:0:0:0:
64,192,190060,1,0,0:0:0:0:
320,192,190169,1,0,0:0:0:0:
448,192,190169,1,0,0:0:0:0:
192,192,190279,1,0,0:0:0:0:
64,192,190279,1,0,0:0:0:0:
320,192,190388,1,0,0:0:0:0:
448,192,190388,1,0,0:0:0:0:
192,192,190498,1,0,0:0:0:0:
64,192,190498,1,0,0:0:0:0:
320,192,190607,1,0,0:0:0:0:
448,192,190607,1,0,0:0:0:0:
192,192,190717,1,0,0:0:0:0:
64,192,190717,1,0,0:0:0:0:
320,192,190826,1,0,0:0:0:0:
448,192,190826,1,0,0:0:0:0:
448,192,190936,1,0,0:0:0:0:
64,192,190936,1,0,0:0:0:0:
192,192,191045,1,0,0:0:0:0:
320,192,191045,1,0,0:0:0:0:
448,192,191155,1,0,0:0:0:0:
64,192,191155,1,0,0:0:0:0:
192,192,191264,1,0,0:0:0:0:
320,192,191264,1,0,0:0:0:0:
448,192,191374,1,0,0:0:0:0:
64,192,191374,1,0,0:0:0:0:
320,192,191483,1,0,0:0:0:0:
192,192,191483,1,0,0:0:0:0:
64,192,191593,1,0,0:0:0:0:
192,192,191702,1,0,0:0:0:0:
448,192,191702,1,0,0:0:0:0:
320,192,191812,1,0,0:0:0:0:
64,192,191812,1,0,0:0:0:0:
192,192,191921,1,0,0:0:0:0:
448,192,191921,1,0,0:0:0:0:
320,192,192031,1,0,0:0:0:0:
64,192,192031,1,0,0:0:0:0:
192,192,192140,1,0,0:0:0:0:
448,192,192140,1,0,0:0:0:0:
320,192,192250,1,0,0:0:0:0:
64,192,192359,1,0,0:0:0:0:
192,192,192396,1,0,0:0:0:0:
320,192,192432,1,0,0:0:0:0:
448,192,192469,1,0,0:0:0:0:
320,192,192578,1,0,0:0:0:0:
192,192,192578,128,0,193016:0:0:0:0:
448,192,193016,128,0,194111:0:0:0:0:
64,192,193016,128,0,194111:0:0:0:0:
320,192,193235,128,0,193454:0:0:0:0:
192,192,193454,128,0,193673:0:0:0:0:
320,192,193673,128,0,194111:0:0:0:0:
192,192,193892,128,0,194111:0:0:0:0:
64,192,194330,1,0,0:0:0:0:
448,192,194330,1,0,0:0:0:0:
192,192,194330,128,0,195425:0:0:0:0:
320,192,194549,128,0,194768:0:0:0:0:
448,192,194768,128,0,194987:0:0:0:0:
64,192,194768,128,0,194987:0:0:0:0:
320,192,194987,128,0,195206:0:0:0:0:
448,192,195206,128,0,195425:0:0:0:0:
64,192,195206,128,0,195425:0:0:0:0:
192,192,195644,1,0,0:0:0:0:
320,192,195644,1,0,0:0:0:0:
320,192,195863,1,0,0:0:0:0:
64,192,195863,1,0,0:0:0:0:
448,192,196082,1,0,0:0:0:0:
192,192,196082,1,0,0:0:0:0:
320,192,196301,1,0,0:0:0:0:
192,192,196301,1,0,0:0:0:0:
320,192,196520,1,0,0:0:0:0:
192,192,196520,1,0,0:0:0:0:
64,192,196739,128,0,196958:0:0:0:0:
448,192,196744,1,0,0:0:0:0:
192,192,196958,128,0,197177:0:0:0:0:
320,192,197177,128,0,197396:0:0:0:0:
192,192,197396,128,0,197614:0:0:0:0:
64,192,197614,128,0,197760:0:0:0:0:
320,192,197760,128,0,197943:0:0:0:0:
448,192,197943,128,0,198016:0:0:0:0:
320,192,198016,128,0,198125:0:0:0:0:
192,192,198125,128,0,198235:0:0:0:0:
64,192,198235,128,0,198344:0:0:0:0:
448,192,198344,128,0,198402:0:0:0:0:
192,192,198344,128,0,198417:0:0:0:0:
320,192,198417,128,0,198563:0:0:0:0:
448,192,198563,128,0,198709:0:0:0:0:
192,192,198709,128,0,198965:0:0:0:0:
64,192,198965,128,0,199147:0:0:0:0:
192,192,199147,128,0,199366:0:0:0:0:
448,192,199366,128,0,199585:0:0:0:0:
320,192,199585,128,0,199804:0:0:0:0:
192,192,199804,128,0,200680:0:0:0:0:
64,192,199804,128,0,200680:0:0:0:0:
448,192,200680,128,0,200790:0:0:0:0:
320,192,200790,128,0,200899:0:0:0:0:
448,192,200899,128,0,201228:0:0:0:0:
64,192,201228,128,0,201447:0:0:0:0:
192,192,201447,128,0,201483:0:0:0:0:
320,192,201483,128,0,201593:0:0:0:0:
192,192,201593,128,0,201702:0:0:0:0:
64,192,201702,128,0,201812:0:0:0:0:
448,192,201812,128,0,202432:0:0:0:0:
320,192,202213,128,0,202432:0:0:0:0:
64,192,202432,128,0,203089:0:0:0:0:
192,192,202870,128,0,203089:0:0:0:0:
320,192,202979,128,0,203089:0:0:0:0:
448,192,203089,128,0,203308:0:0:0:0:
64,192,203308,128,0,203527:0:0:0:0:
320,192,203527,128,0,203746:0:0:0:0:
64,192,203746,128,0,204184:0:0:0:0:
192,192,203965,128,0,204184:0:0:0:0:
448,192,204184,128,0,204403:0:0:0:0:
64,192,204403,128,0,204658:0:0:0:0:
320,192,204658,128,0,205023:0:0:0:0:
192,192,204658,128,0,205023:0:0:0:0:
448,192,205023,128,0,205498:0:0:0:0:
64,192,205023,128,0,205498:0:0:0:0:
320,192,205498,128,0,205607:0:0:0:0:
192,192,205498,128,0,205607:0:0:0:0:
448,192,205607,128,0,206374:0:0:0:0:
64,192,205607,128,0,206374:0:0:0:0:
320,192,206374,1,0,0:0:0:0:
192,192,206374,1,0,0:0:0:0:
448,192,206593,1,0,0:0:0:0:
64,192,206593,1,0,0:0:0:0:
320,192,206702,1,0,0:0:0:0:
192,192,206702,1,0,0:0:0:0:
64,192,206812,1,0,0:0:0:0:
448,192,206812,1,0,0:0:0:0:
320,192,206921,1,0,0:0:0:0:
192,192,206921,1,0,0:0:0:0:
448,192,207031,128,0,207906:0:0:0:0:
64,192,207031,128,0,207906:0:0:0:0:
192,192,207250,1,0,0:0:0:0:
320,192,207469,1,0,0:0:0:0:
192,192,207687,1,0,0:0:0:0:
320,192,207906,128,0,208016:0:0:0:0:
192,192,207906,128,0,208016:0:0:0:0:
448,192,208016,128,0,208235:0:0:0:0:
64,192,208125,1,0,0:0:0:0:
320,192,208235,128,0,208454:0:0:0:0:
64,192,208454,128,0,208563:0:0:0:0:
192,192,208563,128,0,208782:0:0:0:0:
448,192,208563,1,0,0:0:0:0:
320,192,208782,128,0,209220:0:0:0:0:
448,192,208782,1,0,0:0:0:0:
64,192,208782,1,0,0:0:0:0:
448,192,209001,128,0,209220:0:0:0:0:
64,192,209147,128,0,209220:0:0:0:0:
192,192,209220,128,0,209439:0:0:0:0:
448,192,209439,128,0,209768:0:0:0:0:
64,192,209439,128,0,209768:0:0:0:0:
192,192,209659,1,0,0:0:0:0:
320,192,209659,1,0,0:0:0:0:
320,192,209768,128,0,209987:0:0:0:0:
192,192,209768,128,0,209987:0:0:0:0:
448,192,209987,128,0,210096:0:0:0:0:
64,192,209987,128,0,210096:0:0:0:0:
192,192,210096,128,0,210206:0:0:0:0:
320,192,210206,128,0,210242:0:0:0:0:
448,192,210242,128,0,210279:0:0:0:0:
320,192,210315,128,0,210352:0:0:0:0:
192,192,210352,128,0,210388:0:0:0:0:
64,192,210425,128,0,210461:0:0:0:0:
192,192,210498,128,0,210534:0:0:0:0:
448,192,210534,128,0,210972:0:0:0:0:
320,192,210972,1,0,0:0:0:0:
192,192,210972,1,0,0:0:0:0:
64,192,210972,128,0,211410:0:0:0:0:
320,192,211410,1,0,0:0:0:0:
448,192,211410,1,0,0:0:0:0:
192,192,211410,128,0,212067:0:0:0:0:
320,192,211629,1,0,0:0:0:0:
448,192,211629,1,0,0:0:0:0:
64,192,211629,1,0,0:0:0:0:
320,192,211848,1,0,0:0:0:0:
448,192,211848,1,0,0:0:0:0:
64,192,211848,1,0,0:0:0:0:
448,192,212067,128,0,212505:0:0:0:0:
320,192,212067,128,0,212505:0:0:0:0:
64,192,212067,128,0,212505:0:0:0:0:
448,192,214038,1,0,0:0:0:0:
320,192,214038,1,0,0:0:0:0:
192,192,214038,1,0,0:0:0:0:
64,192,214038,1,0,0:0:0:0:
448,192,214914,1,0,0:0:0:0:
64,192,214914,1,0,0:0:0:0:
192,192,215023,1,0,0:0:0:0:
320,192,215023,1,0,0:0:0:0:
320,192,215242,1,0,0:0:0:0:
64,192,215242,1,0,0:0:0:0:
448,192,215352,1,0,0:0:0:0:
192,192,215352,1,0,0:0:0:0:
448,192,215571,1,0,0:0:0:0:
320,192,215571,128,0,216009:0:0:0:0:
64,192,215571,128,0,216009:0:0:0:0:
192,192,215571,1,0,0:0:0:0:
192,192,216009,1,0,0:0:0:0:
448,192,216009,1,0,0:0:0:0:
192,192,216228,1,0,0:0:0:0:
448,192,216447,1,0,0:0:0:0:
192,192,216447,1,0,0:0:0:0:
320,192,216556,1,0,0:0:0:0:
448,192,216666,1,0,0:0:0:0:
64,192,216666,1,0,0:0:0:0:
320,192,216775,1,0,0:0:0:0:
448,192,216885,1,0,0:0:0:0:
192,192,216885,1,0,0:0:0:0:
64,192,216994,1,0,0:0:0:0:
320,192,217030,1,0,0:0:0:0:
448,192,217104,1,0,0:0:0:0:
192,192,217140,1,0,0:0:0:0:
320,192,217213,1,0,0:0:0:0:
64,192,217213,1,0,0:0:0:0:
192,192,217323,1,0,0:0:0:0:
448,192,217323,1,0,0:0:0:0:
320,192,217432,1,0,0:0:0:0:
64,192,217432,1,0,0:0:0:0:
448,192,217541,128,0,217979:0:0:0:0:
192,192,217541,128,0,217979:0:0:0:0:
64,192,217979,128,0,218198:0:0:0:0:
192,192,218198,128,0,218417:0:0:0:0:
320,192,218308,1,0,0:0:0:0:
64,192,218417,128,0,218636:0:0:0:0:
448,192,218417,1,0,0:0:0:0:
320,192,218527,1,0,0:0:0:0:
192,192,218636,1,0,0:0:0:0:
448,192,218636,128,0,219293:0:0:0:0:
192,192,218855,1,0,0:0:0:0:
64,192,218855,1,0,0:0:0:0:
320,192,219074,128,0,219293:0:0:0:0:
192,192,219293,128,0,219731:0:0:0:0:
64,192,219293,128,0,219731:0:0:0:0:
320,192,219731,1,0,0:0:0:0:
448,192,219731,1,0,0:0:0:0:
448,192,219950,1,0,0:0:0:0:
320,192,219950,128,0,220169:0:0:0:0:
64,192,219950,1,0,0:0:0:0:
192,192,219950,128,0,220169:0:0:0:0:
448,192,220169,128,0,220607:0:0:0:0:
64,192,220169,128,0,220607:0:0:0:0:
192,192,220607,1,0,0:0:0:0:
320,192,220607,1,0,0:0:0:0:
320,192,220826,1,0,0:0:0:0:
448,192,220826,1,0,0:0:0:0:
192,192,220936,1,0,0:0:0:0:
64,192,220936,1,0,0:0:0:0:
320,192,221045,128,0,221483:0:0:0:0:
448,192,221045,1,0,0:0:0:0:
192,192,221483,1,0,0:0:0:0:
448,192,221483,128,0,221702:0:0:0:0:
320,192,221702,128,0,222140:0:0:0:0:
192,192,221921,1,0,0:0:0:0:
448,192,221921,1,0,0:0:0:0:
64,192,222031,1,0,0:0:0:0:
192,192,222140,128,0,222578:0:0:0:0:
448,192,222140,1,0,0:0:0:0:
448,192,222359,1,0,0:0:0:0:
64,192,222359,1,0,0:0:0:0:
320,192,222578,128,0,222906:0:0:0:0:
64,192,222578,1,0,0:0:0:0:
448,192,222687,1,0,0:0:0:0:
64,192,222797,1,0,0:0:0:0:
192,192,222906,128,0,223235:0:0:0:0:
448,192,222906,1,0,0:0:0:0:
64,192,223235,128,0,223454:0:0:0:0:
320,192,223235,1,0,0:0:0:0:
448,192,223235,1,0,0:0:0:0:
192,192,223454,128,0,223673:0:0:0:0:
448,192,223454,1,0,0:0:0:0:
320,192,223563,1,0,0:0:0:0:
448,192,223673,128,0,224111:0:0:0:0:
64,192,223673,1,0,0:0:0:0:
320,192,223782,1,0,0:0:0:0:
64,192,223892,1,0,0:0:0:0:
192,192,223892,1,0,0:0:0:0:
64,192,224111,1,0,0:0:0:0:
320,192,224111,128,0,224439:0:0:0:0:
192,192,224330,1,0,0:0:0:0:
64,192,224439,1,0,0:0:0:0:
192,192,224549,128,0,224768:0:0:0:0:
448,192,224549,1,0,0:0:0:0:
320,192,224768,128,0,225206:0:0:0:0:
64,192,224768,1,0,0:0:0:0:
192,192,224987,1,0,0:0:0:0:
64,192,224987,1,0,0:0:0:0:
448,192,225206,128,0,225644:0:0:0:0:
64,192,225206,1,0,0:0:0:0:
192,192,225315,1,0,0:0:0:0:
64,192,225425,1,0,0:0:0:0:
320,192,225425,1,0,0:0:0:0:
192,192,225534,1,0,0:0:0:0:
320,192,225644,1,0,0:0:0:0:
64,192,225644,1,0,0:0:0:0:
192,192,225753,1,0,0:0:0:0:
448,192,225863,1,0,0:0:0:0:
64,192,225863,1,0,0:0:0:0:
320,192,225863,1,0,0:0:0:0:
192,192,225972,1,0,0:0:0:0:
64,192,226082,1,0,0:0:0:0:
448,192,226082,1,0,0:0:0:0:
192,192,226191,1,0,0:0:0:0:
320,192,226301,1,0,0:0:0:0:
448,192,226301,1,0,0:0:0:0:
64,192,226410,1,0,0:0:0:0:
192,192,226410,1,0,0:0:0:0:
320,192,226520,1,0,0:0:0:0:
448,192,226520,1,0,0:0:0:0:
64,192,226629,1,0,0:0:0:0:
192,192,226629,1,0,0:0:0:0:
320,192,226739,1,0,0:0:0:0:
448,192,226739,1,0,0:0:0:0:
64,192,226848,1,0,0:0:0:0:
192,192,226848,1,0,0:0:0:0:
448,192,226958,1,0,0:0:0:0:
320,192,227067,1,0,0:0:0:0:
64,192,227067,1,0,0:0:0:0:
192,192,227177,1,0,0:0:0:0:
448,192,227286,1,0,0:0:0:0:
320,192,227396,1,0,0:0:0:0:
64,192,227396,1,0,0:0:0:0:
448,192,227505,1,0,0:0:0:0:
192,192,227505,1,0,0:0:0:0:
320,192,227614,1,0,0:0:0:0:
64,192,227616,1,0,0:0:0:0:
192,192,227724,1,0,0:0:0:0:
64,192,227797,1,0,0:0:0:0:
448,192,227833,1,0,0:0:0:0:
192,192,227943,1,0,0:0:0:0:
64,192,228052,128,0,228271:0:0:0:0:
448,192,228052,128,0,228271:0:0:0:0:
192,192,228490,1,0,0:0:0:0:
320,192,228490,1,0,0:0:0:0:
64,192,228600,1,0,0:0:0:0:
448,192,228602,1,0,0:0:0:0:
320,192,228709,1,0,0:0:0:0:
192,192,228709,1,0,0:0:0:0:
448,192,228819,1,0,0:0:0:0:
64,192,228819,1,0,0:0:0:0:
320,192,228928,128,0,229366:0:0:0:0:
192,192,228928,128,0,229366:0:0:0:0:
64,192,229366,1,0,0:0:0:0:
448,192,229366,1,0,0:0:0:0:
448,192,229585,128,0,230023:0:0:0:0:
192,192,229695,1,0,0:0:0:0:
64,192,229804,1,0,0:0:0:0:
320,192,229804,1,0,0:0:0:0:
192,192,230023,1,0,0:0:0:0:
320,192,230023,1,0,0:0:0:0:
64,192,230023,128,0,231337:0:0:0:0:
320,192,230242,1,0,0:0:0:0:
192,192,230461,1,0,0:0:0:0:
448,192,230461,1,0,0:0:0:0:
320,192,230571,1,0,0:0:0:0:
448,192,230680,1,0,0:0:0:0:
320,192,230790,1,0,0:0:0:0:
192,192,230899,1,0,0:0:0:0:
448,192,230899,1,0,0:0:0:0:
320,192,231118,1,0,0:0:0:0:
448,192,231118,1,0,0:0:0:0:
192,192,231337,1,0,0:0:0:0:
448,192,231337,1,0,0:0:0:0:
320,192,231556,128,0,231994:0:0:0:0:
64,192,231556,128,0,231994:0:0:0:0:
448,192,231994,128,0,233527:0:0:0:0:
192,192,232104,1,0,0:0:0:0:
64,192,232213,1,0,0:0:0:0:
192,192,232323,1,0,0:0:0:0:
320,192,232323,1,0,0:0:0:0:
64,192,232432,1,0,0:0:0:0:
192,192,232541,1,0,0:0:0:0:
320,192,232541,1,0,0:0:0:0:
64,192,232651,1,0,0:0:0:0:
192,192,232870,1,0,0:0:0:0:
320,192,233089,1,0,0:0:0:0:
192,192,233198,1,0,0:0:0:0:
320,192,233308,1,0,0:0:0:0:
64,192,233308,128,0,233527:0:0:0:0:
192,192,233527,1,0,0:0:0:0:
320,192,233636,1,0,0:0:0:0:
448,192,233746,1,0,0:0:0:0:
192,192,233746,1,0,0:0:0:0:
192,192,233965,1,0,0:0:0:0:
64,192,233965,1,0,0:0:0:0:
320,192,234074,1,0,0:0:0:0:
448,192,234074,1,0,0:0:0:0:
64,192,234184,1,0,0:0:0:0:
192,192,234293,1,0,0:0:0:0:
64,192,234403,1,0,0:0:0:0:
448,192,234403,1,0,0:0:0:0:
320,192,234512,1,0,0:0:0:0:
448,192,234622,1,0,0:0:0:0:
192,192,234622,1,0,0:0:0:0:
448,192,234841,1,0,0:0:0:0:
320,192,234841,1,0,0:0:0:0:
192,192,234841,128,0,235279:0:0:0:0:
64,192,234841,128,0,235279:0:0:0:0:
320,192,235279,128,0,235498:0:0:0:0:
448,192,235279,128,0,235498:0:0:0:0:
192,192,235498,1,0,0:0:0:0:
64,192,235498,128,0,235936:0:0:0:0:
320,192,235717,1,0,0:0:0:0:
448,192,235826,1,0,0:0:0:0:
192,192,235936,128,0,236374:0:0:0:0:
320,192,235936,1,0,0:0:0:0:
448,192,236045,1,0,0:0:0:0:
64,192,236155,1,0,0:0:0:0:
320,192,236374,1,0,0:0:0:0:
64,192,236374,1,0,0:0:0:0:
448,192,236374,1,0,0:0:0:0:
448,192,236593,1,0,0:0:0:0:
64,192,236593,1,0,0:0:0:0:
192,192,236812,1,0,0:0:0:0:
320,192,237031,1,0,0:0:0:0:
64,192,237031,1,0,0:0:0:0:
448,192,237250,1,0,0:0:0:0:
64,192,237250,1,0,0:0:0:0:
320,192,237469,1,0,0:0:0:0:
448,192,237687,1,0,0:0:0:0:
192,192,237687,1,0,0:0:0:0:
320,192,237906,1,0,0:0:0:0:
192,192,237906,1,0,0:0:0:0:
448,192,238125,1,0,0:0:0:0:
64,192,238125,1,0,0:0:0:0:
448,192,238344,128,0,239330:0:0:0:0:
64,192,238344,128,0,239330:0:0:0:0:
192,192,238344,1,0,0:0:0:0:
320,192,238344,1,0,0:0:0:0:
192,192,238563,1,0,0:0:0:0:
320,192,239001,1,0,0:0:0:0:
192,192,239001,1,0,0:0:0:0:
192,192,239220,1,0,0:0:0:0:
320,192,239330,1,0,0:0:0:0:
192,192,239439,1,0,0:0:0:0:
320,192,239549,1,0,0:0:0:0:
192,192,239658,1,0,0:0:0:0:
320,192,239768,1,0,0:0:0:0:
448,192,239877,128,0,240096:0:0:0:0:
64,192,239877,128,0,240096:0:0:0:0:
192,192,239877,1,0,0:0:0:0:
320,192,240096,128,0,240425:0:0:0:0:
192,192,240096,128,0,240425:0:0:0:0:
320,192,240644,128,0,240972:0:0:0:0:
192,192,240644,128,0,240972:0:0:0:0:
448,192,240972,128,0,241191:0:0:0:0:
64,192,240972,128,0,241191:0:0:0:0:
192,192,241191,1,0,0:0:0:0:
320,192,241191,1,0,0:0:0:0:
448,192,241410,1,0,0:0:0:0:
64,192,241410,1,0,0:0:0:0:
64,192,241629,128,0,241903:0:0:0:0:
192,192,241629,128,0,241903:0:0:0:0:
320,192,241629,128,0,241903:0:0:0:0:
448,192,241629,128,0,241903:0:0:0:0:
64,192,241958,128,0,242943:0:0:0:0:
192,192,241958,128,0,242943:0:0:0:0:
320,192,241958,128,0,242943:0:0:0:0:
448,192,241958,128,0,242943:0:0:0:0:
320,192,243162,1,0,0:0:0:0:
192,192,243162,1,0,0:0:0:0:
448,192,243162,128,0,243600:0:0:0:0:
64,192,243259,1,0,0:0:0:0:
192,192,243381,1,0,0:0:0:0:
64,192,243490,1,0,0:0:0:0:
320,192,243490,1,0,0:0:0:0:
64,192,243600,128,0,243819:0:0:0:0:
192,192,243600,1,0,0:0:0:0:
320,192,243709,1,0,0:0:0:0:
448,192,243819,1,0,0:0:0:0:
192,192,243819,1,0,0:0:0:0:
448,192,244257,128,0,244476:0:0:0:0:
64,192,244257,128,0,244476:0:0:0:0:
320,192,244476,128,0,244804:0:0:0:0:
192,192,244476,128,0,244804:0:0:0:0:
320,192,245023,128,0,245352:0:0:0:0:
448,192,245023,128,0,245352:0:0:0:0:
64,192,245352,128,0,247323:0:0:0:0:
448,192,245571,1,0,0:0:0:0:
320,192,245573,1,0,0:0:0:0:
192,192,245680,1,0,0:0:0:0:
448,192,245790,1,0,0:0:0:0:
320,192,245899,1,0,0:0:0:0:
192,192,246009,1,0,0:0:0:0:
320,192,246118,1,0,0:0:0:0:
448,192,246228,1,0,0:0:0:0:
320,192,246301,1,0,0:0:0:0:
192,192,246337,1,0,0:0:0:0:
320,192,246447,1,0,0:0:0:0:
448,192,246447,1,0,0:0:0:0:
192,192,246666,1,0,0:0:0:0:
320,192,246666,1,0,0:0:0:0:
448,192,246885,1,0,0:0:0:0:
192,192,246885,1,0,0:0:0:0:
320,192,246994,1,0,0:0:0:0:
448,192,247104,1,0,0:0:0:0:
320,192,247213,1,0,0:0:0:0:
448,192,247323,1,0,0:0:0:0:
192,192,247323,1,0,0:0:0:0:
448,192,247541,128,0,248417:0:0:0:0:
320,192,247541,128,0,247760:0:0:0:0:
192,192,247760,1,0,0:0:0:0:
64,192,247760,128,0,247979:0:0:0:0:
320,192,247979,128,0,248198:0:0:0:0:
192,192,248198,128,0,248417:0:0:0:0:
64,192,248198,1,0,0:0:0:0:
448,192,248636,1,0,0:0:0:0:
320,192,248636,1,0,0:0:0:0:
192,192,248636,1,0,0:0:0:0:
64,192,248636,1,0,0:0:0:0:
192,192,248855,128,0,249074:0:0:0:0:
64,192,248855,128,0,249731:0:0:0:0:
448,192,248855,1,0,0:0:0:0:
448,192,249074,128,0,249293:0:0:0:0:
320,192,249074,1,0,0:0:0:0:
320,192,249293,1,0,0:0:0:0:
192,192,249293,128,0,249512:0:0:0:0:
320,192,249512,128,0,249731:0:0:0:0:
448,192,249512,1,0,0:0:0:0:
448,192,249731,1,0,0:0:0:0:
448,192,249950,1,0,0:0:0:0:
192,192,249950,1,0,0:0:0:0:
320,192,250169,1,0,0:0:0:0:
448,192,250388,1,0,0:0:0:0:
64,192,250388,1,0,0:0:0:0:
320,192,250607,1,0,0:0:0:0:
64,192,250607,1,0,0:0:0:0:
192,192,250826,1,0,0:0:0:0:
320,192,250826,1,0,0:0:0:0:
448,192,250826,1,0,0:0:0:0:
448,192,251045,128,0,251264:0:0:0:0:
64,192,251045,128,0,251264:0:0:0:0:
320,192,251264,1,0,0:0:0:0:
192,192,251264,128,0,251483:0:0:0:0:
320,192,251483,128,0,251702:0:0:0:0:
448,192,251483,1,0,0:0:0:0:
448,192,251702,1,0,0:0:0:0:
192,192,251702,1,0,0:0:0:0:
64,192,251702,128,0,251921:0:0:0:0:
320,192,251921,1,0,0:0:0:0:
448,192,252140,1,0,0:0:0:0:
192,192,252140,1,0,0:0:0:0:
64,192,252140,1,0,0:0:0:0:
320,192,252359,128,0,252578:0:0:0:0:
192,192,252359,128,0,252578:0:0:0:0:
64,192,252578,1,0,0:0:0:0:
448,192,252578,128,0,252797:0:0:0:0:
320,192,252797,1,0,0:0:0:0:
192,192,252797,128,0,253016:0:0:0:0:
64,192,253016,1,0,0:0:0:0:
448,192,253016,128,0,253235:0:0:0:0:
320,192,253235,1,0,0:0:0:0:
64,192,253235,1,0,0:0:0:0:
448,192,253454,1,0,0:0:0:0:
64,192,253454,1,0,0:0:0:0:
192,192,253454,1,0,0:0:0:0:
320,192,253673,1,0,0:0:0:0:
448,192,253673,1,0,0:0:0:0:
64,192,253673,1,0,0:0:0:0:
320,192,253892,1,0,0:0:0:0:
192,192,253892,1,0,0:0:0:0:
448,192,254111,1,0,0:0:0:0:
320,192,254111,1,0,0:0:0:0:
64,192,254330,1,0,0:0:0:0:
192,192,254330,1,0,0:0:0:0:
320,192,254549,1,0,0:0:0:0:
64,192,254549,128,0,254768:0:0:0:0:
192,192,254768,1,0,0:0:0:0:
320,192,254768,1,0,0:0:0:0:
448,192,254768,128,0,254987:0:0:0:0:
192,192,254987,1,0,0:0:0:0:
64,192,254987,128,0,255206:0:0:0:0:
192,192,255206,128,0,255425:0:0:0:0:
320,192,255206,128,0,255425:0:0:0:0:
448,192,255206,1,0,0:0:0:0:
448,192,255425,1,0,0:0:0:0:
64,192,255425,1,0,0:0:0:0:
448,192,255644,1,0,0:0:0:0:
320,192,255644,1,0,0:0:0:0:
192,192,255644,1,0,0:0:0:0:
64,192,255644,1,0,0:0:0:0:
448,192,255863,128,0,256082:0:0:0:0:
192,192,255863,1,0,0:0:0:0:
320,192,256082,1,0,0:0:0:0:
64,192,256082,128,0,256301:0:0:0:0:
320,192,256301,1,0,0:0:0:0:
192,192,256301,1,0,0:0:0:0:
448,192,256301,128,0,256520:0:0:0:0:
320,192,256520,128,0,256739:0:0:0:0:
192,192,256520,128,0,256739:0:0:0:0:
64,192,256520,1,0,0:0:0:0:
448,192,256739,1,0,0:0:0:0:
64,192,256739,1,0,0:0:0:0:
64,192,256958,1,0,0:0:0:0:
320,192,257177,1,0,0:0:0:0:
192,192,257177,1,0,0:0:0:0:
192,192,257396,1,0,0:0:0:0:
448,192,257396,1,0,0:0:0:0:
320,192,257614,1,0,0:0:0:0:
64,192,257833,1,0,0:0:0:0:
192,192,257833,1,0,0:0:0:0:
320,192,258052,128,0,258928:0:0:0:0:
448,192,258052,1,0,0:0:0:0:
192,192,258271,1,0,0:0:0:0:
64,192,258271,1,0,0:0:0:0:
192,192,258490,1,0,0:0:0:0:
448,192,258490,1,0,0:0:0:0:
192,192,258709,1,0,0:0:0:0:
64,192,258709,1,0,0:0:0:0:
448,192,258928,1,0,0:0:0:0:
192,192,258928,128,0,259366:0:0:0:0:
320,192,259147,1,0,0:0:0:0:
64,192,259147,1,0,0:0:0:0:
320,192,259366,128,0,259585:0:0:0:0:
448,192,259366,1,0,0:0:0:0:
64,192,259366,1,0,0:0:0:0:
448,192,259585,128,0,259804:0:0:0:0:
64,192,259585,1,0,0:0:0:0:
192,192,259804,128,0,260023:0:0:0:0:
64,192,259804,128,0,260023:0:0:0:0:
320,192,260023,128,0,260242:0:0:0:0:
448,192,260023,128,0,260242:0:0:0:0:
64,192,260242,1,0,0:0:0:0:
192,192,260242,1,0,0:0:0:0:
192,192,260461,1,0,0:0:0:0:
320,192,260461,1,0,0:0:0:0:
448,192,260680,1,0,0:0:0:0:
64,192,260680,1,0,0:0:0:0:
320,192,260899,1,0,0:0:0:0:
448,192,260899,1,0,0:0:0:0:
448,192,261118,1,0,0:0:0:0:
192,192,261118,1,0,0:0:0:0:
64,192,261118,1,0,0:0:0:0:
320,192,261228,1,0,0:0:0:0:
448,192,261337,1,0,0:0:0:0:
192,192,261337,1,0,0:0:0:0:
64,192,261337,1,0,0:0:0:0:
448,192,261556,128,0,261775:0:0:0:0:
320,192,261556,128,0,261775:0:0:0:0:
192,192,261775,128,0,261994:0:0:0:0:
64,192,261775,128,0,261994:0:0:0:0:
320,192,261994,128,0,262213:0:0:0:0:
448,192,261994,128,0,262213:0:0:0:0:
192,192,262213,128,0,262432:0:0:0:0:
64,192,262213,128,0,262432:0:0:0:0:
448,192,262432,1,0,0:0:0:0:
192,192,262651,1,0,0:0:0:0:
320,192,262651,1,0,0:0:0:0:
448,192,262870,1,0,0:0:0:0:
320,192,262870,128,0,263089:0:0:0:0:
64,192,262870,128,0,263089:0:0:0:0:
192,192,262870,1,0,0:0:0:0:
448,192,263089,128,0,263308:0:0:0:0:
192,192,263089,128,0,263308:0:0:0:0:
64,192,263308,128,0,263527:0:0:0:0:
320,192,263308,128,0,263527:0:0:0:0:
448,192,263527,128,0,263746:0:0:0:0:
192,192,263527,128,0,263746:0:0:0:0:
320,192,263746,1,0,0:0:0:0:
64,192,263746,1,0,0:0:0:0:
448,192,263965,1,0,0:0:0:0:
192,192,263965,1,0,0:0:0:0:
320,192,264184,1,0,0:0:0:0:
192,192,264184,1,0,0:0:0:0:
64,192,264403,1,0,0:0:0:0:
448,192,264403,1,0,0:0:0:0:
320,192,264622,1,0,0:0:0:0:
192,192,264622,1,0,0:0:0:0:
448,192,264841,1,0,0:0:0:0:
64,192,264841,1,0,0:0:0:0:
192,192,265060,1,0,0:0:0:0:
448,192,265060,128,0,265279:0:0:0:0:
320,192,265279,1,0,0:0:0:0:
192,192,265279,1,0,0:0:0:0:
64,192,265279,128,0,265498:0:0:0:0:
192,192,265498,128,0,265717:0:0:0:0:
320,192,265498,1,0,0:0:0:0:
64,192,265717,1,0,0:0:0:0:
320,192,265717,1,0,0:0:0:0:
448,192,265717,128,0,265936:0:0:0:0:
64,192,265936,1,0,0:0:0:0:
64,192,266155,1,0,0:0:0:0:
192,192,266155,1,0,0:0:0:0:
320,192,266155,1,0,0:0:0:0:
448,192,266155,1,0,0:0:0:0:
64,192,266374,128,0,266593:0:0:0:0:
448,192,266593,128,0,266812:0:0:0:0:
320,192,266812,128,0,267031:0:0:0:0:
192,192,266812,128,0,267031:0:0:0:0:
448,192,267031,128,0,267250:0:0:0:0:
64,192,267031,128,0,267250:0:0:0:0:
320,192,267250,1,0,0:0:0:0:
192,192,267250,1,0,0:0:0:0:
192,192,267469,1,0,0:0:0:0:
448,192,267687,1,0,0:0:0:0:
192,192,267687,1,0,0:0:0:0:
64,192,267687,1,0,0:0:0:0:
320,192,267906,1,0,0:0:0:0:
192,192,268125,1,0,0:0:0:0:
64,192,268125,1,0,0:0:0:0:
320,192,268344,1,0,0:0:0:0:
448,192,268344,1,0,0:0:0:0:
448,192,268563,128,0,268782:0:0:0:0:
64,192,268563,128,0,268782:0:0:0:0:
320,192,268782,128,0,269001:0:0:0:0:
192,192,268782,128,0,269001:0:0:0:0:
448,192,269001,128,0,269220:0:0:0:0:
64,192,269001,128,0,269220:0:0:0:0:
320,192,269220,128,0,269439:0:0:0:0:
192,192,269220,128,0,269439:0:0:0:0:
448,192,269439,1,0,0:0:0:0:
64,192,269439,1,0,0:0:0:0:
448,192,269658,1,0,0:0:0:0:
320,192,269658,1,0,0:0:0:0:
192,192,269658,1,0,0:0:0:0:
64,192,269658,1,0,0:0:0:0:
448,192,269877,128,0,270096:0:0:0:0:
320,192,269877,128,0,270096:0:0:0:0:
64,192,270096,128,0,270753:0:0:0:0:
192,192,270315,128,0,270753:0:0:0:0:
320,192,270534,1,0,0:0:0:0:
448,192,270534,128,0,270753:0:0:0:0:
320,192,270753,128,0,270972:0:0:0:0:
448,192,270972,128,0,271191:0:0:0:0:
64,192,270972,128,0,271191:0:0:0:0:
192,192,271191,1,0,0:0:0:0:
320,192,271191,1,0,0:0:0:0:
448,192,271410,1,0,0:0:0:0:
64,192,271410,1,0,0:0:0:0:
320,192,271629,1,0,0:0:0:0:
192,192,271629,1,0,0:0:0:0:
320,192,271848,1,0,0:0:0:0:
448,192,271848,1,0,0:0:0:0:
192,192,272067,1,0,0:0:0:0:
64,192,272067,128,0,272286:0:0:0:0:
192,192,272286,128,0,272505:0:0:0:0:
320,192,272286,1,0,0:0:0:0:
448,192,272286,1,0,0:0:0:0:
64,192,272505,1,0,0:0:0:0:
320,192,272505,128,0,272724:0:0:0:0:
448,192,272724,128,0,272943:0:0:0:0:
64,192,272724,128,0,272943:0:0:0:0:
192,192,272724,1,0,0:0:0:0:
320,192,273162,1,0,0:0:0:0:
192,192,273162,1,0,0:0:0:0:
448,192,273381,128,0,273600:0:0:0:0:
320,192,273381,1,0,0:0:0:0:
320,192,273600,128,0,273819:0:0:0:0:
192,192,273600,1,0,0:0:0:0:
448,192,273819,1,0,0:0:0:0:
64,192,273819,1,0,0:0:0:0:
192,192,273819,128,0,274038:0:0:0:0:
448,192,274038,128,0,274257:0:0:0:0:
64,192,274038,128,0,274257:0:0:0:0:
320,192,274038,1,0,0:0:0:0:
192,192,274257,1,0,0:0:0:0:
320,192,274257,1,0,0:0:0:0:
448,192,274476,1,0,0:0:0:0:
64,192,274476,1,0,0:0:0:0:
192,192,274695,1,0,0:0:0:0:
320,192,274695,1,0,0:0:0:0:
192,192,274914,1,0,0:0:0:0:
64,192,274914,1,0,0:0:0:0:
320,192,275133,1,0,0:0:0:0:
448,192,275133,1,0,0:0:0:0:
192,192,275242,1,0,0:0:0:0:
64,192,275352,1,0,0:0:0:0:
320,192,275352,1,0,0:0:0:0:
448,192,275571,128,0,275790:0:0:0:0:
320,192,275571,128,0,275790:0:0:0:0:
192,192,275790,128,0,276009:0:0:0:0:
64,192,275790,128,0,276009:0:0:0:0:
448,192,276009,128,0,276228:0:0:0:0:
320,192,276009,128,0,276228:0:0:0:0:
192,192,276228,128,0,276447:0:0:0:0:
64,192,276228,128,0,276447:0:0:0:0:
320,192,276666,1,0,0:0:0:0:
448,192,276666,1,0,0:0:0:0:
192,192,276885,128,0,277104:0:0:0:0:
448,192,277104,128,0,277760:0:0:0:0:
64,192,277323,128,0,277760:0:0:0:0:
192,192,277541,128,0,277760:0:0:0:0:
320,192,277541,128,0,277760:0:0:0:0:
320,192,277979,1,0,0:0:0:0:
448,192,278198,1,0,0:0:0:0:
192,192,278198,1,0,0:0:0:0:
320,192,278417,1,0,0:0:0:0:
64,192,278417,1,0,0:0:0:0:
192,192,278636,1,0,0:0:0:0:
448,192,278636,1,0,0:0:0:0:
320,192,278855,1,0,0:0:0:0:
64,192,278855,1,0,0:0:0:0:
448,192,279074,128,0,279293:0:0:0:0:
320,192,279293,1,0,0:0:0:0:
64,192,279293,1,0,0:0:0:0:
192,192,279293,128,0,279512:0:0:0:0:
64,192,279512,1,0,0:0:0:0:
448,192,279512,128,0,279731:0:0:0:0:
320,192,279731,1,0,0:0:0:0:
64,192,279731,128,0,279950:0:0:0:0:
192,192,280169,1,0,0:0:0:0:
320,192,280169,1,0,0:0:0:0:
448,192,280388,128,0,281264:0:0:0:0:
64,192,280388,1,0,0:0:0:0:
320,192,280388,1,0,0:0:0:0:
192,192,280607,128,0,281264:0:0:0:0:
64,192,280826,128,0,281264:0:0:0:0:
320,192,281045,128,0,281264:0:0:0:0:
320,192,281483,1,0,0:0:0:0:
64,192,281483,1,0,0:0:0:0:
192,192,281702,1,0,0:0:0:0:
448,192,281921,1,0,0:0:0:0:
64,192,281921,1,0,0:0:0:0:
320,192,282140,1,0,0:0:0:0:
192,192,282140,1,0,0:0:0:0:
448,192,282250,1,0,0:0:0:0:
64,192,282250,1,0,0:0:0:0:
320,192,282359,1,0,0:0:0:0:
192,192,282359,1,0,0:0:0:0:
