osu file format v14

[General]
AudioFilename: audio.ogg
AudioLeadIn: 0
PreviewTime: 52930
Countdown: 0
SampleSet: Soft
StackLeniency: 0.7
Mode: 3
LetterboxInBreaks: 0
SpecialStyle: 0
WidescreenStoryboard: 1

[Editor]
DistanceSpacing: 1
BeatDivisor: 2
GridSize: 4
TimelineZoom: 0.7500012

[Metadata]
Title:Deep down (TV Size)
TitleUnicode:Deep down (TV Size)
Artist:Aimer
ArtistUnicode:Aimer
Creator:Akasha-
Version:Normal
Source:チェンソーマン
Tags:Chainsaw Man JPop J-Pop Pop Japanese Ending 9 Nine aimerrhythm 永澤和真 KAZUMA NAGASAWA 玉井健二 Tamai Kenji 百田留衣 Momota Rui SACRA MUSIC Kuo Kyoka
BeatmapID:3942725
BeatmapSetID:1898571

[Difficulty]
HPDrainRate:7
CircleSize:4
OverallDifficulty:6.8
ApproachRate:5
SliderMultiplier:1.4
SliderTickRate:1

[Events]
//Background and Video events
0,0,"83573295_p0.jpg",0,0
Video,1060,"BGA.mp4"
//Break Periods
//Storyboard Layer 0 (Background)
//Storyboard Layer 1 (Fail)
//Storyboard Layer 2 (Pass)
//Storyboard Layer 3 (Foreground)
//Storyboard Layer 4 (Overlay)
//Storyboard Sound Samples

[TimingPoints]
1474,759.493670886076,4,2,1,45,1,8
1854,882.352941176471,4,2,1,45,1,0
1854,-86.2068965517241,4,2,1,45,0,0
2295,759.493670886076,4,2,1,45,1,8
3244,634.920634920635,4,2,1,45,1,8
3244,-119.047619047619,4,2,1,45,0,8
4513,759.493670886076,4,2,1,45,1,8
4702,664.819944598338,4,2,1,45,1,0
4702,-113.636363636364,4,2,1,45,0,0
5366,759.493670886076,4,2,1,45,1,8
5555,720.720720720721,4,2,1,45,1,8
5555,-105.263157894737,4,2,1,45,0,8
6095,882.352941176471,4,2,1,45,1,8
6095,-86.2068965517241,4,2,1,45,0,8
6315,857.142857142857,4,2,1,45,1,8
6315,-88.495575221239,4,2,1,45,0,8
7172,759.493670886076,4,2,1,45,1,8
7551,759.493670886076,4,2,1,45,1,8
8120,937.5,4,2,1,45,1,0
8120,-81.3008130081301,4,2,1,45,0,0
8354,902.255639097744,4,2,1,45,1,8
8354,-84.0336134453782,4,2,1,45,0,8
9256,759.493670886076,4,2,1,45,1,8
9635,1153.84615384615,4,2,1,45,1,8
9635,-65.7894736842105,4,2,1,45,0,8
9923,710.059171597633,4,2,1,45,1,8
9923,-107.52688172043,4,2,1,45,0,8
10633,662.983425414365,4,2,1,45,1,8
10633,-114.942528735632,4,2,1,45,0,8
10964,1048.03493449782,4,2,1,45,1,0
10964,-72.463768115942,4,2,1,45,0,0
12012,666.666666666667,4,2,1,45,1,8
12012,-113.636363636364,4,2,1,45,0,8
12345,566.037735849057,4,2,1,45,1,8
12345,-133.333333333333,4,2,1,45,0,8
12911,779.220779220779,4,2,1,45,1,8
12911,-97.0873786407767,4,2,1,45,0,8
13690,759.493670886076,4,2,1,45,1,0
16727,882.35294117647,4,2,1,45,1,8
16727,-86.2068965517241,4,2,1,45,0,8
16947,1043.47826086957,4,2,1,45,1,0
16947,-72.992700729927,4,2,1,45,0,0
17990,952.380952380952,4,2,1,45,1,8
17990,-80,4,2,1,45,0,8
18466,857.142857142857,4,2,1,45,1,8
18466,-88.495575221239,4,2,1,45,0,8
19323,759.493670886076,4,2,1,45,1,8
20082,759.493670886076,4,2,1,45,1,0
20841,571.428571428571,4,2,1,45,1,8
20841,-133.333333333333,4,2,1,45,0,8
21412,937.5,4,2,1,45,1,8
21412,-81.3008130081301,4,2,1,45,0,8
21646,666.666666666667,4,2,1,45,1,8
21646,-113.636363636364,4,2,1,45,0,8
21979,759.493670886076,4,2,1,45,1,8
22548,857.142857142857,4,2,1,45,1,8
22548,-88.495575221239,4,2,1,45,0,8
22976,1090.90909090909,4,2,1,45,1,0
22976,-69.4444444444444,4,2,1,45,0,0
24066,764.331210191083,4,2,1,45,1,8
24066,-99.009900990099,4,2,1,45,0,8
24639,631.578947368421,4,2,1,45,1,8
24639,-120.481927710843,4,2,1,45,0,8
25270,759.493670886076,4,2,1,45,1,8
25459,705.882352941176,4,2,1,45,1,8
25459,-107.52688172043,4,2,1,45,0,8
25635,571.428571428571,4,2,1,45,1,8
25635,-133.333333333333,4,2,1,45,0,8
25777,759.493670886076,4,2,1,45,1,8
26156,759.493670886076,4,2,1,45,1,0
26726,618.556701030928,4,2,1,45,1,8
26726,-123.456790123457,4,2,1,45,0,8
27344,666.666666666667,4,2,1,45,1,8
27344,-113.636363636364,4,2,1,45,0,8
27510,944.88188976378,4,2,1,45,1,8
27510,-80.6451612903226,4,2,1,45,0,8
27746,571.428571428571,4,2,1,45,1,8
27746,-133.333333333333,4,2,1,45,0,8
27888,666.666666666667,4,2,1,45,1,8
27888,-113.636363636364,4,2,1,45,0,8
28221,1000,4,2,1,45,1,8
28221,-75.7575757575758,4,2,1,45,0,8
28471,800,4,2,1,45,1,8
28471,-95.2380952380952,4,2,1,45,0,8
28671,576.923076923077,4,2,1,45,1,8
28671,-131.578947368421,4,2,1,45,0,8
28815,759.493670886076,4,2,1,45,1,8
29194,857.142857142857,4,2,1,45,1,0
29194,-88.495575221239,4,2,1,45,0,0
29622,759.493670886076,4,2,1,45,1,8
30381,666.666666666667,4,2,1,45,1,8
30381,-113.636363636364,4,2,1,45,0,8
30714,1043.47826086957,4,2,1,45,1,8
30714,-72.992700729927,4,2,1,45,0,8
30974,612.244897959184,4,2,1,45,1,8
30974,-123.456790123457,4,2,1,45,0,8
31127,759.493670886076,4,2,1,45,1,8
31316,631.578947368421,4,2,1,45,1,8
31316,-120.481927710843,4,2,1,45,0,8
31473,759.493670886076,4,2,1,45,1,8
31473,-100,4,2,1,45,0,8
31663,857.142857142857,4,2,1,45,1,8
31663,-88.495575221239,4,2,1,45,0,8
31877,759.493670886076,4,2,1,45,1,8
32066,857.142857142857,4,2,1,45,1,8
32066,-88.495575221239,4,2,1,45,0,8
32280,666.666666666667,4,2,1,45,1,0
32280,-113.636363636364,4,2,1,45,0,0
32446,916.030534351145,4,2,1,45,1,8
32446,-82.6446280991736,4,2,1,45,0,8
32675,697.674418604651,4,2,1,45,1,8
32675,-108.695652173913,4,2,1,45,0,8
33372,759.493670886076,4,2,1,45,1,8
34131,895.522388059701,4,2,1,45,1,8
34131,-84.7457627118644,4,2,1,45,0,8
34354,697.674418604651,4,2,1,45,1,8
34354,-108.695652173913,4,2,1,45,0,8
34702,821.917808219178,4,2,1,45,1,8
34702,-92.5925925925926,4,2,1,45,0,8
35112,895.522388059701,4,2,1,45,1,8
35112,-84.7457627118644,4,2,1,45,0,8
35335,727.272727272727,4,2,1,45,1,0
35335,-104.166666666667,4,2,1,45,0,0
36789,759.493670886076,4,2,1,45,1,8
38307,857.142857142857,4,2,1,45,1,0
38307,-88.495575221239,4,2,1,45,0,0
38735,759.493670886076,4,2,1,45,1,8
39114,666.666666666667,4,2,1,45,1,8
39114,-113.636363636364,4,2,1,45,0,8
39447,952.380952380952,4,2,1,45,1,8
39447,-80,4,2,1,45,0,8
39685,759.493670886076,4,2,1,45,1,8
41203,571.428571428571,4,2,1,45,1,8
41203,-133.333333333333,4,2,1,45,0,8
41345,857.142857142857,4,2,1,45,1,0
41345,-88.495575221239,4,2,1,45,0,0
41773,759.493670886076,4,2,1,45,1,8
42725,759.493670886076,4,2,1,45,1,8
44243,571.428571428571,4,2,1,45,1,8
44243,-133.333333333333,4,2,1,45,0,8
44385,952.380952380952,4,2,1,45,1,0
44385,-80,4,2,1,45,0,0
44861,857.142857142857,4,2,1,45,1,8
44861,-88.495575221239,4,2,1,45,0,8
45718,1000,4,2,1,45,1,8
45718,-75.7575757575758,4,2,1,45,0,8
45968,634.920634920635,4,2,1,45,1,8
45968,-119.047619047619,4,2,1,45,0,8
47237,759.493670886076,4,2,1,45,1,8
47426,759.493670886076,4,2,1,45,1,0
47805,857.142857142857,4,2,1,45,1,8
47805,-88.495575221239,4,2,1,45,0,8
48233,800,4,2,1,45,1,8
48233,-95.2380952380952,4,2,1,45,0,8
48633,759.493670886076,4,2,1,45,1,8
49012,725.075528700906,4,2,1,45,1,8
49012,-105.263157894737,4,2,1,45,0,8
50462,759.493670886076,4,2,1,45,1,0
52930,-100,4,2,1,80,0,0
53499,759.493670886076,4,2,1,80,1,1
65461,-100,4,2,1,80,0,0
65650,-100,4,2,1,80,0,1
77802,705.882352941176,4,2,1,45,1,0
77802,-107.52688172043,4,2,1,45,0,0
79213,800,4,2,1,45,1,8
79213,-95.2380952380952,4,2,1,45,0,8
80813,800,4,2,1,45,1,0
80813,-95.2380952380952,4,2,1,45,0,0
82413,827.586206896552,4,2,1,45,1,8
82413,-91.743119266055,4,2,1,45,0,8
84068,909.090909090909,4,2,1,10,1,0
84068,-83.3333333333333,4,2,1,10,0,0
84977,714.285714285714,4,2,1,10,1,8
84977,-106.382978723404,4,2,1,10,0,8
85691,845.070422535211,4,2,1,10,1,8
85691,-90.0900900900901,4,2,1,10,0,8
86536,952.380952380952,4,2,1,10,1,8
86536,-80,4,2,1,10,0,8

[HitObjects]
192,192,1474,5,0,0:0:0:0:
320,192,1663,1,0,0:0:0:0:
192,192,1853,128,0,2295:0:0:0:0:
64,192,2295,1,0,0:0:0:0:
448,192,2484,128,0,3054:0:0:0:0:
320,192,3054,1,0,0:0:0:0:
64,192,3244,128,0,4037:0:0:0:0:
192,192,4513,1,0,0:0:0:0:
192,192,4702,128,0,5366:0:0:0:0:
64,192,5366,1,0,0:0:0:0:
320,192,5555,128,0,6095:0:0:0:0:
448,192,6095,1,0,0:0:0:0:
64,192,6315,128,0,7172:0:0:0:0:
192,192,7172,1,0,0:0:0:0:
448,192,7645,128,0,8120:0:0:0:0:
320,192,8120,1,0,0:0:0:0:
320,192,8354,128,0,9256:0:0:0:0:
64,192,9256,1,0,0:0:0:0:
192,192,9445,1,0,0:0:0:0:
320,192,9635,1,0,0:0:0:0:
448,192,9923,128,0,10633:0:0:0:0:
64,192,10633,1,0,0:0:0:0:
64,192,10964,128,0,12012:0:0:0:0:
192,192,12012,1,0,0:0:0:0:
192,192,12345,128,0,12911:0:0:0:0:
448,192,12911,128,0,13300:0:0:0:0:
64,192,13690,1,0,0:0:0:0:
448,192,13943,128,0,14955:0:0:0:0:
64,192,15208,1,0,0:0:0:0:
320,192,15462,128,0,16474:0:0:0:0:
448,192,16727,1,0,0:0:0:0:
192,192,16947,128,0,17990:0:0:0:0:
320,192,17990,1,0,0:0:0:0:
192,192,18228,1,0,0:0:0:0:
64,192,18466,128,0,19001:0:0:0:0:
448,192,19323,1,0,0:0:0:0:
192,192,19512,1,0,0:0:0:0:
320,192,19702,1,0,0:0:0:0:
64,192,19892,1,0,0:0:0:0:
192,192,20082,128,0,20556:0:0:0:0:
448,192,20841,1,0,0:0:0:0:
448,192,21126,128,0,21646:0:0:0:0:
64,192,21646,128,0,21979:0:0:0:0:
320,192,21979,1,0,0:0:0:0:
320,192,22168,128,0,22548:0:0:0:0:
192,192,22548,1,0,0:0:0:0:
448,192,22762,1,0,0:0:0:0:
64,192,22976,128,0,24066:0:0:0:0:
192,192,24066,1,0,0:0:0:0:
448,192,24257,1,0,0:0:0:0:
448,192,24639,128,0,25112:0:0:0:0:
192,192,25270,1,0,0:0:0:0:
320,192,25459,1,0,0:0:0:0:
64,192,25635,1,0,0:0:0:0:
192,192,25777,1,0,0:0:0:0:
320,192,25966,1,0,0:0:0:0:
64,192,26156,1,0,0:0:0:0:
448,192,26156,1,0,0:0:0:0:
64,192,26535,128,0,27035:0:0:0:0:
64,192,27344,1,0,0:0:0:0:
320,192,27510,1,0,0:0:0:0:
192,192,27746,1,0,0:0:0:0:
448,192,27888,1,0,0:0:0:0:
320,192,28054,1,0,0:0:0:0:
64,192,28221,1,0,0:0:0:0:
448,192,28471,1,0,0:0:0:0:
192,192,28671,1,0,0:0:0:0:
64,192,28815,1,0,0:0:0:0:
320,192,29004,1,0,0:0:0:0:
192,192,29194,1,0,0:0:0:0:
448,192,29408,1,0,0:0:0:0:
320,192,29622,128,0,30001:0:0:0:0:
64,192,30381,1,0,0:0:0:0:
192,192,30547,1,0,0:0:0:0:
320,192,30714,1,0,0:0:0:0:
64,192,30974,1,0,0:0:0:0:
320,192,31127,1,0,0:0:0:0:
448,192,31316,1,0,0:0:0:0:
192,192,31473,1,0,0:0:0:0:
320,192,31663,1,0,0:0:0:0:
64,192,31877,1,0,0:0:0:0:
448,192,32066,1,0,0:0:0:0:
320,192,32280,1,0,0:0:0:0:
192,192,32446,1,0,0:0:0:0:
64,192,32675,128,0,33023:0:0:0:0:
192,192,33372,1,0,0:0:0:0:
320,192,33588,1,0,0:0:0:0:
192,192,33805,128,0,34131:0:0:0:0:
64,192,34131,1,0,0:0:0:0:
448,192,34354,128,0,34702:0:0:0:0:
192,192,34702,1,0,0:0:0:0:
320,192,34907,1,0,0:0:0:0:
192,192,35112,1,0,0:0:0:0:
64,192,35335,128,0,37738:0:0:0:0:
320,192,38735,1,0,0:0:0:0:
192,192,38924,1,0,0:0:0:0:
320,192,39114,128,0,39447:0:0:0:0:
64,192,39447,1,0,0:0:0:0:
448,192,39685,128,0,40064:0:0:0:0:
192,192,40064,128,0,40444:0:0:0:0:
320,192,40444,128,0,40824:0:0:0:0:
64,192,40824,128,0,41203:0:0:0:0:
192,192,41203,128,0,41559:0:0:0:0:
448,192,41773,1,0,0:0:0:0:
64,192,41962,1,0,0:0:0:0:
448,192,42152,128,0,42532:0:0:0:0:
320,192,42532,1,0,0:0:0:0:
64,192,42725,128,0,43104:0:0:0:0:
320,192,43104,128,0,43484:0:0:0:0:
192,192,43484,128,0,43864:0:0:0:0:
448,192,43864,128,0,44243:0:0:0:0:
320,192,44243,128,0,44623:0:0:0:0:
64,192,44623,1,0,0:0:0:0:
448,192,44861,128,0,45718:0:0:0:0:
192,192,45718,1,0,0:0:0:0:
192,192,45968,128,0,46841:0:0:0:0:
448,192,47237,1,0,0:0:0:0:
320,192,47426,1,0,0:0:0:0:
192,192,47615,1,0,0:0:0:0:
64,192,47805,1,0,0:0:0:0:
448,192,48019,1,0,0:0:0:0:
192,192,48233,128,0,48433:0:0:0:0:
320,192,48633,128,0,48822:0:0:0:0:
448,192,49012,128,0,50462:0:0:0:0:
64,192,50462,1,0,0:0:0:0:
64,192,52930,1,0,0:0:0:0:
192,192,53120,1,0,0:0:0:0:
320,192,53310,1,0,0:0:0:0:
64,192,53499,128,0,53878:0:0:0:60:kick.wav
448,192,53499,1,0,0:0:0:60:cymbal.wav
192,192,54068,1,0,0:0:0:60:kick.wav
448,192,54163,1,0,0:0:0:60:kick.wav
64,192,54258,1,0,0:0:0:60:snare.wav
320,192,54258,1,0,0:0:0:0:
448,192,54448,1,0,0:0:0:0:
64,192,54638,128,0,55017:0:0:0:0:
192,192,55207,1,0,0:0:0:60:kick.wav
448,192,55207,1,0,0:0:0:0:
320,192,55397,1,0,0:0:0:0:
64,192,55587,1,0,0:0:0:60:kick.wav
448,192,55587,1,0,0:0:0:0:
64,192,55777,1,0,0:0:0:60:snare.wav
192,192,55777,1,0,0:0:0:0:
320,192,55967,1,0,0:0:0:0:
64,192,56157,1,0,0:0:0:0:
64,192,56442,1,0,0:0:0:0:
320,192,56536,1,0,0:0:0:60:kick.wav
448,192,56536,1,0,0:0:0:0:
192,192,56726,1,0,0:0:0:0:
320,192,56916,1,0,0:0:0:0:
192,192,57106,1,0,0:0:0:60:kick.wav
448,192,57201,1,0,0:0:0:60:kick.wav
64,192,57296,128,0,57676:0:0:0:60:snare.wav
320,192,57296,1,0,0:0:0:0:
192,192,57676,1,0,0:0:0:0:
192,192,57961,128,0,58245:0:0:0:0:
64,192,58245,1,0,0:0:0:60:kick.wav
192,192,58435,1,0,0:0:0:0:
320,192,58625,128,0,59005:0:0:0:60:kick.wav
64,192,58815,1,0,0:0:0:60:snare.wav
192,192,58815,1,0,0:0:0:0:
448,192,59005,1,0,0:0:0:0:
192,192,59195,1,0,0:0:0:0:
320,192,59385,1,0,0:0:0:0:
64,192,59574,128,0,59954:0:0:0:60:kick.wav
448,192,59574,1,0,0:0:0:0:
192,192,60144,1,0,0:0:0:60:kick.wav
448,192,60239,1,0,0:0:0:60:kick.wav
64,192,60334,1,0,0:0:0:60:snare.wav
320,192,60334,1,0,0:0:0:0:
448,192,60524,1,0,0:0:0:0:
64,192,60714,128,0,61093:0:0:0:0:
320,192,61283,1,0,0:0:0:60:kick.wav
448,192,61283,1,0,0:0:0:0:
192,192,61473,1,0,0:0:0:0:
64,192,61663,1,0,0:0:0:60:kick.wav
448,192,61663,1,0,0:0:0:0:
320,192,61853,1,0,0:0:0:60:snare.wav
448,192,61853,1,0,0:0:0:0:
192,192,62043,1,0,0:0:0:0:
448,192,62233,1,0,0:0:0:0:
448,192,62517,1,0,0:0:0:0:
64,192,62612,1,0,0:0:0:60:kick.wav
192,192,62612,1,0,0:0:0:0:
320,192,62802,1,0,0:0:0:0:
192,192,62992,1,0,0:0:0:0:
320,192,63182,1,0,0:0:0:60:kick.wav
64,192,63277,1,0,0:0:0:60:kick.wav
192,192,63372,1,0,0:0:0:60:snare.wav
448,192,63372,128,0,63752:0:0:0:0:
64,192,63752,1,0,0:0:0:0:
192,192,63942,1,0,0:0:0:0:
320,192,64131,1,0,0:0:0:60:kick.wav
448,192,64321,1,0,0:0:0:0:
64,192,64416,1,0,0:0:0:60:kick.wav
320,192,64701,128,0,65176:0:0:0:60:kick.wav
64,192,64891,1,0,0:0:0:60:snare.wav
192,192,64891,1,0,0:0:0:0:
64,192,65176,1,0,0:0:0:60:snare.wav
192,192,65176,1,0,0:0:0:0:
448,192,65461,1,0,0:0:0:60:kick.wav
64,192,65650,128,0,66030:0:0:0:60:kick.wav
448,192,65650,1,0,0:0:0:60:cymbal.wav
192,192,66030,1,0,0:0:0:0:
320,192,66220,1,0,0:0:0:60:kick.wav
64,192,66315,1,0,0:0:0:60:kick.wav
192,192,66410,128,0,66790:0:0:0:60:snare.wav
448,192,66410,1,0,0:0:0:0:
448,192,66790,1,0,0:0:0:0:
64,192,66980,1,0,0:0:0:60:snare.wav
320,192,66980,128,0,67359:0:0:0:0:
64,192,67359,128,0,67739:0:0:0:60:kick.wav
448,192,67739,128,0,68214:0:0:0:60:kick.wav
64,192,67929,1,0,0:0:0:60:snare.wav
192,192,67929,1,0,0:0:0:0:
64,192,68214,1,0,0:0:0:60:snare.wav
192,192,68214,1,0,0:0:0:0:
320,192,68499,1,0,0:0:0:60:kick.wav
192,192,68688,1,0,0:0:0:60:kick.wav
320,192,68878,128,0,69258:0:0:0:60:kick.wav
448,192,69258,128,0,69638:0:0:0:0:
64,192,69448,1,0,0:0:0:60:snare.wav
192,192,69448,1,0,0:0:0:0:
192,192,69638,128,0,70017:0:0:0:0:
320,192,70017,128,0,70397:0:0:0:60:kick.wav
64,192,70397,128,0,70777:0:0:0:60:kick.wav
192,192,70777,128,0,71157:0:0:0:0:
320,192,70967,1,0,0:0:0:60:snare.wav
448,192,70967,1,0,0:0:0:0:
448,192,71157,128,0,71536:0:0:0:0:
64,192,71536,128,0,71916:0:0:0:0:
192,192,71726,1,0,0:0:0:60:kick.wav
320,192,71916,1,0,0:0:0:60:snare.wav
448,192,71916,1,0,0:0:0:0:
64,192,72106,1,0,0:0:0:0:
192,192,72296,1,0,0:0:0:60:kick.wav
448,192,72391,1,0,0:0:0:60:kick.wav
64,192,72486,1,0,0:0:0:60:snare.wav
320,192,72486,1,0,0:0:0:0:
448,192,72676,1,0,0:0:0:0:
192,192,72866,1,0,0:0:0:0:
64,192,73055,128,0,73435:0:0:0:60:snare.wav
320,192,73055,1,0,0:0:0:0:
320,192,73435,1,0,0:0:0:60:kick.wav
448,192,73625,1,0,0:0:0:0:
320,192,73815,128,0,74195:0:0:0:0:
64,192,74005,1,0,0:0:0:60:snare.wav
192,192,74005,1,0,0:0:0:0:
448,192,74574,1,0,0:0:0:0:
64,192,74764,1,0,0:0:0:60:kick.wav
192,192,74764,1,0,0:0:0:0:
448,192,74954,128,0,75524:0:0:0:0:
64,192,75334,1,0,0:0:0:60:kick.wav
64,192,75524,1,0,0:0:0:60:snare.wav
192,192,75524,1,0,0:0:0:0:
64,192,75809,1,0,0:0:0:60:snare.wav
192,192,75809,1,0,0:0:0:0:
448,192,75904,1,0,0:0:0:0:
320,192,76093,1,0,0:0:0:60:kick.wav
64,192,76188,128,0,76473:0:0:0:0:
320,192,76473,1,0,0:0:0:60:kick.wav
192,192,76663,1,0,0:0:0:0:
448,192,76758,1,0,0:0:0:60:kick.wav
64,192,76853,1,0,0:0:0:0:
320,192,77043,1,0,0:0:0:60:snare.wav
448,192,77043,1,0,0:0:0:0:
192,192,77233,1,0,0:0:0:60:kick.wav
320,192,77423,1,0,0:0:0:60:kick.wav
64,192,77612,1,0,0:0:0:60:kick.wav
448,192,77802,128,0,78507:0:0:0:60:cymbal.wav
192,192,77802,1,0,0:0:0:60:kick.wav
320,192,79213,128,0,80213:0:0:0:0:
320,192,80813,128,0,81813:0:0:0:0:
192,192,82413,128,0,83447:0:0:0:0:
64,192,84068,128,0,90345:0:0:0:0:
