osu file format v14

[General]
AudioFilename: Brave Shine.mp3
AudioLeadIn: 0
PreviewTime: 55681
Countdown: 0
SampleSet: Soft
StackLeniency: 0.7
Mode: 0
LetterboxInBreaks: 1
EpilepsyWarning: 1
WidescreenStoryboard: 0

[Editor]
Bookmarks: 12962,13050,15769,15945,16120,17173,28401,52699,52787,52874,55769,65330,67173,67348,67436,67611,67699,72699,72787,72874,72962,73050,73138,73927,74102,74190,74366,74541,78313,78488,78576,78752,78839,79892,79980,80067,80155,80243,80330,80418,80506,90681,104015,104190,104366,104453,112611,118752,118839,118927,119015,119102,119190,125681,125769,136734,138225,143839,144015,144102,144190,144278,144453,144541,165243,196120,205945
DistanceSpacing: 0.4
BeatDivisor: 8
GridSize: 32
TimelineZoom: 1.5

[Metadata]
Title:Brave Shine
TitleUnicode:Brave Shine
Artist:Aimer
ArtistUnicode:Aimer
Creator:tomatas95
Version:Hard
Source:Fate/stay night [Unlimited Blade Works]
Tags:フェイト/ステイナイト エメ type-moon defstar records notes aniplex ufotable 2nd second season op opening anime japanese pop ubw Hisashi Koyama Kenji Tamai Shogo Ohnishi
BeatmapID:2650467
BeatmapSetID:1275661

[Difficulty]
HPDrainRate:5
CircleSize:3.5
OverallDifficulty:6
ApproachRate:8
SliderMultiplier:2.8
SliderTickRate:1

[Events]
//Background and Video events
0,0,"brave-shine.jpg",0,0
Video,0,"fate.avi"
//Break Periods
2,90355,93616
2,95969,97826
2,174566,179230
//Storyboard Layer 0 (Background)
//Storyboard Layer 1 (Fail)
//Storyboard Layer 2 (Pass)
//Storyboard Layer 3 (Foreground)
//Storyboard Layer 4 (Overlay)
//Storyboard Sound Samples

[TimingPoints]
331,701.754385964912,4,2,1,25,1,0
1032,-100,4,2,1,35,0,0
2436,-100,4,2,1,45,0,0
3138,-100,4,2,1,55,0,0
4541,-100,4,2,2,65,0,0
5243,-166.666666666667,4,2,3,60,0,0
5945,-166.666666666667,4,2,2,75,0,0
6120,-100,4,2,2,75,0,0
17173,-142.857142857143,4,2,2,75,0,0
28401,-142.857142857143,4,2,2,65,0,0
39629,-166.666666666667,4,2,2,45,0,0
50857,-133.333333333333,4,2,2,60,0,0
53664,-133.333333333333,4,2,2,80,0,0
55769,-133.333333333333,4,2,1,60,0,0
56471,-90.9090909090909,4,2,1,85,0,1
90155,-142.857142857143,4,2,2,80,0,0
90506,-142.857142857143,4,2,2,70,0,0
94541,-142.857142857143,4,2,2,50,0,0
101383,-142.857142857143,4,2,2,60,0,0
112611,-166.666666666667,4,2,2,65,0,0
123839,-133.333333333333,4,2,2,65,0,0
128927,-133.333333333333,4,2,2,60,0,0
129102,-133.333333333333,4,2,2,60,0,0
129453,-90.9090909090909,4,2,1,85,0,1
151909,-200,4,2,1,70,0,0
152611,-200,4,2,1,60,0,0
154015,-200,4,2,1,45,0,0
155418,-200,4,2,1,35,0,0
156471,-200,4,2,1,25,0,0
157523,-200,4,2,1,25,0,0
158224,-200,4,2,1,35,0,0
159628,-200,4,2,1,45,0,0
160330,-200,4,2,1,55,0,0
161734,-142.857142857143,4,2,2,65,0,0
162436,-166.666666666667,4,2,3,60,0,0
163138,-100,4,2,2,75,0,0
171559,-76.9230769230769,4,2,1,75,0,0
171909,-76.9230769230769,4,2,2,75,0,0
172085,-76.9230769230769,4,2,1,75,0,0
172435,-76.9230769230769,4,2,2,75,0,0
172611,-76.9230769230769,4,2,1,75,0,0
172961,-76.9230769230769,4,2,2,75,0,0
173138,-100,4,2,2,75,0,0
174366,-100,4,2,1,75,0,0
179980,-133.333333333333,4,2,2,70,0,0
186471,-133.333333333333,4,2,2,70,0,0
187699,-100,4,2,1,75,0,0
188401,-90.9090909090909,4,2,1,85,0,1
222085,-142.857142857143,4,2,1,70,0,0
222260,-142.857142857143,4,2,2,60,0,0

[Colours]
Combo1 : 255,0,128
Combo2 : 128,0,255
Combo3 : 64,21,234
Combo4 : 128,0,0

[HitObjects]
256,192,331,12,12,4541,0:0:0:0:
48,51,5243,6,0,B|100:46|100:46|128:63|128:63|196:55,1,146.999995513916,2|0,0:0|0:0,0:0:0:0:
189,55,5945,5,6,3:2:0:0:
153,185,6120,2,0,P|194:168|292:212,1,140,2|2,3:2|3:2,0:0:0:0:
373,265,6646,2,0,L|376:195,1,70,8|0,0:0|3:0,0:0:0:0:
467,154,6997,2,0,L|463:228,1,70,2|2,0:0|0:0,0:0:0:0:
499,68,7348,1,2,0:0:0:0:
390,89,7523,6,0,L|238:85,1,140,10|0,0:0|3:0,0:0:0:0:
155,24,8050,2,0,P|159:61|140:99,1,70,8|0,0:0|3:0,0:0:0:0:
74,173,8401,1,2,0:0:0:0:
22,92,8576,1,0,3:0:0:0:
8,237,8752,5,6,3:2:0:0:
74,173,8927,2,0,P|114:164|198:248,1,140,2|0,3:2|3:0,0:0:0:0:
183,325,9453,2,0,L|108:331,1,70,8|0,0:0|3:0,0:0:0:0:
21,348,9804,1,2,0:0:0:0:
21,348,9980,1,2,0:0:0:0:
5,237,10155,6,0,L|3:157,1,70,2|10,0:0|0:0,0:0:0:0:
0,57,10506,1,0,0:0:0:0:
78,120,10681,1,0,3:0:0:0:
118,31,10857,2,0,P|161:21|257:41,1,140,10|0,0:0|0:0,0:0:0:0:
309,165,11383,1,8,0:0:0:0:
309,165,11471,1,8,0:0:0:0:
309,165,11559,6,0,B|307:203|307:203|320:230|320:230|311:315,1,140,6|0,3:2|0:0,0:0:0:0:
429,358,12085,2,0,P|434:321|418:278,1,70,0|8,3:0|0:0,0:0:0:0:
408,200,12436,1,0,3:0:0:0:
428,90,12611,6,0,P|463:101|503:205,1,140,2|0,0:0|0:0,0:0:0:0:
425,290,13138,1,8,0:0:0:0:
389,199,13313,1,0,0:0:0:0:
332,282,13488,1,0,3:0:0:0:
249,196,13664,2,0,L|245:42,1,140,8|2,0:0|0:0,0:0:0:0:
324,2,14190,1,0,3:0:0:0:
401,113,14366,5,6,3:2:0:0:
484,68,14541,2,0,L|487:215,1,140,2|2,3:2|3:2,0:0:0:0:
477,336,15067,2,0,P|443:343|409:333,1,70,10|0,0:0|3:0,0:0:0:0:
337,242,15418,2,0,P|370:234|404:244,1,70,2|10,0:0|0:0,0:0:0:0:
309,331,15769,5,0,3:0:0:0:
245,249,15945,1,10,0:0:0:0:
199,329,16120,1,8,3:0:0:0:
137,258,16295,1,10,0:0:0:0:
137,258,16383,1,10,0:0:0:0:
137,258,16471,2,0,L|57:261,1,70,10|4,0:0|0:3,0:0:0:0:
0,176,16822,1,4,0:3:0:0:
39,87,16997,1,4,0:3:0:0:
136,154,17173,6,0,P|171:168|245:143,1,97.9999970092774,4|0,3:1|0:0,0:0:0:0:
279,87,17699,2,0,L|281:32,1,48.9999985046387,2|8,3:2|0:0,0:0:0:0:
315,165,18050,2,0,L|361:194,1,48.9999985046387,2|0,0:0|0:0,0:0:0:0:
461,233,18401,6,0,P|472:195|458:119,1,97.9999970092774,2|10,3:2|0:0,0:0:0:0:
461,44,18927,2,0,L|351:41,1,97.9999970092774,2|8,3:2|0:0,0:0:0:0:
268,17,19453,1,0,3:0:0:0:
268,17,19629,2,0,L|263:79,1,48.9999985046387,2|8,0:0|0:0,0:0:0:0:
248,152,19980,5,2,3:3:0:0:
248,152,20155,2,0,P|204:142|131:157,1,97.9999970092774,10|2,0:0|3:2,0:0:0:0:
88,192,20681,1,8,0:0:0:0:
9,152,20857,6,0,L|2:262,2,97.9999970092774,2|2|10,0:0|3:2|0:0,0:0:0:0:
30,72,21734,1,0,3:0:0:0:
94,19,21909,2,0,L|154:22,1,48.9999985046387,2|8,0:0|0:0,0:0:0:0:
236,15,22260,2,0,P|224:57|251:113,1,97.9999970092774,2|8,3:2|0:0,0:0:0:0:
275,149,22699,1,8,0:0:0:0:
275,149,22787,6,0,L|270:207,1,48.9999985046387,2|2,3:0|0:0,0:0:0:0:
255,280,23138,2,0,L|143:275,1,97.9999970092774,2|8,0:0|0:0,0:0:0:0:
78,269,23664,1,0,3:0:0:0:
72,348,23839,1,2,0:0:0:0:
151,354,24015,6,0,L|263:359,1,97.9999970092774,2|8,3:2|0:0,0:0:0:0:
336,359,24541,1,0,3:0:0:0:
336,359,24892,1,8,0:0:0:0:
301,277,25067,2,0,P|297:250|303:223,1,48.9999985046387,0|2,3:0|0:0,0:0:0:0:
366,174,25418,1,8,0:0:0:0:
311,105,25594,6,0,P|273:96|204:110,1,97.9999970092774,2|2,3:3|0:0,0:0:0:0:
147,159,26120,1,0,3:0:0:0:
80,105,26295,2,0,L|84:48,1,48.9999985046387,8|0,0:0|3:0,0:0:0:0:
178,15,26646,1,0,0:0:0:0:
178,15,26822,6,0,L|295:19,1,97.9999970092774,2|8,3:2|0:0,0:0:0:0:
368,60,27348,1,2,3:2:0:0:
459,15,27523,2,0,L|461:63,1,48.9999985046387,2|8,0:0|0:0,0:0:0:0:
466,165,27874,1,0,3:0:0:0:
466,165,28050,2,0,P|431:170|409:167,1,48.9999985046387,2|10,0:0|0:0,0:0:0:0:
301,139,28401,6,0,L|299:236,1,97.9999970092774,6|2,3:2|0:0,0:0:0:0:
208,261,28927,2,0,L|205:212,1,48.9999985046387,2|10,3:2|0:0,0:0:0:0:
127,288,29278,2,0,L|130:338,1,48.9999985046387,2|0,3:2|0:0,0:0:0:0:
237,356,29629,6,0,P|280:346|342:372,1,97.9999970092774,2|10,3:2|0:0,0:0:0:0:
440,376,30155,2,0,L|439:272,1,97.9999970092774,2|8,3:2|0:0,0:0:0:0:
465,198,30681,1,0,3:0:0:0:
454,111,30857,2,0,P|430:105|405:110,1,48.9999985046387,2|8,0:0|0:0,0:0:0:0:
371,145,31120,1,8,0:0:0:0:
371,145,31208,6,0,L|309:150,1,48.9999985046387,2|10,3:0|0:0,0:0:0:0:
261,203,31559,1,2,0:0:0:0:
194,155,31734,2,0,L|193:97,1,48.9999985046387,2|8,3:2|0:0,0:0:0:0:
183,20,32085,1,2,3:2:0:0:
183,20,32436,6,0,P|225:29|292:10,1,97.9999970092774,2|2,3:2|3:2,0:0:0:0:
363,7,32962,1,0,3:0:0:0:
392,86,33138,2,0,L|420:84,2,24.4999992523194,8|8|8,0:0|0:0|0:0,0:0:0:0:
326,149,33488,2,0,L|323:248,1,97.9999970092774,2|8,3:2|0:0,0:0:0:0:
319,347,34015,6,0,P|347:353|379:346,1,48.9999985046387,2|2,3:0|0:0,0:0:0:0:
460,337,34366,2,0,L|463:238,1,97.9999970092774,2|8,0:0|0:0,0:0:0:0:
489,159,34892,1,0,3:0:0:0:
477,74,35067,1,2,0:0:0:0:
477,74,35243,6,0,P|429:89|371:69,1,97.9999970092774,2|8,3:2|0:0,0:0:0:0:
306,22,35769,2,0,L|203:25,1,97.9999970092774,2|8,3:2|0:0,0:0:0:0:
127,28,36295,1,0,3:0:0:0:
127,28,36471,2,0,L|125:76,1,48.9999985046387,2|8,0:0|0:0,0:0:0:0:
33,8,36822,6,0,L|31:121,1,97.9999970092774,2|2,3:0|0:0,0:0:0:0:
26,196,37348,2,0,P|58:190|91:199,1,48.9999985046387,2|8,3:2|0:0,0:0:0:0:
79,312,37699,2,0,P|89:281|114:257,1,48.9999985046387,2|0,3:2|0:0,0:0:0:0:
205,324,38050,6,0,P|186:298|197:220,1,97.9999970092774,2|8,3:2|0:0,0:0:0:0:
232,154,38576,1,0,3:2:0:0:
298,224,38752,2,0,L|296:265,2,24.4999992523194,8|8|8,0:0|0:0|0:0,0:0:0:0:
349,137,39102,1,4,3:0:0:0:
436,110,39278,1,4,3:0:0:0:
491,178,39453,1,4,3:0:0:0:
466,257,39629,5,6,3:2:0:0:
466,257,39804,2,0,L|465:357,1,83.9999974365235,2|2,0:0|0:0,0:0:0:0:
386,370,40330,1,2,0:0:0:0:
386,370,40681,6,0,L|329:370,1,41.9999987182618,2|2,0:0|0:0,0:0:0:0:
259,366,41032,1,2,0:0:0:0:
211,295,41208,2,0,L|213:237,1,41.9999987182618,2|0,0:0|0:0,0:0:0:0:
174,165,41559,2,0,P|217:155|257:170,2,83.9999974365235,2|2|2,0:0|0:0|0:0,0:0:0:0:
89,188,42436,5,0,0:0:0:0:
89,188,42611,2,0,L|85:281,1,83.9999974365235,2|0,0:0|0:0,0:0:0:0:
78,365,43138,1,2,0:0:0:0:
78,365,43488,6,0,P|106:367|124:363,1,41.9999987182618,2|2,0:0|0:0,0:0:0:0:
184,306,43839,2,0,L|186:253,2,41.9999987182618,2|2|2,0:0|0:0|0:0,0:0:0:0:
250,367,44366,1,2,0:0:0:0:
250,367,44716,2,0,P|292:356|345:371,1,83.9999974365235,2|0,0:0|0:0,0:0:0:0:
424,371,45243,5,2,0:0:0:0:
376,290,45418,2,0,L|376:193,1,83.9999974365235,2|0,0:0|0:0,0:0:0:0:
383,118,45945,1,0,0:0:0:0:
383,118,46120,1,2,0:0:0:0:
327,43,46295,6,0,L|238:46,2,83.9999974365235,2|2|2,0:0|0:0|0:0,0:0:0:0:
430,21,47173,1,2,0:0:0:0:
430,21,47523,2,0,P|419:52|442:110,1,83.9999974365235,2|0,0:0|0:0,0:0:0:0:
481,192,48050,6,0,P|445:180|389:197,1,83.9999974365235,2|2,0:0|0:0,0:0:0:0:
396,329,48576,2,0,P|424:303|437:246,1,83.9999974365235,2|2,0:0|0:0,0:0:0:0:
319,186,49102,2,0,P|326:223|369:263,2,83.9999974365235,2|2|2,0:0|0:0|0:0,0:0:0:0:
318,103,49980,1,2,0:0:0:0:
263,36,50155,1,2,0:0:0:0:
171,23,50330,1,2,0:0:0:0:
109,99,50506,2,0,L|106:154,1,41.9999987182618,2|2,3:2|3:2,0:0:0:0:
42,26,50857,6,0,B|19:48|19:48|19:145,1,105.000004005432,6|0,3:2|0:0,0:0:0:0:
45,218,51383,1,2,3:2:0:0:
45,218,51559,2,0,L|47:279,1,52.5000020027161,8|0,0:0|0:0,0:0:0:0:
50,363,51909,1,2,0:0:0:0:
126,310,52085,6,0,P|154:298|232:324,1,105.000004005432,2|8,3:2|0:0,0:0:0:0:
304,368,52611,1,2,3:2:0:0:
346,273,52786,1,8,0:0:0:0:
346,273,52874,1,8,0:0:0:0:
346,273,52962,2,0,L|346:204,1,52.5000020027161,8|4,0:0|3:0,0:0:0:0:
335,109,53313,1,4,3:0:0:0:
413,28,53488,1,4,3:0:0:0:
508,107,53664,5,10,0:0:0:0:
335,109,53839,1,10,0:0:0:0:
37,352,55945,5,0,3:0:0:0:
83,272,56120,2,0,L|86:187,1,78.7500030040742,8|0,0:0|0:0,0:0:0:0:
90,145,56471,6,0,B|132:161|158:149|158:149|181:120|163:54,1,154.000004699707,6|0,3:2|0:0,0:0:0:0:
258,8,56997,1,0,3:0:0:0:
308,105,57173,2,0,L|306:192,1,77.0000023498536,8|0,0:0|0:0,0:0:0:0:
300,289,57523,1,2,3:2:0:0:
398,231,57699,6,0,L|401:68,2,154.000004699707,2|8|2,3:2|0:0|3:2,0:0:0:0:
399,333,58576,1,10,0:0:0:0:
300,289,58752,2,0,P|263:282|226:294,1,77.0000023498536,2|0,3:2|0:0,0:0:0:0:
112,334,59102,1,8,0:0:0:0:
112,334,59190,1,8,0:0:0:0:
112,334,59278,6,0,B|112:272|112:272|104:264|104:264|107:152,1,154.000004699707,6|2,3:2|0:0,0:0:0:0:
101,72,59804,2,0,L|24:76,1,77.0000023498536,2|10,3:2|0:0,0:0:0:0:
174,14,60155,2,0,L|250:18,1,77.0000023498536,2|0,0:0|3:0,0:0:0:0:
364,119,60506,6,0,P|301:97|214:128,1,154.000004699707,2|8,3:2|0:0,0:0:0:0:
212,238,61032,1,2,0:0:0:0:
308,218,61208,1,2,3:2:0:0:
231,351,61383,1,8,0:0:0:0:
327,331,61559,2,0,P|373:329|478:351,1,154.000004699707,2|10,3:2|0:0,0:0:0:0:
512,210,62085,6,0,B|526:177|508:137|508:137|456:122|412:141,1,154.000004699707,6|0,3:2|0:0,0:0:0:0:
336,194,62611,1,0,3:0:0:0:
289,93,62787,2,0,L|278:-2,1,77.0000023498536,8|0,0:0|0:0,0:0:0:0:
187,149,63138,1,2,3:2:0:0:
177,35,63313,6,0,P|104:32|25:63,2,154.000004699707,2|8|0,3:2|0:0|3:0,0:0:0:0:
289,93,64190,2,0,P|295:132|288:177,1,77.0000023498536,10|0,0:0|3:0,0:0:0:0:
242,260,64541,1,2,0:0:0:0:
154,174,64716,1,10,0:0:0:0:
154,174,64804,1,10,0:0:0:0:
154,174,64892,6,0,B|114:153|114:153|116:289,1,154.000004699707,6|2,3:2|0:0,0:0:0:0:
91,372,65418,1,2,3:2:0:0:
25,275,65594,2,0,L|21:179,1,77.0000023498536,8|2,0:0|0:0,0:0:0:0:
20,106,65945,1,0,3:2:0:0:
106,49,66120,6,0,L|190:53,1,77.0000023498536,10|0,0:0|0:0,0:0:0:0:
267,142,66471,2,0,L|183:146,1,77.0000023498536,10|0,0:0|3:0,0:0:0:0:
320,45,66822,1,2,3:2:0:0:
373,152,66997,1,10,0:2:0:0:
471,100,67173,2,0,L|474:54,2,38.5000011749268,2|0|8,3:2|3:0|0:0,0:0:0:0:
479,194,67523,1,8,0:0:0:0:
389,84,67699,6,0,P|335:104|276:195,1,154.000004699707,6|0,3:2|0:0,0:0:0:0:
308,318,68225,1,0,3:2:0:0:
393,250,68401,2,0,L|399:159,1,77.0000023498536,8|0,0:0|0:0,0:0:0:0:
442,330,68752,1,2,3:2:0:0:
308,318,68927,6,0,P|261:315|145:358,2,154.000004699707,2|8|2,3:2|0:0|3:2,0:0:0:0:
223,204,69804,1,10,0:0:0:0:
125,250,69980,2,0,P|118:208|129:162,1,77.0000023498536,2|0,3:2|0:0,0:0:0:0:
17,108,70330,1,8,0:0:0:0:
17,108,70418,1,8,0:0:0:0:
17,108,70506,6,0,P|32:154|5:256,1,154.000004699707,6|2,3:2|0:0,0:0:0:0:
34,367,71032,2,0,L|117:363,1,77.0000023498536,2|8,3:2|0:0,0:0:0:0:
200,284,71383,2,0,L|117:280,1,77.0000023498536,2|0,0:0|3:0,0:0:0:0:
283,211,71734,6,0,L|288:378,1,154.000004699707,2|8,3:2|0:0,0:0:0:0:
372,288,72260,1,2,0:0:0:0:
462,362,72436,2,0,P|473:318|459:275,1,77.0000023498536,2|8,3:2|0:0,0:0:0:0:
360,166,72787,2,0,P|433:145|507:181,1,154.000004699707,2|8,3:2|0:0,0:0:0:0:
401,24,73313,6,0,B|353:26|353:26|344:19|344:19|235:19,1,154.000004699707,4|2,3:2|0:0,0:0:0:0:
145,15,73839,1,2,3:2:0:0:
176,120,74015,2,0,L|175:216,1,77.0000023498536,8|2,0:0|3:2,0:0:0:0:
171,300,74366,1,2,3:2:0:0:
88,210,74541,6,0,P|49:204|0:217,1,77.0000023498536,2|0,0:0|0:0,0:0:0:0:
176,156,74892,2,0,P|161:119|125:83,1,77.0000023498536,10|0,0:0|0:0,0:0:0:0:
266,204,75243,2,0,P|290:172|303:123,1,77.0000023498536,2|8,3:2|0:0,0:0:0:0:
303,36,75594,1,2,3:2:0:0:
380,92,75769,1,2,0:0:0:0:
495,25,75945,1,8,0:0:0:0:
495,25,76032,1,8,0:0:0:0:
495,25,76120,6,0,B|495:70|495:70|513:109|513:109|512:192,1,154.000004699707,6|2,3:2|0:0,0:0:0:0:
497,305,76646,2,0,P|459:295|404:309,1,77.0000023498536,2|8,3:2|0:0,0:0:0:0:
342,375,76997,1,2,3:2:0:0:
247,271,77173,1,6,3:2:0:0:
335,246,77348,6,0,B|333:201|333:201|343:191|343:191|341:93,1,154.000004699707,2|8,0:0|0:0,0:0:0:0:
332,8,77874,2,0,L|373:6,2,38.5000011749268,8|8|8,0:3|0:3|0:3,0:0:0:0:
217,51,78225,2,0,P|179:59|136:49,1,77.0000023498536,2|8,3:2|0:0,0:0:0:0:
40,21,78576,1,4,3:0:0:0:
13,122,78752,1,8,3:0:0:0:
55,243,78927,6,0,P|97:234|216:260,1,154.000004699707,6|2,3:2|0:0,0:0:0:0:
269,339,79453,1,0,3:0:0:0:
355,274,79629,2,0,L|442:277,1,77.0000023498536,8|2,0:0|0:0,0:0:0:0:
290,188,79980,1,6,3:2:0:0:
269,339,80155,6,0,L|101:346,1,154.000004699707,2|8,3:2|0:0,0:0:0:0:
21,359,80681,1,2,0:0:0:0:
1,264,80857,1,0,3:0:0:0:
63,199,81032,2,0,L|151:195,1,77.0000023498536,8|0,0:0|3:0,0:0:0:0:
245,168,81383,1,0,0:0:0:0:
224,309,81559,1,8,0:0:0:0:
224,309,81646,1,8,0:0:0:0:
224,309,81734,5,6,3:2:0:0:
306,259,81909,2,0,B|344:258|344:258|361:244|361:244|463:244,1,154.000004699707,10|0,0:0|3:0,0:0:0:0:
512,160,82436,2,0,P|519:122|509:85,1,77.0000023498536,10|2,0:0|0:0,0:0:0:0:
444,20,82787,1,0,3:0:0:0:
412,130,82962,6,0,L|258:133,1,154.000004699707,0|8,3:0|0:0,0:0:0:0:
157,137,83488,1,2,0:0:0:0:
128,225,83664,1,0,3:2:0:0:
44,185,83839,2,0,P|30:147|35:87,1,77.0000023498536,10|0,0:0|3:0,0:0:0:0:
66,10,84190,1,2,0:0:0:0:
157,137,84366,1,8,0:0:0:0:
157,137,84453,1,8,0:0:0:0:
157,137,84541,6,0,B|185:156|203:161|203:161|233:119|216:59,1,154.000004699707,6|2,3:2|0:0,0:0:0:0:
309,8,85067,1,0,3:0:0:0:
361,110,85243,2,0,L|357:194,1,77.0000023498536,10|2,0:0|0:0,0:0:0:0:
354,353,85594,1,6,3:2:0:0:
445,269,85769,6,0,L|279:268,1,154.000004699707,2|8,3:2|0:0,0:0:0:0:
195,246,86295,1,2,0:0:0:0:
155,336,86471,1,0,3:0:0:0:
103,255,86646,1,10,0:0:0:0:
13,351,86822,2,0,P|-8:299|24:195,1,154.000004699707,2|8,3:2|0:0,0:0:0:0:
48,178,87260,1,8,0:0:0:0:
48,178,87348,5,4,3:2:0:0:
23,76,87523,2,0,B|67:75|67:75|77:83|77:83|181:76,1,154.000004699707,10|0,0:0|3:0,0:0:0:0:
266,15,88050,2,0,L|267:102,1,77.0000023498536,10|2,0:0|0:0,0:0:0:0:
261,218,88401,1,6,3:2:0:0:
354,142,88576,1,10,0:0:0:0:
388,259,88752,6,0,P|429:265|473:257,1,77.0000023498536,0|8,3:0|0:0,0:0:0:0:
512,171,89102,2,0,L|507:92,1,77.0000023498536,2|0,0:0|0:0,0:0:0:0:
501,48,89366,1,2,0:0:0:0:
501,48,89453,1,10,0:0:0:0:
413,0,89629,1,8,0:3:0:0:
331,52,89804,2,0,L|251:51,1,77.0000023498536,8|8,0:3|0:3,0:0:0:0:
136,46,90155,5,4,3:1:0:0:
473,357,94366,5,0,0:0:0:0:
404,302,94541,2,0,L|406:235,1,48.9999985046387,4|0,3:0|0:0,0:0:0:0:
387,161,94892,2,0,L|347:162,2,24.4999992523194,8|8|8,0:0|0:0|0:0,0:0:0:0:
475,167,95243,2,0,P|475:136|467:113,1,48.9999985046387,8|0,3:0|0:0,0:0:0:0:
412,48,95594,1,4,3:0:0:0:
412,48,95681,1,4,3:0:0:0:
412,48,95769,1,2,3:0:0:0:
145,289,98576,6,0,L|144:342,1,48.9999985046387,2|8,0:3|0:0,0:0:0:0:
82,223,98927,2,0,L|84:114,2,97.9999970092774,2|2|8,3:2|0:0|0:0,0:0:0:0:
196,224,99804,6,0,L|200:104,1,97.9999970092774,4|0,3:0|0:0,0:0:0:0:
211,39,100330,1,2,0:0:0:0:
211,39,100506,1,0,3:0:0:0:
122,15,100681,2,0,L|73:13,1,48.9999985046387,8|0,0:0|3:0,0:0:0:0:
13,70,101032,1,2,0:0:0:0:
50,168,101208,1,10,0:0:0:0:
50,168,101295,1,8,0:0:0:0:
50,168,101383,6,0,L|49:224,1,48.9999985046387,6|2,3:2|0:0,0:0:0:0:
40,312,101734,1,0,0:0:0:0:
116,362,101909,2,0,L|186:362,1,48.9999985046387,2|8,3:2|0:0,0:0:0:0:
196,258,102260,2,0,L|231:318,1,48.9999985046387,2|0,3:2|0:0,0:0:0:0:
326,275,102611,2,0,L|291:335,1,48.9999985046387,2|0,3:2|0:0,0:0:0:0:
247,384,102962,1,8,0:0:0:0:
220,300,103138,6,0,L|222:181,1,97.9999970092774,2|8,3:2|0:0,0:0:0:0:
220,122,103664,1,2,3:2:0:0:
289,79,103839,2,0,L|341:77,1,48.9999985046387,2|8,0:0|0:0,0:0:0:0:
388,77,104102,1,8,0:0:0:0:
388,77,104190,6,0,P|384:107|396:130,1,48.9999985046387,2|8,3:0|0:0,0:0:0:0:
428,215,104541,1,2,0:0:0:0:
428,215,104716,2,0,L|476:220,1,48.9999985046387,2|8,3:2|0:0,0:0:0:0:
400,297,105067,2,0,L|351:302,1,48.9999985046387,2|0,3:2|0:0,0:0:0:0:
509,351,105418,6,0,L|507:233,1,97.9999970092774,2|2,3:2|3:2,0:0:0:0:
499,154,105945,1,0,3:0:0:0:
418,206,106120,2,0,L|416:241,2,24.4999992523194,8|8|8,0:0|0:0|0:0,0:0:0:0:
414,90,106471,2,0,P|383:79|307:97,1,97.9999970092774,2|8,3:2|0:0,0:0:0:0:
284,114,106909,1,8,0:0:0:0:
284,114,106997,6,0,L|220:113,1,48.9999985046387,2|2,3:0|0:0,0:0:0:0:
143,44,107348,2,0,P|154:91|142:138,1,97.9999970092774,2|8,0:0|0:0,0:0:0:0:
107,216,107874,1,0,3:0:0:0:
107,216,108050,1,2,0:0:0:0:
20,222,108225,6,0,L|12:119,1,97.9999970092774,2|8,3:2|0:0,0:0:0:0:
34,30,108752,2,0,P|80:17|134:32,1,97.9999970092774,2|8,3:2|0:0,0:0:0:0:
189,92,109278,1,0,3:2:0:0:
254,31,109453,2,0,L|309:30,1,48.9999985046387,2|10,0:0|0:0,0:0:0:0:
421,105,109804,6,0,P|388:95|327:111,1,97.9999970092774,2|2,3:0|0:0,0:0:0:0:
305,192,110330,2,0,L|302:242,1,48.9999985046387,0|8,3:0|0:0,0:0:0:0:
432,222,110681,2,0,L|390:194,1,48.9999985046387,2|0,3:2|0:0,0:0:0:0:
298,338,111032,6,0,L|388:292,1,97.9999970092774,2|8,3:2|0:0,0:0:0:0:
432,222,111559,1,0,3:0:0:0:
499,294,111734,2,0,L|496:333,2,24.4999992523194,8|8|8,0:0|0:0|0:0,0:0:0:0:
508,182,112085,1,4,3:0:0:0:
428,115,112260,1,4,3:0:0:0:
354,174,112436,1,4,3:0:0:0:
342,268,112611,5,6,3:2:0:0:
342,268,112787,2,0,P|316:272|291:268,1,41.9999987182618,2|0,0:0|0:0,0:0:0:0:
217,211,113138,1,8,0:0:0:0:
212,304,113313,1,2,3:2:0:0:
212,304,113664,6,0,P|179:293|129:307,1,83.9999974365235,2|2,3:2|3:2,0:0:0:0:
43,360,114190,2,0,L|37:275,1,83.9999974365235,2|2,0:0|0:0,0:0:0:0:
25,192,114716,1,2,3:2:0:0:
71,121,114892,2,0,L|129:119,1,41.9999987182618,2|0,0:0|3:0,0:0:0:0:
190,196,115243,6,0,L|132:198,1,41.9999987182618,2|2,0:0|3:0,0:0:0:0:
277,225,115594,2,0,L|280:125,1,83.9999974365235,2|0,0:0|3:0,0:0:0:0:
270,40,116120,1,2,3:2:0:0:
270,40,116471,6,0,P|243:53|182:41,1,83.9999974365235,2|2,3:2|3:2,0:0:0:0:
102,16,116997,1,2,3:2:0:0:
27,76,117173,2,0,L|26:126,1,41.9999987182618,2|2,0:0|3:2,0:0:0:0:
30,218,117523,1,0,3:0:0:0:
30,218,117699,2,0,P|60:208|122:224,1,83.9999974365235,0|2,3:0|3:2,0:0:0:0:
171,294,118225,5,6,3:2:0:0:
223,205,118401,2,0,L|311:200,1,83.9999974365235,2|0,0:0|3:0,0:0:0:0:
409,201,118927,1,2,3:2:0:0:
409,201,119278,2,0,L|407:260,1,41.9999987182618,2|2,3:2|0:0,0:0:0:0:
376,339,119629,6,0,P|404:331|467:343,1,83.9999974365235,2|2,3:2|0:0,0:0:0:0:
509,263,120155,2,0,L|511:204,1,41.9999987182618,2|2,3:2|3:2,0:0:0:0:
505,112,120506,2,0,P|474:104|408:120,1,83.9999974365235,2|2,0:0|0:0,0:0:0:0:
322,148,121032,6,0,L|329:65,1,83.9999974365235,6|2,3:2|0:0,0:0:0:0:
259,231,121559,2,0,L|223:155,1,83.9999974365235,2|2,0:0|0:0,0:0:0:0:
365,247,122085,2,0,L|400:171,2,83.9999974365235,0|2|2,3:2|3:2|0:0,0:0:0:0:
315,339,122962,5,0,3:0:0:0:
231,295,123138,1,10,0:0:0:0:
146,326,123313,1,2,0:0:0:0:
63,381,123488,2,0,L|60:335,1,41.9999987182618,2|2,0:0|0:0,0:0:0:0:
20,217,123839,6,0,B|53:216|53:216|61:208|61:208|124:206,1,105.000004005432,6|0,3:2|0:0,0:0:0:0:
212,214,124366,1,2,3:2:0:0:
281,144,124541,2,0,P|289:106|262:46,1,105.000004005432,8|2,0:0|0:0,0:0:0:0:
184,16,125067,5,2,3:2:0:0:
132,84,125243,2,0,L|78:83,1,52.5000020027161,0|8,0:0|0:0,0:0:0:0:
9,18,125594,1,2,3:2:0:0:
0,119,125769,1,8,0:0:0:0:
0,119,125857,1,8,0:0:0:0:
0,119,125945,2,0,L|1:186,1,52.5000020027161,8|4,0:0|0:3,0:0:0:0:
6,283,126295,1,4,0:3:0:0:
90,349,126471,1,4,0:3:0:0:
164,251,126646,5,10,0:0:0:0:
246,371,126822,1,10,0:0:0:0:
512,239,128927,5,0,3:0:0:0:
452,167,129102,2,0,L|454:82,1,78.7500030040742,8|0,0:0|0:0,0:0:0:0:
450,37,129453,6,0,B|410:38|410:38|375:16|375:16|279:18,1,154.000004699707,6|0,3:2|0:0,0:0:0:0:
196,3,129980,1,0,3:0:0:0:
237,111,130155,2,0,L|234:198,1,77.0000023498536,8|0,0:0|0:0,0:0:0:0:
224,348,130506,1,2,3:2:0:0:
310,288,130681,6,0,P|236:267|160:277,1,154.000004699707,2|8,3:2|0:0,0:0:0:0:
69,301,131208,2,0,L|66:394,1,77.0000023498536,0|0,0:0|0:0,0:0:0:0:
1,232,131559,1,10,0:0:0:0:
68,156,131734,2,0,P|73:113|50:62,1,77.0000023498536,2|0,3:2|0:0,0:0:0:0:
187,16,132085,1,8,0:0:0:0:
187,16,132173,1,8,0:0:0:0:
187,16,132260,6,0,P|168:68|226:166,1,154.000004699707,6|2,3:2|0:0,0:0:0:0:
302,180,132787,2,0,L|308:271,1,77.0000023498536,2|10,3:2|0:0,0:0:0:0:
201,314,133138,2,0,L|195:223,1,77.0000023498536,2|0,0:0|3:0,0:0:0:0:
274,359,133488,6,0,P|342:339|422:376,1,154.000004699707,2|8,3:2|0:0,0:0:0:0:
512,384,134015,1,2,0:0:0:0:
470,298,134190,1,2,3:2:0:0:
512,172,134366,1,8,0:0:0:0:
463,92,134541,2,0,P|422:77|306:95,1,154.000004699707,2|10,3:2|0:0,0:0:0:0:
265,239,135067,6,0,B|241:267|221:266|221:266|174:227|203:164,1,154.000004699707,6|0,3:2|0:0,0:0:0:0:
229,80,135594,1,0,3:0:0:0:
149,14,135769,2,0,P|108:5|65:22,1,77.0000023498536,8|0,0:0|0:0,0:0:0:0:
10,80,136120,1,2,3:2:0:0:
114,107,136295,6,0,L|109:264,1,154.000004699707,2|8,3:2|0:0,0:0:0:0:
87,351,136822,1,2,0:0:0:0:
178,373,136997,1,0,3:0:0:0:
200,282,137173,2,0,L|205:192,1,77.0000023498536,10|0,0:0|3:0,0:0:0:0:
240,109,137523,1,2,0:0:0:0:
307,235,137699,1,8,0:0:0:0:
307,235,137787,1,8,0:0:0:0:
307,235,137874,6,0,B|305:278|305:278|323:315|323:315|320:388,1,154.000004699707,6|2,3:2|0:0,0:0:0:0:
410,305,138401,1,2,3:2:0:0:
503,360,138576,2,0,L|499:284,1,77.0000023498536,8|2,0:0|0:0,0:0:0:0:
497,191,138927,1,0,3:2:0:0:
424,98,139102,6,0,P|464:88|507:100,1,77.0000023498536,10|0,0:0|0:0,0:0:0:0:
338,65,139453,2,0,P|349:25|381:-6,1,77.0000023498536,10|0,0:0|3:0,0:0:0:0:
266,122,139804,2,0,P|237:92|226:49,1,77.0000023498536,2|10,3:2|0:2,0:0:0:0:
137,8,140155,1,2,3:2:0:0:
137,8,140243,1,0,3:0:0:0:
137,8,140330,1,8,0:0:0:0:
128,104,140506,1,8,0:0:0:0:
34,15,140681,6,0,B|33:56|33:56|40:65|40:65|39:173,1,154.000004699707,6|0,3:2|0:0,0:0:0:0:
38,270,141208,1,0,3:2:0:0:
126,204,141383,2,0,L|209:202,1,77.0000023498536,8|0,0:0|0:0,0:0:0:0:
329,196,141734,1,2,3:2:0:0:
263,300,141909,6,0,P|329:282|409:322,1,154.000004699707,2|8,3:2|0:0,0:0:0:0:
507,347,142436,2,0,P|511:305|497:266,1,77.0000023498536,2|2,0:0|3:2,0:0:0:0:
433,212,142787,1,10,0:0:0:0:
504,146,142962,2,0,L|506:64,1,77.0000023498536,2|0,3:2|0:0,0:0:0:0:
371,20,143313,1,8,0:0:0:0:
371,20,143401,1,8,0:0:0:0:
371,20,143488,6,0,B|372:65|372:65|357:109|357:109|358:181,1,154.000004699707,6|2,3:2|0:0,0:0:0:0:
367,315,144015,2,0,P|325:325|281:309,1,77.0000023498536,2|10,3:2|0:0,0:0:0:0:
211,229,144366,2,0,P|253:239|297:223,1,77.0000023498536,2|0,0:0|3:0,0:0:0:0:
139,119,144716,6,0,L|128:276,1,154.000004699707,2|8,3:2|0:0,0:0:0:0:
90,364,145243,1,2,0:0:0:0:
17,287,145418,2,0,L|11:208,1,77.0000023498536,2|10,3:2|0:0,0:0:0:0:
0,111,145769,2,0,P|62:88|148:129,1,154.000004699707,2|8,3:2|0:0,0:0:0:0:
286,2,146295,6,0,B|247:23|247:23|252:169,1,154.000004699707,4|2,3:2|0:0,0:0:0:0:
267,246,146822,1,2,3:2:0:0:
367,179,146997,2,0,P|411:173|459:186,1,77.0000023498536,8|2,0:0|3:2,0:0:0:0:
488,276,147348,1,2,3:2:0:0:
416,352,147523,6,0,L|332:347,1,77.0000023498536,2|0,0:0|0:0,0:0:0:0:
268,263,147874,2,0,L|352:258,1,77.0000023498536,10|0,0:0|0:0,0:0:0:0:
259,171,148225,2,0,L|182:166,1,77.0000023498536,2|8,3:2|0:0,0:0:0:0:
89,196,148576,1,0,3:0:0:0:
26,130,148752,1,2,0:0:0:0:
19,274,148927,1,8,0:0:0:0:
19,274,149015,1,8,0:0:0:0:
19,274,149102,6,0,B|1:331|45:363|45:363|96:302,1,154.000004699707,6|2,3:2|0:0,0:0:0:0:
148,262,149629,2,0,P|188:254|236:269,1,77.0000023498536,2|8,3:2|0:0,0:0:0:0:
301,326,149980,1,2,3:2:0:0:
311,180,150155,1,6,3:2:0:0:
399,251,150330,6,0,B|401:212|401:212|392:180|392:180|402:95,1,154.000004699707,2|8,0:0|0:0,0:0:0:0:
417,6,150857,2,0,L|505:11,1,77.0000023498536,0|2,3:0|0:0,0:0:0:0:
401,98,151208,2,0,L|313:103,1,77.0000023498536,2|8,3:2|0:0,0:0:0:0:
238,66,151559,1,8,0:0:0:0:
256,192,151734,1,8,0:0:0:0:
256,192,151822,1,8,0:0:0:0:
256,192,151909,5,4,3:1:0:0:
256,192,152260,12,2,156471,3:2:0:0:
256,192,157523,12,6,161734,0:0:0:0:
462,31,162436,6,0,B|469:65|433:97|433:97|394:61|400:38,1,146.999995513916,2|0,0:0|0:0,0:0:0:0:
400,37,163138,5,6,3:2:0:0:
366,174,163313,2,0,L|362:343,1,140,2|2,3:2|3:2,0:0:0:0:
260,269,163839,2,0,L|262:183,1,70,8|0,0:0|3:0,0:0:0:0:
169,134,164190,2,0,L|167:203,1,70,2|2,0:0|0:0,0:0:0:0:
127,304,164541,1,2,0:0:0:0:
26,256,164716,6,0,P|13:212|39:108,1,140,10|0,0:0|3:0,0:0:0:0:
94,45,165243,2,0,L|172:39,1,70,8|0,0:0|3:0,0:0:0:0:
268,20,165594,1,2,0:0:0:0:
213,112,165769,1,0,3:0:0:0:
291,234,165945,1,6,3:2:0:0:
346,159,166120,6,0,B|384:159|384:159|404:151|404:151|494:151,1,140,2|0,3:2|3:0,0:0:0:0:
460,263,166646,2,0,L|378:260,1,70,8|0,0:0|3:0,0:0:0:0:
291,234,166997,1,2,0:0:0:0:
242,317,167173,1,2,0:0:0:0:
327,376,167348,6,0,P|373:379|408:366,1,70,2|10,0:0|0:0,0:0:0:0:
489,353,167699,1,0,0:0:0:0:
460,263,167874,1,0,3:0:0:0:
503,155,168050,2,0,P|464:171|362:143,1,140,10|0,0:0|0:0,0:0:0:0:
272,54,168576,1,8,0:0:0:0:
272,54,168664,1,8,0:0:0:0:
272,54,168752,1,6,3:2:0:0:
241,146,168927,6,0,B|195:145|195:145|165:123|165:123|83:125,1,140,10|0,0:0|3:0,0:0:0:0:
14,114,169453,1,8,0:0:0:0:
14,223,169629,1,8,0:0:0:0:
14,223,169804,6,0,P|52:208|157:250,1,140,2|0,0:0|0:0,0:0:0:0:
187,334,170330,1,8,0:0:0:0:
235,251,170506,1,0,0:0:0:0:
287,335,170681,1,0,3:0:0:0:
234,225,170857,2,0,L|235:155,1,70,8|8,0:0|3:3,0:0:0:0:
246,52,171208,1,2,0:0:0:0:
345,167,171383,1,0,3:0:0:0:
345,167,171471,1,8,0:0:0:0:
345,167,171559,6,0,B|369:195|389:194|389:194|436:155|405:71,1,181.999991668702,6|10,3:2|3:2,0:0:0:0:
296,246,172085,2,0,B|272:274|252:273|252:273|205:234|236:150,1,181.999991668702,6|10,3:2|3:2,0:0:0:0:
345,329,172611,2,0,B|369:357|389:356|389:356|436:317|405:233,1,181.999991668702,6|8,3:2|0:0,0:0:0:0:
360,152,173138,6,0,L|365:62,1,70,0|0,3:0|3:0,0:0:0:0:
438,10,173488,2,0,L|487:8,2,35,8|8|8,0:0|0:0|0:0,0:0:0:0:
363,82,173839,1,4,0:3:0:0:
261,35,174015,1,4,0:3:0:0:
179,112,174190,1,4,0:3:0:0:
247,230,174366,5,4,3:1:0:0:
43,353,179980,6,0,B|42:323|42:323|55:294|55:294|54:240,1,105.000004005432,4|2,3:1|0:0,0:0:0:0:
45,158,180506,1,2,3:2:0:0:
102,85,180681,2,0,P|134:76|202:93,1,105.000004005432,8|2,0:0|0:0,0:0:0:0:
253,167,181208,6,0,P|302:183|353:173,2,105.000004005432,0|8|0,3:0|0:0|3:0,0:0:0:0:
202,93,182085,2,0,L|205:25,1,52.5000020027161,8|0,0:0|3:0,0:0:0:0:
289,0,182436,1,2,0:0:0:0:
375,98,182612,1,10,0:0:0:0:
375,98,182699,1,8,0:0:0:0:
375,98,182787,6,0,B|406:99|406:99|420:90|420:90|488:91,1,105.000004005432,4|0,3:1|0:0,0:0:0:0:
510,177,183313,2,0,L|508:242,1,52.5000020027161,2|8,3:2|0:0,0:0:0:0:
495,335,183664,2,0,L|439:300,1,52.5000020027161,2|4,0:0|3:0,0:0:0:0:
318,267,184015,6,0,L|409:217,2,105.000004005432,4|8|8,3:0|0:0|0:0,0:0:0:0:
279,293,184804,1,8,0:0:0:0:
279,293,184892,1,8,0:0:0:0:
210,235,185067,1,4,0:3:0:0:
152,304,185243,1,4,0:3:0:0:
221,362,185418,1,4,0:3:0:0:
210,235,185594,5,10,0:0:0:0:
94,373,185769,1,10,0:0:0:0:
94,373,186295,6,0,L|87:310,1,52.5000020027161,8|2,0:0|0:0,0:0:0:0:
32,259,186646,1,4,0:0:0:0:
60,174,186822,2,0,P|108:192|157:177,2,105.000004005432,4|8|2,3:1|0:0|3:2,0:0:0:0:
11,75,187699,6,0,L|11:18,2,35,10|8|8,0:0|0:0|0:0,0:0:0:0:
60,174,188050,1,8,0:0:0:0:
127,46,188225,1,8,0:0:0:0:
127,46,188313,1,8,0:0:0:0:
127,46,188401,6,0,B|148:21|166:21|166:21|207:56|184:120,1,154.000004699707,6|0,3:2|0:0,0:0:0:0:
143,233,188927,1,0,3:0:0:0:
247,198,189102,2,0,L|344:193,1,77.0000023498536,8|0,0:0|0:0,0:0:0:0:
454,211,189453,1,2,3:2:0:0:
376,119,189629,6,0,P|383:66|473:0,2,154.000004699707,2|8|2,3:2|0:0|3:2,0:0:0:0:
323,194,190506,1,10,0:0:0:0:
381,271,190681,2,0,L|376:361,1,77.0000023498536,2|0,3:2|0:0,0:0:0:0:
273,275,191032,1,8,0:0:0:0:
273,275,191120,1,8,0:0:0:0:
273,275,191208,6,0,P|235:253|135:286,1,154.000004699707,6|2,3:2|0:0,0:0:0:0:
41,347,191734,2,0,L|36:268,1,77.0000023498536,2|10,3:2|0:0,0:0:0:0:
131,207,192085,2,0,L|136:286,1,77.0000023498536,2|0,0:0|3:0,0:0:0:0:
235,185,192436,6,0,L|226:20,1,154.000004699707,2|8,3:2|0:0,0:0:0:0:
131,1,192962,1,2,0:0:0:0:
132,107,193138,1,2,3:2:0:0:
26,8,193313,1,10,0:0:0:0:
22,113,193488,2,0,B|22:152|22:152|31:172|31:172|31:269,1,154.000004699707,2|10,3:2|0:0,0:0:0:0:
146,363,194015,6,0,B|146:324|146:324|137:304|137:304|137:207,1,154.000004699707,6|0,3:2|0:0,0:0:0:0:
156,102,194541,1,0,3:0:0:0:
231,183,194716,2,0,L|330:176,1,77.0000023498536,8|0,0:0|0:0,0:0:0:0:
472,169,195067,1,2,3:2:0:0:
395,266,195243,6,0,L|385:91,1,154.000004699707,2|8,3:2|0:0,0:0:0:0:
420,10,195769,1,2,0:0:0:0:
386,112,195945,1,0,3:0:0:0:
312,19,196120,2,0,L|226:17,1,77.0000023498536,10|0,0:0|3:0,0:0:0:0:
136,23,196471,1,2,0:0:0:0:
214,137,196646,1,8,0:0:0:0:
214,137,196734,1,8,0:0:0:0:
214,137,196822,6,0,B|232:183|204:237|204:237|170:241|152:200,1,154.000004699707,6|2,3:2|0:0,0:0:0:0:
111,126,197348,1,2,3:2:0:0:
19,198,197523,2,0,L|17:277,1,77.0000023498536,8|2,0:0|0:0,0:0:0:0:
10,374,197874,1,0,3:2:0:0:
114,351,198050,6,0,P|155:360|205:344,1,77.0000023498536,10|0,0:0|0:0,0:0:0:0:
231,203,198401,2,0,P|222:244|238:294,1,77.0000023498536,10|0,0:0|3:0,0:0:0:0:
303,364,198752,1,2,3:2:0:0:
389,249,198927,1,10,0:2:0:0:
419,359,199102,1,2,3:2:0:0:
419,359,199190,1,0,3:0:0:0:
419,359,199278,1,8,0:0:0:0:
317,280,199453,1,8,0:0:0:0:
365,139,199629,6,0,B|391:107|391:107|389:240,1,154.000004699707,6|0,3:2|0:0,0:0:0:0:
419,359,200155,1,0,3:2:0:0:
483,266,200330,2,0,P|491:222|481:179,1,77.0000023498536,8|0,0:0|0:0,0:0:0:0:
390,110,200681,1,2,3:2:0:0:
472,26,200857,6,0,L|309:24,1,154.000004699707,2|8,3:2|0:0,0:0:0:0:
242,78,201383,2,0,L|240:167,1,77.0000023498536,2|2,0:0|3:2,0:0:0:0:
172,12,201734,1,10,0:0:0:0:
130,115,201909,2,0,P|89:125|43:110,1,77.0000023498536,2|0,3:2|0:0,0:0:0:0:
0,248,202260,1,8,0:0:0:0:
0,248,202348,1,8,0:0:0:0:
0,248,202436,6,0,P|40:229|140:263,1,154.000004699707,6|2,3:2|0:0,0:0:0:0:
157,364,202962,2,0,L|55:372,1,77.0000023498536,2|8,3:2|0:0,0:0:0:0:
138,261,203313,2,0,L|240:253,1,77.0000023498536,2|0,0:0|3:0,0:0:0:0:
330,181,203664,6,0,P|297:248|319:320,1,154.000004699707,2|8,3:2|0:0,0:0:0:0:
422,368,204190,1,2,0:0:0:0:
490,303,204366,2,0,P|498:262|478:221,1,77.0000023498536,2|8,3:2|0:0,0:0:0:0:
401,118,204716,2,0,L|404:283,1,154.000004699707,2|8,3:2|0:0,0:0:0:0:
302,45,205243,6,0,B|301:89|301:89|308:96|308:96|306:210,1,154.000004699707,4|2,3:2|0:0,0:0:0:0:
285,298,205769,1,2,3:2:0:0:
199,238,205945,2,0,P|188:208|204:149,1,77.0000023498536,8|2,0:0|3:2,0:0:0:0:
217,62,206295,1,2,3:2:0:0:
120,111,206471,6,0,L|34:106,1,77.0000023498536,2|0,0:0|0:0,0:0:0:0:
152,228,206822,2,0,L|199:156,1,77.0000023498536,10|0,0:0|0:0,0:0:0:0:
34,197,207173,2,0,L|72:273,1,77.0000023498536,2|8,3:2|0:0,0:0:0:0:
101,363,207523,2,0,L|47:367,2,38.5000011749268,8|8|10,0:0|0:0|0:0,0:0:0:0:
216,293,207874,1,8,0:0:0:0:
216,293,207962,1,8,0:0:0:0:
216,293,208050,6,0,B|262:257|319:296|319:296|292:329,1,154.000004699707,6|2,3:2|0:0,0:0:0:0:
242,170,208576,2,0,L|238:82,1,77.0000023498536,2|8,3:2|0:0,0:0:0:0:
317,14,208927,1,2,3:2:0:0:
343,168,209102,1,6,3:2:0:0:
392,89,209278,6,0,L|238:92,1,154.000004699707,2|8,0:0|0:0,0:0:0:0:
146,62,209804,2,0,L|142:7,2,38.5000011749268,8|8|8,3:3|3:3|3:3,0:0:0:0:
154,169,210155,2,0,L|160:251,1,77.0000023498536,2|8,3:2|0:0,0:0:0:0:
196,356,210506,1,4,3:0:0:0:
256,258,210681,1,8,0:0:0:0:
362,337,210857,6,0,B|361:283|361:283|368:275|368:275|366:158,1,154.000004699707,6|2,3:2|0:0,0:0:0:0:
378,74,211383,1,0,3:0:0:0:
492,50,211559,2,0,L|496:146,1,77.0000023498536,8|2,0:0|0:0,0:0:0:0:
501,271,211909,1,6,3:2:0:0:
430,203,212085,6,0,P|391:190|261:207,1,154.000004699707,2|8,3:2|0:0,0:0:0:0:
244,223,212523,1,2,0:0:0:0:
244,223,212611,1,2,0:0:0:0:
176,155,212787,1,0,3:0:0:0:
108,223,212962,1,8,0:0:0:0:
176,291,213138,2,0,L|172:377,1,77.0000023498536,0|0,3:0|0:0,0:0:0:0:
18,341,213488,1,8,0:0:0:0:
18,341,213576,1,8,0:0:0:0:
18,341,213664,5,6,3:2:0:0:
3,247,213839,2,0,P|-4:206|30:83,1,154.000004699707,10|0,0:0|3:0,0:0:0:0:
120,50,214366,2,0,L|123:151,1,77.0000023498536,10|2,0:0|0:0,0:0:0:0:
214,13,214716,1,4,3:1:0:0:
257,104,214892,6,0,B|300:104|300:104|332:85|332:85|418:88,1,154.000004699707,2|8,3:2|0:0,0:0:0:0:
497,72,215418,1,2,0:0:0:0:
512,164,215594,1,0,3:2:0:0:
420,179,215769,2,0,L|338:185,1,77.0000023498536,10|0,0:0|3:0,0:0:0:0:
243,200,216120,1,2,0:0:0:0:
273,346,216295,1,8,0:0:0:0:
273,346,216383,1,8,0:0:0:0:
273,346,216471,6,0,B|323:347|323:347|331:338|331:338|441:338,1,154.000004699707,6|2,3:2|0:0,0:0:0:0:
498,290,216997,1,0,3:0:0:0:
439,199,217173,2,0,L|444:113,1,77.0000023498536,10|2,0:0|0:0,0:0:0:0:
441,12,217523,1,6,3:2:0:0:
341,111,217699,6,0,L|332:264,2,154.000004699707,2|8|0,3:2|0:0|3:0,0:0:0:0:
320,2,218576,1,10,0:0:0:0:
244,88,218752,2,0,P|185:110|92:69,1,154.000004699707,2|8,3:2|0:0,0:0:0:0:
0,74,219278,5,4,3:2:0:0:
77,203,219453,2,0,B|71:248|71:248|87:287|87:287|72:370,1,154.000004699707,10|0,0:0|3:0,0:0:0:0:
198,384,219980,2,0,L|200:291,1,77.0000023498536,10|2,0:0|0:0,0:0:0:0:
249,172,220330,1,6,3:2:0:0:
312,308,220506,6,0,L|487:310,1,154.000004699707,10|8,0:0|0:0,0:0:0:0:
512,209,221032,2,0,L|424:210,1,77.0000023498536,2|0,0:0|3:0,0:0:0:0:
335,219,221383,1,8,0:0:0:0:
374,119,221559,1,8,0:0:0:0:
276,79,221734,1,8,0:0:0:0:
235,178,221909,1,8,0:0:0:0:
374,119,222085,6,0,L|379:1,1,97.9999970092774,4|2,3:1|0:0,0:0:0:0:
481,0,222611,1,2,3:2:0:0:
472,91,222787,1,8,0:0:0:0:
512,261,223138,1,2,0:0:0:0:
512,261,223313,6,0,L|394:266,1,97.9999970092774,2|8,3:2|0:0,0:0:0:0:
322,277,223839,2,0,P|336:230|327:182,1,97.9999970092774,2|8,3:2|0:0,0:0:0:0:
261,124,224366,1,2,3:2:0:0:
154,261,224716,2,0,L|156:290,2,24.4999992523194,8|8|2,0:0|0:0|3:0,0:0:0:0:
146,182,225067,5,8,0:0:0:0:
146,182,225243,2,0,L|138:74,1,97.9999970092774,2|8,0:0|0:0,0:0:0:0:
126,0,225769,1,2,0:0:0:0:
42,13,225945,1,2,0:0:0:0:
55,97,226120,6,0,L|62:204,1,97.9999970092774,2|8,3:2|0:0,0:0:0:0:
55,290,226646,1,2,3:2:0:0:
113,354,226822,2,0,L|110:387,2,24.4999992523194,8|8|8,0:0|0:0|0:0,0:0:0:0:
178,296,227173,2,0,L|242:291,1,48.9999985046387,2|0,3:2|0:0,0:0:0:0:
329,284,227523,1,10,0:0:0:0:
