osu file format v14

[General]
AudioFilename: audio.mp3
AudioLeadIn: 0
PreviewTime: -1
Countdown: 1
SampleSet: Soft
StackLeniency: 0.7
Mode: 0
LetterboxInBreaks: 0
WidescreenStoryboard: 0

[Editor]
DistanceSpacing: 3
BeatDivisor: 8
GridSize: 4
TimelineZoom: 1.6

[Metadata]
Title:Brave Shine
TitleUnicode:Brave Shine
Artist:Aimer
ArtistUnicode:Aimer
Creator:tejjy
Version:lol
Source:Fate
Tags:
BeatmapID:1111566
BeatmapSetID:523604

[Difficulty]
HPDrainRate:6
CircleSize:4.5
OverallDifficulty:7.7
ApproachRate:9
SliderMultiplier:1.4
SliderTickRate:1

[Events]
//Background and Video events
//Break Periods
//Storyboard Layer 0 (Background)
//Storyboard Layer 1 (Fail)
//Storyboard Layer 2 (Pass)
//Storyboard Layer 3 (Foreground)
//Storyboard Sound Samples

[TimingPoints]
26,701.754385964912,4,1,0,100,1,0
26,-66.6666666666667,4,2,0,50,0,0
4938,-66.6666666666667,4,1,0,50,0,0
6341,-66.6666666666667,4,2,0,50,0,0
31429,-50,4,2,0,50,0,0
32657,-66.6666666666667,4,2,0,50,0,0
34762,-52.6315789473685,4,2,0,50,0,0
39148,-62.5,4,2,0,50,0,0
40376,-52.6315789473684,4,2,0,50,0,0
42131,-62.5,4,2,0,50,0,0
45640,-50,4,2,0,50,0,0
46341,-52.6315789473684,4,2,0,50,0,0
49850,-66.6666666666667,4,2,0,50,0,0
55464,-45.4545454545455,4,2,0,50,0,1

[HitObjects]
144,312,26,6,0,P|173:312|212:312,1,52.5000020027161
265,128,376,2,0,L|193:128,1,52.5000020027161
208,220,727,1,0,0:0:0:0:
101,124,1078,6,0,P|101:153|102:179,1,52.5000020027161
217,182,1429,2,0,L|217:153|217:102,1,52.5000020027161
104,120,1780,5,0,0:0:0:0:
104,222,1955,1,0,0:0:0:0:
211,222,2131,1,0,0:0:0:0:
211,120,2306,1,0,0:0:0:0:
96,119,2482,6,0,L|163:118,3,52.5000020027161
313,119,3183,1,0,0:0:0:0:
236,256,3359,1,0,0:0:0:0:
149,133,3534,2,0,P|173:109|204:96,1,52.5000020027161
236,172,3885,1,0,0:0:0:0:
236,172,4061,1,0,0:0:0:0:
236,177,4236,6,0,L|236:249,3,52.5000020027161
112,244,4938,1,0,0:0:0:0:
319,244,5113,1,0,0:0:0:0:
116,244,5289,1,0,0:0:0:0:
319,244,5464,1,0,0:0:0:0:
216,244,5640,5,0,0:0:0:0:
216,244,5815,2,0,P|216:184|244:136,1,105.000004005432
320,120,6341,1,0,0:0:0:0:
404,172,6517,1,0,0:0:0:0:
404,172,6692,2,0,P|404:232|344:304,1,157.500006008148
248,272,7394,5,0,0:0:0:0:
248,272,7569,1,0,0:0:0:0:
228,160,7745,1,0,0:0:0:0:
136,228,7920,1,0,0:0:0:0:
276,256,8271,5,0,0:0:0:0:
192,152,8447,1,0,0:0:0:0:
148,276,8622,1,0,0:0:0:0:
280,200,8973,5,0,0:0:0:0:
148,173,9149,1,0,0:0:0:0:
194,297,9324,1,0,0:0:0:0:
304,284,9675,5,0,0:0:0:0:
304,180,9850,1,0,0:0:0:0:
164,284,10025,1,0,0:0:0:0:
304,180,10201,1,0,0:0:0:0:
164,284,10376,1,0,0:0:0:0:
252,144,10552,1,0,0:0:0:0:
232,304,10727,1,0,0:0:0:0:
180,144,10903,1,0,0:0:0:0:
312,292,11078,5,0,0:0:0:0:
316,292,11166,1,0,0:0:0:0:
316,292,11254,2,0,P|353:260|377:210,1,105.000004005432
268,208,11780,2,0,P|282:257|318:295,1,105.000004005432
372,208,12306,2,0,P|321:194|271:202,1,105.000004005432
160,272,12833,1,0,0:0:0:0:
196,100,13183,5,0,0:0:0:0:
308,108,13359,1,0,0:0:0:0:
344,204,13534,1,0,0:0:0:0:
344,204,13885,5,0,0:0:0:0:
260,280,14061,1,0,0:0:0:0:
156,264,14236,2,0,B|116:224|112:160|108:156,1,105.000004005432
111,170,14762,1,0,0:0:0:0:
208,104,15113,6,0,L|208:200,1,52.5000020027161
288,144,15464,2,0,L|288:208,1,52.5000020027161
360,184,15815,2,0,L|360:236,1,52.5000020027161
360,244,16078,1,0,0:0:0:0:
360,256,16166,1,0,0:0:0:0:
276,208,16341,6,0,L|276:168,1,26.2500010013581
196,168,16517,2,0,L|196:141,1,26.2500010013581
120,124,16692,2,0,L|120:97,1,26.2500010013581
248,72,16868,5,0,0:0:0:0:
372,136,17043,2,0,P|380:170|338:198,1,52.5000020027161
192,280,17394,1,0,0:0:0:0:
396,276,17745,5,0,0:0:0:0:
396,128,18096,2,0,L|312:128,1,52.5000020027161
240,128,18447,1,0,0:0:0:0:
124,128,18622,2,0,B|124:224|124:244|124:244,1,105.000004005432
223,314,19148,5,0,0:0:0:0:
281,172,19324,1,0,0:0:0:0:
161,255,19499,1,0,0:0:0:0:
161,255,19587,1,0,0:0:0:0:
161,255,19675,1,0,0:0:0:0:
307,263,19850,1,0,0:0:0:0:
191,168,20025,1,0,0:0:0:0:
224,308,20201,6,0,B|270:307|324:300|358:275,2,105.000004005432
112,224,21254,2,0,P|96:188|104:152,1,52.5000020027161
248,84,21604,1,0,0:0:0:0:
248,84,21955,1,0,0:0:0:0:
260,92,22306,5,0,0:0:0:0:
260,92,22394,1,0,0:0:0:0:
260,92,22482,1,0,0:0:0:0:
276,252,22657,1,0,0:0:0:0:
108,248,22833,2,0,P|80:212|76:136,1,105.000004005432
184,92,23534,5,0,0:0:0:0:
308,128,23710,2,0,B|340:144|340:144|312:208|312:208,1,105.000004005432
256,280,24236,1,0,0:0:0:0:
308,128,24587,5,0,0:0:0:0:
155,204,24762,1,0,0:0:0:0:
304,264,24938,1,0,0:0:0:0:
148,318,25113,1,0,0:0:0:0:
144,312,25201,1,0,0:0:0:0:
140,308,25289,2,0,B|108:264|92:236|92:236,1,52.5000020027161
79,196,25640,5,0,0:0:0:0:
83,120,25815,1,0,0:0:0:0:
134,61,25990,1,0,0:0:0:0:
204,40,26166,2,0,B|268:24|349:61|349:61,1,105.000004005432
348,144,26868,5,0,0:0:0:0:
252,184,27043,1,0,0:0:0:0:
348,232,27218,1,0,0:0:0:0:
248,280,27394,1,0,0:0:0:0:
156,228,27569,1,0,0:0:0:0:
112,140,27745,5,0,0:0:0:0:
112,116,27833,1,0,0:0:0:0:
120,92,27920,1,0,0:0:0:0:
136,76,28008,1,0,0:0:0:0:
156,64,28096,2,0,B|184:44|224:52|236:40,1,52.5000020027161
308,64,28447,5,0,0:0:0:0:
388,132,28622,2,0,P|404:184|392:212,2,52.5000020027161
308,64,29148,1,0,0:0:0:0:
192,60,29324,2,0,B|156:56|132:84|116:120|116:120,1,78.7500030040742
232,276,29675,1,0,0:0:0:0:
192,56,29850,2,0,P|128:96|112:164,1,105.000004005432
128,200,30376,5,0,0:0:0:0:
184,252,30552,2,0,P|228:272|268:264,1,52.5000020027161
260,276,30815,1,0,0:0:0:0:
284,272,30903,1,0,0:0:0:0:
364,180,31078,1,0,0:0:0:0:
216,144,31254,1,0,0:0:0:0:
260,288,31429,2,0,B|300:280|312:256|312:220,1,70
260,155,31780,1,0,0:0:0:0:
260,288,32131,2,0,L|260:155,1,132.999996448517
348,104,32832,5,0,0:0:0:0:
176,104,33183,2,0,B|127:154|130:206|154:245,1,105.000004005432
144,220,33622,1,0,0:0:0:0:
152,240,33710,1,0,0:0:0:0:
308,240,33885,5,0,2:0:0:0:
176,104,34061,2,0,B|140:148|144:168|140:160,1,52.5000020027161
160,260,34411,1,0,0:0:0:0:
160,260,34762,5,0,2:0:0:0:
160,160,34938,2,0,P|180:103|226:82,1,66.4999982242585,0|0,2:0|2:0,2:0:0:0:
296,72,35289,1,0,2:0:0:0:
320,172,35465,2,0,P|299:228|224:272,1,132.999996448517,0|0,2:0|2:0,2:0:0:0:
320,168,36166,5,0,0:0:0:0:
264,112,36341,1,0,0:0:0:0:
256,104,36429,1,0,0:0:0:0:
244,96,36517,2,0,P|208:76|176:72,1,66.4999982242585
112,100,36868,5,0,0:0:0:0:
168,288,37043,1,0,0:0:0:0:
248,152,37218,1,0,0:0:0:0:
84,264,37394,1,0,0:0:0:0:
248,240,37569,1,0,0:0:0:0:
88,268,37745,5,0,0:0:0:0:
80,180,37920,1,0,0:0:0:0:
132,104,38096,1,0,0:0:0:0:
216,88,38271,1,0,0:0:0:0:
328,121,38447,5,0,0:0:0:0:
336,128,38534,1,0,0:0:0:0:
336,128,38622,1,0,0:0:0:0:
244,184,38797,1,0,0:0:0:0:
340,228,38973,1,0,0:0:0:0:
244,288,39148,1,0,0:0:0:0:
136,176,39324,6,0,P|148:224|132:244,1,56
195,243,39675,6,0,P|147:229|138:205,1,56
106,261,40025,6,0,P|141:226|166:230,1,56
388,152,40376,5,0,0:0:0:0:
388,152,40552,1,0,0:0:0:0:
388,152,40727,2,0,P|375:219|403:258,1,66.4999982242585
312,201,41078,2,0,P|379:213|418:185,1,66.4999982242585
362,277,41428,2,0,P|374:209|346:170,1,66.4999982242585
439,227,41779,2,0,P|371:214|332:242,1,66.4999982242585
205,37,42131,6,0,P|217:85|201:105,1,56
264,104,42482,6,0,P|216:90|207:66,1,56
175,122,42832,6,0,P|210:87|235:91,1,56
216,88,43183,1,0,0:0:0:0:
216,88,43359,1,0,0:0:0:0:
112,192,43534,1,0,0:0:0:0:
292,176,43710,1,0,0:0:0:0:
140,88,43885,1,0,0:0:0:0:
204,188,44061,2,0,P|232:148|296:128,1,70
458,68,44411,6,0,B|463:57|444:112|360:156,1,132.999996448517
124,175,44938,6,0,P|190:167|230:159,1,66.4999982242585
368,176,45289,2,0,P|301:168|262:160,1,66.4999982242585
100,87,45640,1,0,0:0:0:0:
252,91,45815,1,0,0:0:0:0:
124,175,45990,1,0,0:0:0:0:
276,183,46166,1,0,0:0:0:0:
276,183,46341,2,0,P|236:124|180:96,1,132.999996448517
80,84,46868,1,0,0:0:0:0:
172,232,47218,6,0,P|229:273|291:280,1,132.999996448517
272,184,47745,1,0,0:0:0:0:
97,77,48096,5,0,0:0:0:0:
76,256,48271,1,0,0:0:0:0:
36,148,48622,5,0,0:0:0:0:
176,252,48797,2,0,P|231:246|311:169,1,132.999996448517
360,140,49324,5,0,0:0:0:0:
288,76,49499,2,0,B|248:56|248:56|228:68|228:68|152:32|152:32,1,132.999996448517
112,120,50201,6,0,B|119:139|119:139|139:135|139:135|143:163,1,52.5000020027161
196,208,50552,2,0,P|236:236|256:236,1,52.5000020027161
356,224,50903,1,0,0:0:0:0:
384,100,51078,1,0,0:0:0:0:
196,204,51254,1,0,0:0:0:0:
220,124,51429,1,0,0:0:0:0:
284,68,51604,1,0,0:0:0:0:
464,81,51780,6,0,P|419:53|372:52,1,78.7500030040742
376,168,52131,1,0,0:0:0:0:
252,248,52306,1,0,0:0:0:0:
148,216,52482,5,0,0:0:0:0:
122,187,52569,1,0,0:0:0:0:
115,151,52657,1,0,0:0:0:0:
115,111,52745,1,0,0:0:0:0:
133,79,52833,1,0,0:0:0:0:
240,60,53008,5,0,0:0:0:0:
296,176,53183,1,0,0:0:0:0:
252,44,53359,1,0,0:0:0:0:
188,260,53534,1,0,0:0:0:0:
232,168,55464,5,0,0:0:0:0:
232,168,55640,1,0,0:0:0:0:
232,168,55815,1,0,0:0:0:0:
372,88,56166,2,0,P|308:64|192:68,1,154.000004699707
88,132,56692,1,0,0:0:0:0:
193,223,56868,1,0,0:0:0:0:
222,88,57043,1,0,0:0:0:0:
65,217,57218,2,0,B|117:260|179:271|204:269,1,77.0000023498536
132,256,57745,5,0,0:0:0:0:
208,120,57920,1,0,0:0:0:0:
256,256,58096,1,0,0:0:0:0:
128,104,58271,2,0,P|92:136|76:176,1,77.0000023498536
116,260,58622,5,0,0:0:0:0:
220,276,58797,1,0,0:0:0:0:
232,276,58885,1,0,0:0:0:0:
248,272,58973,2,0,P|296:244|312:216,1,77.0000023498536
328,140,59324,1,0,0:0:0:0:
144,132,59499,2,0,P|172:60|212:64,1,115.50000352478
212,68,59850,2,0,P|248:96|288:124,1,77.0000023498536
252,288,60201,5,0,0:0:0:0:
160,252,60376,1,0,0:0:0:0:
108,168,60552,1,0,0:0:0:0:
144,88,60727,5,0,0:0:0:0:
228,272,60903,1,0,0:0:0:0:
272,104,61078,1,0,0:0:0:0:
132,212,61254,1,0,0:0:0:0:
312,208,61429,1,0,0:0:0:0:
196,72,61604,1,0,0:0:0:0:
180,68,61692,1,0,0:0:0:0:
168,68,61780,2,0,B|100:72|36:136|60:192,1,154.000004699707
200,244,62306,5,0,0:0:0:0:
300,360,62482,1,0,0:0:0:0:
309,182,62657,1,0,0:0:0:0:
413,306,62833,1,0,0:0:0:0:
404,112,63008,2,0,P|352:72|260:52,1,154.000004699707
160,92,63534,5,0,0:0:0:0:
68,172,63710,1,0,0:0:0:0:
128,280,63885,2,0,B|164:304|220:316|216:316,1,77.0000023498536
132,152,64236,1,0,0:0:0:0:
252,152,64411,5,0,0:0:0:0:
260,156,64499,1,0,0:0:0:0:
272,160,64587,2,0,P|312:208|256:264,1,154.000004699707
124,256,65113,2,0,P|102:197|151:193,1,77.0000023498536
340,48,65464,2,0,P|356:80|335:110,1,77.0000023498536
272,164,65815,2,0,L|212:224,1,77.0000023498536
152,280,66166,6,0,L|96:332,2,77.0000023498536
88,208,66692,1,0,0:0:0:0:
128,136,66868,1,0,0:0:0:0:
145,112,66955,1,0,0:0:0:0:
160,90,67043,1,0,0:0:0:0:
180,69,67131,1,0,0:0:0:0:
202,51,67218,1,0,0:0:0:0:
227,37,67306,1,0,0:0:0:0:
253,27,67394,6,0,P|321:33|381:96,1,154.000004699707
256,208,67920,5,0,0:0:0:0:
128,32,68096,1,0,0:0:0:0:
144,240,68271,1,0,0:0:0:0:
232,72,68447,1,0,0:0:0:0:
64,160,68622,1,0,0:0:0:0:
64,160,68973,6,0,P|44:212|116:216,1,115.50000352478
104,236,69324,5,0,0:0:0:0:
96,92,69499,1,0,0:0:0:0:
232,148,69675,1,0,0:0:0:0:
48,204,69850,1,0,0:0:0:0:
176,84,70025,1,0,0:0:0:0:
188,72,70113,1,0,0:0:0:0:
204,64,70201,2,0,P|272:32|336:52,1,115.50000352478
320,44,70552,2,0,P|360:92|360:108,1,77.0000023498536
308,172,70903,1,0,0:0:0:0:
312,92,71078,2,0,P|365:118|383:151,1,77.0000023498536
240,208,71429,2,0,B|196:204|164:260|80:236,1,154.000004699707
92,239,71955,5,0,0:0:0:0:
308,124,72131,1,0,0:0:0:0:
216,240,72306,1,0,0:0:0:0:
192,60,72482,2,0,P|144:48|100:64,1,77.0000023498536
118,53,72833,5,0,0:0:0:0:
208,224,73008,2,0,B|248:248|328:256|316:252,1,77.0000023498536
208,120,73359,5,0,0:0:0:0:
141,266,73534,2,0,B|163:306|228:353|220:344,1,77.0000023498536
288,324,73885,1,0,0:0:0:0:
384,284,74061,1,0,0:0:0:0:
408,184,74236,2,0,B|404:108|336:60|320:56,1,154.000004699707
224,188,74762,5,0,0:0:0:0:
416,196,74938,1,0,0:0:0:0:
324,48,75113,1,0,0:0:0:0:
332,264,75289,1,0,0:0:0:0:
232,176,75464,1,0,0:0:0:0:
220,296,75640,5,0,0:0:0:0:
200,292,75727,1,0,0:0:0:0:
176,284,75815,2,0,P|112:220|112:204,1,77.0000023498536
120,140,76166,5,0,0:0:0:0:
188,64,76341,1,0,0:0:0:0:
288,76,76517,1,0,0:0:0:0:
324,168,76692,1,0,0:0:0:0:
244,228,76868,1,0,0:0:0:0:
148,196,77043,2,0,P|112:116|208:64,1,154.000004699707
252,56,77569,5,0,0:0:0:0:
344,76,77745,1,0,0:0:0:0:
368,88,77833,1,0,0:0:0:0:
384,108,77920,2,0,L|352:156,2,38.5000011749268
404,124,78183,1,0,0:0:0:0:
420,144,78271,1,0,0:0:0:0:
428,172,78359,1,0,0:0:0:0:
428,200,78447,1,0,0:0:0:0:
420,228,78534,1,0,0:0:0:0:
408,252,78622,6,0,B|376:292|316:232|300:320|300:320,1,115.50000352478
296,304,78973,2,0,P|240:296|168:228,2,154.000004699707
384,228,79850,1,0,0:0:0:0:
248,100,80025,1,0,0:0:0:0:
240,296,80201,1,0,0:0:0:0:
288,180,80376,1,0,0:0:0:0:
152,320,80552,1,0,0:0:0:0:
288,136,80727,2,0,L|289:212,1,77.0000023498536
152,212,81078,2,0,L|150:129,1,77.0000023498536
152,120,81341,5,0,0:0:0:0:
152,108,81429,1,0,0:0:0:0:
328,108,81604,1,0,0:0:0:0:
224,256,81780,1,0,0:0:0:0:
140,72,81955,2,0,P|228:32|312:48,1,154.000004699707
228,168,82482,5,0,0:0:0:0:
228,168,82657,1,0,0:0:0:0:
152,104,82833,1,0,0:0:0:0:
312,104,83008,1,0,0:0:0:0:
312,248,83183,1,0,0:0:0:0:
152,248,83359,1,0,0:0:0:0:
256,72,83534,1,0,0:0:0:0:
368,248,83710,1,0,0:0:0:0:
232,284,83885,5,0,0:0:0:0:
208,272,83973,1,0,0:0:0:0:
176,256,84061,1,0,0:0:0:0:
148,236,84148,1,0,0:0:0:0:
128,216,84236,2,0,B|112:152|120:112|164:72,1,154.000004699707
308,64,84762,5,0,0:0:0:0:
400,176,84938,1,0,0:0:0:0:
256,160,85113,1,0,0:0:0:0:
344,276,85289,1,0,0:0:0:0:
344,276,85464,1,0,0:0:0:0:
168,232,85640,6,0,P|136:200|160:148,1,77.0000023498536
260,56,85990,2,0,P|288:84|272:152,1,77.0000023498536
292,128,86254,1,0,0:0:0:0:
292,140,86341,1,0,0:0:0:0:
208,260,86517,1,0,0:0:0:0:
292,140,86692,1,0,0:0:0:0:
208,264,86868,1,0,0:0:0:0:
128,128,87043,1,0,0:0:0:0:
288,120,87218,5,0,0:0:0:0:
288,120,87306,1,0,0:0:0:0:
288,120,87394,1,0,0:0:0:0:
424,192,87569,5,0,0:0:0:0:
432,200,87657,1,0,0:0:0:0:
432,200,87745,1,0,0:0:0:0:
296,268,87920,6,0,L|296:294,1,26.2500010013581
172,184,88096,2,0,L|172:228,1,26.2500010013581
56,100,88271,1,0,0:0:0:0:
