osu file format v14

[General]
AudioFilename: Brave Shine.mp3
AudioLeadIn: 0
PreviewTime: 55763
Countdown: 1
SampleSet: Soft
StackLeniency: 0.7
Mode: 0
LetterboxInBreaks: 1
WidescreenStoryboard: 1

[Editor]
DistanceSpacing: 1.3
BeatDivisor: 4
GridSize: 4
TimelineZoom: 1.5

[Metadata]
Title:Brave Shine
TitleUnicode:Brave Shine
Artist:Aimer
ArtistUnicode:Aimer
Creator:Trust
Version:Normal
Source:Fate/stay night [Unlimited Blade Works]
Tags:opening ubw meiikyuu エメ 2nd second season フェイト/ステイナイト japanese anime fate series 小山寿 Hisashi Koyama
BeatmapID:3423167
BeatmapSetID:880073

[Difficulty]
HPDrainRate:3
CircleSize:3.5
OverallDifficulty:4
ApproachRate:5
SliderMultiplier:1.5
SliderTickRate:1

[Events]
//Background and Video events
0,0,"fsnbg.jpg",0,0
Video,-350,"vidyer.avi"
//Break Periods
//Storyboard Layer 0 (Background)
//Storyboard Layer 1 (Fail)
//Storyboard Layer 2 (Pass)
//Storyboard Layer 3 (Foreground)
//Storyboard Layer 4 (Overlay)
//Storyboard Sound Samples

[TimingPoints]
413,701.754385964912,4,2,1,30,1,0
3220,-100,4,2,1,50,0,0
5325,-100,4,2,1,50,0,0
6027,-100,4,2,1,70,0,0
17255,-100,4,2,1,50,0,0
39711,-100,4,2,1,50,0,0
50939,-100,4,2,1,50,0,0
56553,-100,4,2,1,70,0,1
90237,-100,4,2,1,50,0,0
94448,-100,4,2,1,40,0,0

[Colours]
Combo1 : 255,187,221
Combo2 : 255,170,170
Combo3 : 128,128,255
Combo4 : 189,123,123

[HitObjects]
75,119,413,6,0,P|90:169|101:234,1,112.5,0|0,0:0|0:0,0:0:0:0:
111,275,1114,2,0,P|163:239|216:241,1,112.5,0|0,1:0|0:0,0:0:0:0:
307,252,1991,2,0,P|395:217|404:207,1,75,0|0,1:0|0:0,0:0:0:0:
420,207,2518,2,0,P|422:172|428:115,1,75,0|0,1:0|0:0,0:0:0:0:
351,61,3220,5,0,0:0:0:0:
351,61,3395,2,0,P|291:73|249:90,1,75,0|0,0:0|0:0,0:0:0:0:
231,93,3921,1,8,0:0:0:0:
231,93,4097,2,0,P|156:79|123:77,1,75,0|0,0:0|0:0,0:0:0:0:
109,71,4623,1,8,0:0:0:0:
14,259,6027,6,0,P|74:234|126:227,1,112.5,4|0,1:0|1:0,0:0:0:0:
168,235,6728,2,0,P|182:304|236:321,1,112.5,8|0,0:0|1:0,0:0:0:0:
303,279,7605,2,0,P|330:226|348:201,1,75,8|0,0:0|1:0,0:0:0:0:
369,175,8132,2,0,P|353:119|350:85,1,75,8|0,0:0|0:0,0:0:0:0:
277,37,8834,5,4,1:2:0:0:
277,37,9009,2,0,P|179:52|177:52,1,75,0|0,1:0|1:0,0:0:0:0:
154,49,9535,1,8,0:0:0:0:
75,106,9886,2,0,L|21:86,2,37.5,0|0|0,0:0|1:0|0:0,0:0:0:0:
119,125,10412,2,0,P|130:187|144:223,1,75,8|0,0:0|1:0,0:0:0:0:
176,221,10939,2,0,P|165:283|151:319,1,75,8|0,0:0|0:0,0:0:0:0:
247,340,11641,5,4,1:2:0:0:
247,340,11816,2,0,P|300:317|349:305,1,75,0|0,1:0|1:0,0:0:0:0:
364,304,12342,2,0,P|361:355|363:372,2,37.5,8|0|0,0:0|1:0|0:0,0:0:0:0:
386,260,12869,1,0,1:0:0:0:
442,180,13220,2,0,P|396:147|359:107,1,75,8|0,0:0|1:0,0:0:0:0:
340,110,13746,1,8,0:0:0:0:
340,110,13921,2,0,P|284:123|251:140,1,75,0|0,1:0|1:0,0:0:0:0:
223,150,14448,5,4,1:2:0:0:
223,150,14623,1,0,1:0:0:0:
136,194,14974,1,0,1:0:0:0:
136,194,15149,2,0,P|120:111|112:83,1,112.5,8|8,0:0|0:0,0:0:0:0:
196,34,16027,2,0,P|242:46|317:38,1,112.5,8|8,0:0|0:0,0:0:0:0:
353,31,16728,1,8,0:3:0:0:
353,31,16904,1,8,0:3:0:0:
442,70,17255,6,0,P|400:176|403:197,1,112.5,4|0,1:0|1:0,0:0:0:0:
402,219,17956,1,8,0:0:0:0:
328,345,18483,2,0,P|273:337|228:343,1,75,0|8,1:0|0:0,0:0:0:0:
205,343,19009,1,0,1:0:0:0:
139,270,19360,2,0,P|83:297|77:302,2,37.5,8|0|0,0:0|1:0|0:0,0:0:0:0:
178,241,19886,1,8,0:0:0:0:
178,241,20062,6,0,P|176:181|161:135,1,75,0|0,1:0|0:0,0:0:0:0:
154,121,20588,1,0,1:0:0:0:
154,121,20763,2,0,P|227:101|272:80,1,112.5,8|0,0:0|1:0,0:0:0:0:
335,22,21641,2,0,P|306:-2|290:-34,2,37.5,8|0|0,0:0|1:0|0:0,0:0:0:0:
376,47,22167,1,8,0:0:0:0:
376,47,22342,2,0,P|406:98|434:131,1,75,2|8,1:2|0:0,0:0:0:0:
459,132,22869,5,0,1:0:0:0:
385,195,23220,2,0,P|374:232|371:252,1,37.5,0|0,0:0|1:0,0:0:0:0:
358,277,23570,1,8,0:0:0:0:
281,337,23921,2,0,P|292:374|295:394,2,37.5,0|0|0,0:0|1:0|0:0,0:0:0:0:
258,293,24448,2,0,P|201:269|162:268,1,75,8|0,0:0|0:0,0:0:0:0:
139,267,24974,1,8,0:0:0:0:
66,202,25325,2,0,P|86:150|88:136,1,37.5,0|8,0:0|0:0,0:0:0:0:
97,121,25676,5,0,1:0:0:0:
97,121,25851,1,8,0:0:0:0:
178,53,26202,1,0,1:0:0:0:
178,53,26377,2,0,P|167:15|166:1,2,37.5,8|0|0,0:0|1:0|0:0,0:0:0:0:
221,76,26904,2,0,P|287:60|326:63,1,75,0|8,1:0|0:0,0:0:0:0:
344,70,27430,1,0,1:0:0:0:
438,92,27781,1,8,0:0:0:0:
412,186,28132,2,0,P|426:224|433:238,1,37.5,0|0,0:0|1:0,0:0:0:0:
445,265,28483,6,0,P|382:256|348:264,1,75,4|0,1:0|0:0,0:0:0:0:
325,273,29009,1,0,1:0:0:0:
325,273,29184,2,0,P|310:314|303:327,1,37.5,8|0,0:0|1:0,0:0:0:0:
226,355,29711,2,0,P|202:317|172:288,1,75,0|8,1:0|0:0,0:0:0:0:
141,268,30237,1,0,1:0:0:0:
47,241,30588,1,8,0:0:0:0:
76,148,30939,1,0,0:0:0:0:
170,172,31290,6,0,P|233:162|273:152,1,75,0|0,1:0|0:0,0:0:0:0:
289,176,31816,1,0,1:0:0:0:
289,176,31991,2,0,P|352:186|392:196,1,75,8|0,0:0|0:0,0:0:0:0:
408,170,32518,1,0,1:0:0:0:
462,88,32869,1,0,1:0:0:0:
399,13,33220,2,0,P|360:57|329:78,1,75,0|2,0:0|1:2,0:0:0:0:
259,109,33921,1,8,0:0:0:0:
259,109,34097,6,0,P|220:65|189:44,1,75,0|0,1:0|0:0,0:0:0:0:
164,31,34623,1,0,1:0:0:0:
164,31,34798,1,8,0:0:0:0:
79,78,35149,1,0,0:0:0:0:
79,78,35325,2,0,L|53:181,1,75,0|8,1:0|0:0,0:0:0:0:
47,197,35851,1,0,1:0:0:0:
108,272,36202,2,0,P|174:248|196:246,1,75,8|0,0:0|0:0,0:0:0:0:
265,291,36904,6,0,P|298:306|335:315,1,75,0|0,1:0|0:0,0:0:0:0:
384,315,37430,1,0,1:0:0:0:
384,315,37605,2,0,L|405:245,1,37.5,8|0,0:0|1:0,0:0:0:0:
322,212,38132,2,0,L|293:120,1,75,0|8,1:0|0:0,0:0:0:0:
286,99,38658,1,0,1:0:0:0:
198,142,39009,1,8,0:0:0:0:
117,86,39360,1,8,0:3:0:0:
26,123,39711,6,0,P|4:204|30:291,1,150,4|0,1:2|0:0,0:0:0:0:
141,351,41114,2,0,P|153:277|132:206,1,150,0|0,0:0|0:0,0:0:0:0:
30,96,42518,5,0,0:0:0:0:
175,11,43220,1,0,0:0:0:0:
228,65,43570,2,0,L|213:156,1,75,2|0,0:0|0:0,0:0:0:0:
276,184,44272,1,0,0:0:0:0:
276,184,44448,2,0,L|296:274,1,75,2|2,0:0|0:0,0:0:0:0:
357,296,45149,1,0,0:0:0:0:
357,296,45325,6,0,P|434:290|458:213,1,150,0|0,0:0|0:0,0:0:0:0:
373,109,46728,2,0,P|300:115|240:132,1,112.5,0|2,0:0|0:0,0:0:0:0:
189,142,47605,6,0,P|163:88|157:16,2,112.5,2|0|0,0:0|0:0|0:0,0:0:0:0:
240,197,49009,1,0,0:0:0:0:
240,197,49184,2,0,L|220:362,1,150,2|0,0:0|0:0,0:0:0:0:
149,367,50237,2,0,P|129:309|113:280,1,75,0|0,0:0|0:0,0:0:0:0:
65,217,50939,6,0,P|57:160|97:95,1,112.5,0|0,1:0|1:0,0:0:0:0:
118,82,51641,1,8,0:0:0:0:
214,95,51991,1,0,0:0:0:0:
214,95,52167,2,0,P|231:152|248:190,1,75,0|8,1:0|0:0,0:0:0:0:
279,190,52693,2,0,P|334:174|373:170,1,75,0|8,1:0|0:0,0:0:0:0:
440,211,53395,1,8,0:3:0:0:
485,124,53746,6,0,L|468:70,1,37.5,8|8,1:2|1:2,0:0:0:0:
306,195,56027,6,0,P|293:252|290:264,1,37.5,0|8,1:0|0:0,0:0:0:0:
232,290,56553,6,0,P|131:261|100:266,1,112.5,4|0,1:0|1:0,0:0:0:0:
77,271,57255,1,8,0:0:0:0:
23,191,57605,1,0,1:0:0:0:
23,191,57781,2,0,P|46:136|53:87,1,75,0|8,1:0|0:0,0:0:0:0:
45,72,58307,1,0,0:0:0:0:
139,95,58658,2,0,P|208:82|237:73,1,75,8|0,0:0|0:0,0:0:0:0:
301,39,59360,5,0,1:0:0:0:
301,39,59535,2,0,P|341:103|349:135,1,75,8|0,0:0|1:0,0:0:0:0:
389,102,60062,2,0,P|372:175|355:203,1,75,8|0,0:0|1:0,0:0:0:0:
332,202,60588,2,0,P|295:193|258:187,1,75,0|8,1:0|0:0,0:0:0:0:
129,117,61465,1,8,0:0:0:0:
129,117,61641,2,0,P|149:208|150:220,1,75,0|8,1:0|0:0,0:0:0:0:
101,209,62167,6,0,P|85:274|116:324,1,112.5,4|0,1:0|1:0,0:0:0:0:
139,346,62869,1,8,0:0:0:0:
220,292,63220,1,0,1:0:0:0:
220,292,63395,2,0,P|291:278|315:277,1,75,0|8,1:0|0:0,0:0:0:0:
339,294,63921,1,0,0:0:0:0:
414,232,64272,2,0,P|393:167|388:131,1,75,8|0,0:0|0:0,0:0:0:0:
436,141,64798,1,8,0:0:0:0:
436,141,64974,6,0,P|458:80|411:18,1,112.5,0|0,1:0|1:0,0:0:0:0:
392,27,65676,2,0,P|296:49|286:49,1,75,8|0,0:0|0:0,0:0:0:0:
272,35,66202,1,8,0:0:0:0:
182,72,66553,2,0,L|132:62,2,37.5,8|0|0,0:0|0:0|0:0,0:0:0:0:
213,109,67079,2,0,P|226:164|221:203,1,75,8|8,0:0|0:0,0:0:0:0:
210,228,67605,1,8,0:0:0:0:
210,228,67781,6,0,P|147:216|74:210,1,112.5,4|0,1:0|1:0,0:0:0:0:
50,210,68483,1,8,0:0:0:0:
19,117,68834,1,0,1:0:0:0:
19,117,69009,2,0,P|90:100|111:98,1,75,0|8,1:0|0:0,0:0:0:0:
162,31,69711,1,0,1:0:0:0:
162,31,69886,2,0,P|233:48|254:50,1,75,8|0,0:0|0:0,0:0:0:0:
325,12,70588,6,0,P|369:81|365:113,1,112.5,0|0,1:0|1:0,0:0:0:0:
334,145,71290,1,8,0:0:0:0:
273,220,71641,1,0,1:0:0:0:
273,220,71816,2,0,P|282:278|295:320,1,75,0|8,1:0|0:0,0:0:0:0:
378,326,72518,2,0,L|370:369,2,37.5,0|8|0,1:0|0:0|1:0,0:0:0:0:
460,274,73220,1,0,1:0:0:0:
460,274,73395,6,0,P|473:207|448:155,1,112.5,4|0,1:0|1:0,0:0:0:0:
436,131,74097,1,8,0:0:0:0:
339,115,74448,1,0,1:0:0:0:
339,115,74623,2,0,P|322:69|315:33,1,75,0|8,0:0|0:0,0:0:0:0:
224,9,75325,1,0,1:0:0:0:
225,9,75500,2,0,P|216:45|212:66,1,37.5,8|0,0:0|1:0,0:0:0:0:
122,72,76027,1,0,0:0:0:0:
122,72,76202,6,0,P|87:125|94:178,1,112.5,4|0,1:0|1:0,0:0:0:0:
98,219,76904,2,0,P|63:251|59:258,2,37.5,8|0|4,0:0|1:0|1:0,0:0:0:0:
146,224,77430,2,0,P|178:286|182:308,1,75,0|8,0:0|0:0,0:0:0:0:
187,338,77956,1,8,0:3:0:0:
275,297,78307,1,0,1:0:0:0:
358,346,78658,1,8,0:3:0:0:
452,308,79009,6,0,P|466:203|448:169,1,112.5,4|0,1:0|1:0,0:0:0:0:
446,161,79711,1,8,0:0:0:0:
351,130,80062,1,4,1:0:0:0:
351,130,80237,2,0,P|288:147|256:162,1,75,0|0,0:0|0:0,0:0:0:0:
235,173,80763,1,0,0:0:0:0:
165,241,81114,1,8,0:0:0:0:
165,241,81290,2,0,P|122:183|98:163,1,75,0|8,1:0|0:0,0:0:0:0:
75,161,81816,5,0,1:0:0:0:
75,161,81991,2,0,L|98:68,1,75,8|0,0:0|0:0,0:0:0:0:
109,41,82518,1,8,0:0:0:0:
214,24,82869,1,0,1:0:0:0:
214,24,83044,2,0,P|221:85|241:117,1,75,0|8,1:0|0:0,0:0:0:0:
274,235,83921,2,0,L|259:343,1,75,0|0,0:0|0:0,0:0:0:0:
360,293,84623,6,0,P|420:282|483:234,1,112.5,4|0,1:0|1:0,0:0:0:0:
502,225,85325,1,8,0:0:0:0:
424,165,85676,1,4,1:0:0:0:
424,165,85851,2,0,P|413:109|413:66,1,75,0|8,1:0|0:0,0:0:0:0:
339,25,86553,1,0,1:0:0:0:
339,25,86728,2,0,L|309:87,1,37.5,8|0,0:0|1:0,0:0:0:0:
237,106,87255,1,0,1:0:0:0:
237,106,87430,6,0,L|218:47,1,37.5,4|8,0:2|0:0,0:0:0:0:
141,20,87956,1,0,0:0:0:0:
141,20,88132,2,0,P|86:31|42:41,1,75,4|4,1:0|1:0,0:0:0:0:
13,116,88834,2,0,P|49:123|86:131,1,75,8|8,0:3|0:3,0:0:0:0:
156,199,89535,1,8,0:0:0:0:
242,154,89886,1,8,0:0:0:0:
318,214,90237,6,0,P|348:317|341:344,1,112.5,4|0,1:0|1:0,0:0:0:0:
320,359,90939,1,8,0:0:0:0:
199,349,91465,2,0,P|160:334|106:320,1,75,0|8,0:0|0:0,0:0:0:0:
79,317,91991,1,0,1:0:0:0:
22,237,92342,1,8,0:0:0:0:
22,237,92518,2,0,P|80:222|120:205,1,75,0|8,1:0|0:0,0:0:0:0:
137,194,93044,6,0,L|147:132,1,37.5,0|8,1:0|0:0,0:0:0:0:
224,103,93570,2,0,L|229:140,1,37.5,0|8,1:0|0:0,0:0:0:0:
332,244,94272,2,0,P|406:260|424:279,1,75,0|8,1:0|0:0,0:0:0:0:
441,288,94798,2,0,L|471:202,1,75,0|8,1:0|0:0,0:0:0:0:
394,149,95500,2,0,L|376:90,1,37.5,0|8,0:0|0:0,0:0:0:0:
