osu file format v14

[General]
AudioFilename: Brave Shine.mp3
AudioLeadIn: 0
PreviewTime: 55763
Countdown: 1
SampleSet: Soft
StackLeniency: 0.7
Mode: 0
LetterboxInBreaks: 1
WidescreenStoryboard: 1

[Editor]
DistanceSpacing: 0.5
BeatDivisor: 8
GridSize: 4
TimelineZoom: 1.5

[Metadata]
Title:Brave Shine
TitleUnicode:Brave Shine
Artist:Aimer
ArtistUnicode:Aimer
Creator:Trust
Version:Insane
Source:Fate/stay night [Unlimited Blade Works]
Tags:opening ubw meiikyuu エメ 2nd second season フェイト/ステイナイト japanese anime fate series 小山寿 Hisashi Koyama
BeatmapID:1840378
BeatmapSetID:880073

[Difficulty]
HPDrainRate:6
CircleSize:4
OverallDifficulty:7
ApproachRate:8
SliderMultiplier:2.2
SliderTickRate:1

[Events]
//Background and Video events
0,0,"fsnbg.jpg",0,0
Video,-350,"vidyer.avi"
//Break Periods
//Storyboard Layer 0 (Background)
//Storyboard Layer 1 (Fail)
//Storyboard Layer 2 (Pass)
//Storyboard Layer 3 (Foreground)
//Storyboard Layer 4 (Overlay)
//Storyboard Sound Samples

[TimingPoints]
413,701.754385964912,4,2,1,30,1,0
3220,-100,4,2,1,50,0,0
5325,-133.333333333333,4,2,1,50,0,0
6027,-76.9230769230769,4,2,1,70,0,0
17255,-100,4,2,1,50,0,0
39711,-111.111111111111,4,2,1,50,0,0
50939,-100,4,2,1,50,0,0
56553,-76.9230769230769,4,2,1,70,0,1
90237,-100,4,2,1,50,0,0
94448,-100,4,2,1,40,0,0

[Colours]
Combo1 : 255,187,221
Combo2 : 255,170,170
Combo3 : 128,128,255
Combo4 : 189,123,123

[HitObjects]
251,162,413,5,0,0:0:0:0:
251,162,588,1,0,0:0:0:0:
308,87,763,2,0,P|287:38|279:17,1,55,0|0,0:0|0:0,0:0:0:0:
344,177,1114,2,0,P|396:183|419:186,1,55,0|0,1:0|0:0,0:0:0:0:
469,120,1465,1,0,0:0:0:0:
398,183,1641,6,0,P|389:218|419:292,1,110,0|0,0:0|1:0,0:0:0:0:
481,223,2167,1,0,0:0:0:0:
481,223,2342,1,0,0:0:0:0:
423,339,2518,2,0,P|412:281|410:270,1,55,0|0,1:0|0:0,0:0:0:0:
321,231,2869,2,0,P|315:258|310:285,1,55,0|0,0:0|0:0,0:0:0:0:
288,377,3220,5,0,0:0:0:0:
212,263,3395,2,0,P|204:213|185:130,1,110,0|0,0:0|0:0,0:0:0:0:
321,231,3921,1,8,0:0:0:0:
239,163,4097,2,0,P|247:113|266:30,1,110,0|0,0:0|0:0,0:0:0:0:
394,0,4623,1,8,0:0:0:0:
131,78,5325,6,0,B|113:60|105:45|105:45|122:98|103:136,1,123.750004720688,0|0,0:0|0:0,0:0:0:0:
68,209,6027,5,4,1:0:0:0:
68,209,6202,2,0,P|27:219|-13:235,1,71.4999967269899,0|0,1:0|0:0,0:0:0:0:
208,132,6553,1,0,1:0:0:0:
292,179,6728,2,0,P|333:169|373:153,1,71.4999967269899,8|0,0:0|1:0,0:0:0:0:
247,264,7079,1,0,0:0:0:0:
135,187,7255,2,0,P|118:129|160:47,1,142.99999345398,0|8,1:0|0:0,0:0:0:0:
479,34,7956,5,0,1:0:0:0:
423,111,8132,1,8,0:0:0:0:
423,111,8307,2,0,P|334:89|264:87,1,142.99999345398,0|0,1:0|1:0,0:0:0:0:
207,27,8834,5,4,1:2:0:0:
80,234,9009,2,0,P|152:245|218:193,1,142.99999345398,0|0,1:0|1:0,0:0:0:0:
284,126,9535,2,0,P|230:117|192:114,1,71.4999967269899,8|0,0:0|1:0,0:0:0:0:
144,53,9886,1,0,0:0:0:0:
306,215,10062,6,0,P|392:200|453:195,1,142.99999345398,0|8,1:0|0:0,0:0:0:0:
486,351,10588,2,0,P|497:279|502:265,1,71.4999967269899,0|0,0:0|1:0,0:0:0:0:
458,125,10939,2,0,P|447:197|442:211,1,71.4999967269899,8|0,0:0|1:0,0:0:0:0:
357,267,11290,2,0,P|285:278|271:283,1,71.4999967269899,0|8,0:0|0:0,0:0:0:0:
286,277,11553,1,8,0:0:0:0:
286,277,11641,5,4,1:2:0:0:
172,363,11816,2,0,P|151:323|146:215,1,142.99999345398,0|0,1:0|1:0,0:0:0:0:
256,129,12342,2,0,P|204:142|158:146,1,71.4999967269899,8|0,0:0|1:0,0:0:0:0:
142,228,12693,1,0,0:0:0:0:
256,129,12869,6,0,P|342:107|418:100,1,142.99999345398,0|8,1:0|0:0,0:0:0:0:
460,170,13395,1,0,0:0:0:0:
512,102,13570,1,0,1:0:0:0:
377,32,13746,2,0,P|388:78|402:120,1,71.4999967269899,8|0,0:0|1:0,0:0:0:0:
478,239,14097,2,0,P|467:193|453:151,1,71.4999967269899,0|0,0:0|1:0,0:0:0:0:
377,32,14448,5,4,1:2:0:0:
310,93,14623,2,0,P|270:84|228:79,1,71.4999967269899,0|0,1:0|0:0,0:0:0:0:
192,11,14974,1,0,1:0:0:0:
100,163,15149,2,0,P|140:154|182:149,1,71.4999967269899,8|0,0:0|1:0,0:0:0:0:
239,79,15500,1,0,0:0:0:0:
367,263,15676,6,0,P|278:268|230:219,1,142.99999345398,8|8,0:0|0:0,0:0:0:0:
174,150,16202,1,0,1:0:0:0:
174,150,16290,1,0,1:0:0:0:
174,150,16377,1,0,1:0:0:0:
174,150,16465,1,0,1:0:0:0:
174,150,16553,1,8,0:0:0:0:
367,263,16728,1,8,0:3:0:0:
239,237,16904,2,0,P|219:279|208:308,1,71.4999967269899,8|0,0:3|1:0,0:0:0:0:
174,150,17255,6,0,P|194:108|205:80,1,55,4|0,1:0|0:0,0:0:0:0:
139,31,17605,1,0,0:0:0:0:
225,15,17781,1,0,1:0:0:0:
304,119,17956,2,0,P|236:113|189:96,1,110,8|0,0:0|0:0,0:0:0:0:
45,199,18483,6,0,P|97:182|152:179,1,110,0|8,1:0|0:0,0:0:0:0:
196,99,19009,1,0,1:0:0:0:
274,255,19360,2,0,P|267:304|264:335,1,55,8|0,0:0|1:0,0:0:0:0:
325,375,19711,1,0,0:0:0:0:
391,306,19886,1,8,0:0:0:0:
391,306,19974,1,8,0:0:0:0:
391,306,20062,6,0,P|445:300|505:287,1,110,0|0,1:0|0:0,0:0:0:0:
325,375,20588,1,0,1:0:0:0:
382,211,20763,2,0,P|376:157|363:97,1,110,8|0,0:0|0:0,0:0:0:0:
508,124,21290,6,0,P|450:133|433:134,1,55,0|0,1:0|0:0,0:0:0:0:
364,102,21641,1,8,0:0:0:0:
471,214,21816,2,0,P|474:241|479:268,2,55,0|0|8,1:0|0:0|0:0,0:0:0:0:
508,124,22342,2,0,P|512:74|470:16,1,110,2|8,1:2|0:0,0:0:0:0:
481,24,22781,1,8,0:0:0:0:
481,24,22869,6,0,P|440:18|411:13,1,55,0|0,1:0|0:0,0:0:0:0:
308,87,23220,2,0,P|349:80|378:75,1,55,0|0,0:0|1:0,0:0:0:0:
259,26,23570,2,0,P|252:110|246:160,1,110,8|0,0:0|0:0,0:0:0:0:
156,157,24097,6,0,P|163:241|169:291,1,110,0|8,1:0|0:0,0:0:0:0:
249,135,24623,1,0,1:0:0:0:
16,180,24974,2,0,P|56:172|86:167,1,55,8|0,0:0|1:0,0:0:0:0:
249,135,25325,1,0,0:0:0:0:
324,197,25500,1,8,0:0:0:0:
324,197,25588,1,8,0:0:0:0:
324,197,25676,6,0,P|336:244|346:271,1,55,0|8,1:0|0:0,0:0:0:0:
339,106,26027,1,0,0:0:0:0:
232,232,26202,2,0,P|185:218|156:214,1,55,0|8,1:0|0:0,0:0:0:0:
44,188,26553,2,0,P|70:181|97:173,1,55,0|0,1:0|0:0,0:0:0:0:
232,232,26904,6,0,P|252:184|240:108,1,110,0|8,1:0|0:0,0:0:0:0:
292,292,27430,2,0,P|280:328|272:356,1,55,0|0,1:0|0:0,0:0:0:0:
140,164,27781,2,0,P|152:128|160:100,1,55,8|0,0:0|1:0,0:0:0:0:
64,108,28132,1,0,0:0:0:0:
232,164,28307,1,0,1:0:0:0:
144,252,28483,6,0,P|136:225|127:199,2,55,4|0|0,1:0|0:0|0:0,0:0:0:0:
88,328,29009,1,0,1:0:0:0:
127,199,29184,1,8,0:0:0:0:
220,228,29360,2,0,P|284:220|332:212,1,110,0|0,1:0|1:0,0:0:0:0:
512,84,30062,5,8,0:0:0:0:
436,28,30237,2,0,P|428:116|424:160,1,110,0|8,1:0|0:0,0:0:0:0:
328,212,30763,1,0,1:0:0:0:
408,152,30939,2,0,P|420:196|432:220,1,55,0|8,0:0|0:0,0:0:0:0:
312,264,31290,6,0,P|324:220|336:196,2,55,0|8|0,1:0|0:0|0:0,0:0:0:0:
372,329,31816,1,0,1:0:0:0:
222,282,31991,2,0,P|203:227|204:168,1,110,8|0,0:0|0:0,0:0:0:0:
306,29,32518,6,0,P|305:83|286:135,1,110,0|0,1:0|1:0,0:0:0:0:
202,175,33044,1,0,1:0:0:0:
283,230,33220,1,0,0:0:0:0:
283,230,33307,1,8,0:0:0:0:
283,230,33395,1,8,0:0:0:0:
390,99,33570,2,0,P|333:118|284:136,1,110,2|8,1:2|0:0,0:0:0:0:
147,166,34097,6,0,P|185:172|219:176,1,55,0|0,1:0|0:0,0:0:0:0:
71,74,34448,1,0,1:0:0:0:
155,84,34623,1,2,0:0:0:0:
60,160,34798,2,0,P|79:218|85:232,1,55,8|0,0:0|0:0,0:0:0:0:
128,313,35149,1,0,0:0:0:0:
195,280,35325,6,0,P|180:324|122:297,1,110,0|8,1:0|0:0,0:0:0:0:
216,188,35851,1,0,1:0:0:0:
321,374,36202,2,0,P|277:381|246:389,1,55,8|0,0:0|1:0,0:0:0:0:
100,334,36553,1,0,0:0:0:0:
219,274,36728,1,8,0:0:0:0:
219,274,36816,1,8,0:0:0:0:
219,274,36904,6,0,P|224:247|229:220,1,55,0|0,1:0|0:0,0:0:0:0:
121,147,37255,2,0,P|160:122|191:112,1,55,0|0,0:0|1:0,0:0:0:0:
52,216,37605,2,0,P|26:203|1:195,2,55,8|0|0,0:0|1:0|0:0,0:0:0:0:
169,120,38132,6,0,P|158:61|142:9,1,110,0|8,1:0|0:0,0:0:0:0:
268,176,38658,1,0,1:0:0:0:
172,222,38834,1,0,1:0:0:0:
169,207,38921,1,0,1:0:0:0:
165,192,39009,1,8,0:0:0:0:
208,298,39184,1,0,1:0:0:0:
270,167,39360,1,8,0:3:0:0:
206,306,39535,1,0,1:0:0:0:
70,134,39711,6,0,P|109:120|127:113,1,49.4999984893799,4|0,1:2|0:0,0:0:0:0:
193,70,40062,1,0,0:0:0:0:
273,106,40237,2,0,P|277:177|261:208,1,98.9999969787599,0|0,0:0|0:0,0:0:0:0:
142,295,40763,2,0,P|133:263|118:232,1,49.4999984893799,2|0,0:0|0:0,0:0:0:0:
225,335,41114,5,0,0:0:0:0:
225,335,41290,2,0,P|235:308|239:269,1,49.4999984893799,0|0,0:0|0:0,0:0:0:0:
309,376,41641,2,0,P|344:356|408:357,1,98.9999969787599,2|2,0:0|0:0,0:0:0:0:
511,139,42342,1,0,0:0:0:0:
443,90,42518,6,0,P|450:55|453:34,1,49.4999984893799,0|0,0:0|0:0,0:0:0:0:
511,139,42869,1,0,0:0:0:0:
382,161,43044,2,0,P|369:221|364:257,1,98.9999969787599,0|0,0:0|0:0,0:0:0:0:
433,316,43570,2,0,P|469:308|496:302,1,49.4999984893799,2|0,0:0|0:0,0:0:0:0:
364,258,43921,6,0,P|331:264|301:272,1,49.4999984893799,0|0,0:0|0:0,0:0:0:0:
433,316,44272,1,0,0:0:0:0:
320,178,44448,2,0,P|327:129|338:80,2,98.9999969787599,2|2|0,0:0|0:0|0:0,0:0:0:0:
240,223,45325,6,0,P|250:274|254:292,1,49.4999984893799
320,178,45676,1,0,0:0:0:0:
240,223,45851,2,0,P|196:244|137:238,1,98.9999969787599,0|0,0:0|0:0,0:0:0:0:
413,159,46377,2,0,P|364:156|320:178,1,98.9999969787599,2|0,0:0|0:0,0:0:0:0:
256,58,47079,5,0,0:0:0:0:
234,134,47255,2,0,P|224:92|216:67,1,49.4999984893799,2|0,0:0|0:0,0:0:0:0:
320,178,47605,2,0,P|306:225|295:273,1,98.9999969787599,2|0,0:0|0:0,0:0:0:0:
122,264,48132,6,0,P|167:246|187:238,1,49.4999984893799,0|0,0:0|0:0,0:0:0:0:
82,341,48483,1,0,0:0:0:0:
44,220,48658,2,0,P|56:162|66:103,1,98.9999969787599,0|0,0:0|0:0,0:0:0:0:
195,0,49184,6,0,P|203:76|226:109,1,98.9999969787599,2|0,0:0|0:0,0:0:0:0:
289,141,49711,1,0,0:0:0:0:
364,95,49886,1,0,0:0:0:0:
213,94,50062,2,0,L|146:94,2,49.4999984893799,2|0|2,0:0|0:0|0:0,0:0:0:0:
364,95,50588,1,0,0:0:0:0:
364,10,50763,1,0,0:0:0:0:
364,185,50939,6,0,P|371:230|378:251,2,55,0|0|0,1:0|0:0|0:0,0:0:0:0:
460,202,51465,1,0,1:0:0:0:
276,228,51641,2,0,P|228:252|169:303,1,110,8|0,0:0|0:0,0:0:0:0:
21,282,52167,6,0,P|68:257|127:206,1,110,0|8,1:0|0:0,0:0:0:0:
172,152,52693,1,0,1:0:0:0:
84,72,52869,2,0,L|91:118,2,27.5,0|0|8,1:0|1:0|0:0,0:0:0:0:
22,18,53220,5,8,0:3:0:0:
172,72,53395,1,8,0:3:0:0:
48,172,53570,1,0,1:0:0:0:
256,192,53746,5,8,1:2:0:0:
256,192,53921,1,8,1:2:0:0:
415,223,56027,5,0,1:0:0:0:
191,91,56202,2,0,P|207:154|225:178,1,82.5,8|0,0:0|0:0,0:0:0:0:
216,167,56553,6,0,P|260:157|386:146,1,142.99999345398,4|0,1:0|0:0,0:0:0:0:
438,96,57079,1,0,1:0:0:0:
336,232,57255,2,0,P|300:236|266:244,1,71.4999967269899,8|0,0:0|0:0,0:0:0:0:
192,184,57605,1,0,1:0:0:0:
23,285,57781,6,0,P|115:296|163:250,1,142.99999345398,0|8,1:0|0:0,0:0:0:0:
192,184,58307,2,0,P|197:138|198:94,1,71.4999967269899,0|0,0:0|1:0,0:0:0:0:
289,155,58658,1,8,0:0:0:0:
110,73,58834,2,0,P|108:109|104:144,1,71.4999967269899,0|0,1:0|0:0,0:0:0:0:
11,229,59184,1,8,0:0:0:0:
11,229,59272,1,0,0:0:0:0:
11,229,59360,5,0,1:0:0:0:
79,293,59535,1,8,0:0:0:0:
183,207,59711,2,0,P|175:242|173:278,1,71.4999967269899,0|0,0:0|1:0,0:0:0:0:
329,177,60062,2,0,P|326:141|318:106,1,71.4999967269899,8|0,0:0|0:0,0:0:0:0:
279,19,60412,1,0,1:0:0:0:
82,101,60588,6,0,P|150:118|210:82,1,142.99999345398,0|8,1:0|0:0,0:0:0:0:
318,106,61114,2,0,P|371:76|429:80,1,107.249995090485
445,46,61465,1,8,0:0:0:0:
472,233,61641,2,0,P|429:218|308:190,1,142.99999345398,0|8,1:0|0:0,0:0:0:0:
170,321,62167,6,0,P|275:297|340:290,1,142.99999345398,4|0,1:0|0:0,0:0:0:0:
182,199,62693,1,0,1:0:0:0:
277,123,62869,2,0,P|332:103|373:107,2,71.4999967269899,8|0|0,0:0|0:0|1:0,0:0:0:0:
182,199,63395,6,0,P|111:209|48:154,1,142.99999345398,0|8,1:0|0:0,0:0:0:0:
137,119,63921,1,0,0:0:0:0:
137,119,64097,1,0,1:0:0:0:
268,183,64272,2,0,P|274:141|284:33,1,142.99999345398,8|0,0:0|0:0,0:0:0:0:
361,239,64798,1,8,0:0:0:0:
361,239,64886,1,8,0:0:0:0:
361,239,64974,6,0,P|365:203|370:168,1,71.4999967269899,0|0,1:0|0:0,0:0:0:0:
406,67,65325,1,0,0:0:0:0:
465,157,65500,1,0,1:0:0:0:
296,98,65676,2,0,P|260:103|226:111,2,71.4999967269899,8|0|0,0:0|0:0|0:0,0:0:0:0:
512,263,66202,6,0,P|477:271|441:276,1,71.4999967269899,8|0,0:0|0:0,0:0:0:0:
272,229,66553,1,8,0:0:0:0:
344,170,66728,2,0,P|365:218|364:252,1,71.4999967269899,0|0,1:0|1:0,0:0:0:0:
206,374,67079,5,8,0:0:0:0:
272,229,67255,2,0,L|258:262,2,35.749998363495,0|0|8,1:0|1:0|0:0,0:0:0:0:
330,338,67605,1,8,0:0:0:0:
112,176,67781,6,0,P|89:111|130:21,1,142.99999345398,4|0,1:0|0:0,0:0:0:0:
24,15,68307,1,0,1:0:0:0:
195,66,68483,2,0,P|261:53|282:29,1,71.4999967269899,8|0,0:0|0:0,0:0:0:0:
354,0,68834,1,0,1:0:0:0:
199,159,69009,6,0,P|177:242|201:306,1,142.99999345398,0|8,1:0|0:0,0:0:0:0:
328,330,69535,2,0,P|337:270|341:234,1,71.4999967269899,0|0,0:0|1:0,0:0:0:0:
188,88,69886,2,0,P|192:123|198:158,1,71.4999967269899,8|0,0:0|1:0,0:0:0:0:
338,259,70237,2,0,P|398:250|434:246,1,71.4999967269899,0|8,0:0|0:0,0:0:0:0:
409,249,70500,1,8,0:0:0:0:
409,249,70588,5,0,1:0:0:0:
290,340,70763,2,0,P|219:357|160:314,1,142.99999345398,8|0,0:0|1:0,0:0:0:0:
20,234,71290,2,0,P|74:238|120:247,1,71.4999967269899,8|0,0:0|0:0,0:0:0:0:
236,268,71641,1,0,1:0:0:0:
73,311,71816,6,0,P|90:247|102:160,1,142.99999345398,0|8,1:0|0:0,0:0:0:0:
21,65,72342,1,0,0:0:0:0:
9,155,72518,1,0,1:0:0:0:
115,79,72693,1,8,0:0:0:0:
115,79,72869,2,0,P|187:69|260:56,1,142.99999345398,0|0,1:0|1:0,0:0:0:0:
43,187,73395,6,0,P|115:177|188:164,1,142.99999345398,4|0,1:0|0:0,0:0:0:0:
256,56,73921,1,0,1:0:0:0:
184,164,74097,2,0,P|191:199|200:234,1,71.4999967269899,8|0,0:0|1:0,0:0:0:0:
119,289,74448,1,0,1:0:0:0:
88,150,74623,6,0,P|104:231|126:311,1,142.99999345398,0|8,0:0|0:0,0:0:0:0:
21,349,75149,2,0,P|65:318|96:306,1,71.4999967269899,0|0,0:0|1:0,0:0:0:0:
280,384,75500,2,0,P|231:361|205:340,1,71.4999967269899,8|0,0:0|1:0,0:0:0:0:
183,144,75851,2,0,P|187:197|182:230,1,71.4999967269899,0|0,0:0|0:0,0:0:0:0:
174,249,76114,1,0,0:0:0:0:
174,249,76202,6,0,P|230:216|318:232,1,142.99999345398,4|0,1:0|0:0,0:0:0:0:
390,278,76728,1,0,1:0:0:0:
305,224,76904,2,0,P|296:189|289:154,1,71.4999967269899,8|0,0:0|1:0,0:0:0:0:
422,21,77255,1,4,1:0:0:0:
473,104,77430,6,0,P|388:112|341:74,1,142.99999345398,0|8,0:0|0:0,0:0:0:0:
438,36,77956,1,8,0:3:0:0:
438,36,78044,1,0,0:3:0:0:
438,36,78132,1,8,0:3:0:0:
438,36,78220,1,8,0:3:0:0:
438,36,78307,2,0,P|491:26|531:14,1,71.4999967269899,0|8,1:0|0:3,0:0:0:0:
344,79,78658,2,0,P|291:89|251:101,1,71.4999967269899,8|8,0:3|0:3,0:0:0:0:
145,206,79009,6,0,P|85:221|10:162,1,142.99999345398,4|0,1:0|0:0,0:0:0:0:
170,298,79535,1,0,1:0:0:0:
273,93,79711,1,8,0:0:0:0:
273,93,80062,1,4,1:0:0:0:
170,298,80237,6,0,B|148:339|148:339|196:310|259:330,1,142.99999345398
329,362,80763,1,0,0:0:0:0:
479,153,81114,1,8,0:0:0:0:
479,153,81290,2,0,P|415:156|336:126,1,142.99999345398,0|8,1:0|0:0,0:0:0:0:
228,338,81815,5,0,1:0:0:0:
279,223,81991,2,0,P|215:220|136:250,1,142.99999345398,8|0,0:0|0:0,0:0:0:0:
68,187,82518,2,0,P|58:130|49:94,1,71.4999967269899,8|0,0:0|0:0,0:0:0:0:
238,90,82869,1,0,1:0:0:0:
153,140,83044,6,0,P|137:50|123:-6,1,142.99999345398,0|8,1:0|0:0,0:0:0:0:
348,134,83570,2,0,P|340:183|336:213,1,71.4999967269899,0|0,0:0|1:0,0:0:0:0:
238,90,83921,2,0,P|232:54|224:20,1,71.4999967269899,0|0,0:0|1:0,0:0:0:0:
450,149,84272,1,0,0:0:0:0:
294,265,84448,1,8,0:0:0:0:
294,265,84535,1,8,0:0:0:0:
294,265,84623,6,0,P|235:283|148:221,1,142.99999345398,4|0,1:0|0:0,0:0:0:0:
118,162,85149,1,0,1:0:0:0:
294,265,85325,2,0,P|355:245|379:244,1,71.4999967269899,8|0,0:0|0:0,0:0:0:0:
477,367,85676,1,4,1:0:0:0:
477,367,85851,6,0,P|404:379|343:335,1,142.99999345398,0|8,1:0|0:0,0:0:0:0:
432,129,86377,2,0,P|444:175|455:208,1,71.4999967269899,0|0,0:0|1:0,0:0:0:0:
348,343,86728,2,0,P|336:297|325:264,1,71.4999967269899,8|0,0:0|1:0,0:0:0:0:
254,203,87079,1,0,0:0:0:0:
432,129,87255,1,0,1:0:0:0:
432,129,87342,1,0,1:0:0:0:
432,129,87430,5,4,0:2:0:0:
309,282,87605,2,0,P|241:298|179:264,1,142.99999345398,8|0,0:0|0:0,0:0:0:0:
37,114,88132,2,0,B|61:85|83:78|83:78|53:127|85:184,1,142.99999345398,4|4,1:2|0:2,0:0:0:0:
212,60,88658,2,0,L|246:14,2,35.749998363495,8|8|8,0:0|0:3|0:3,0:0:0:0:
141,207,89009,5,8,0:0:0:0:
135,222,89096,1,8,0:0:0:0:
133,238,89184,1,8,0:3:0:0:
132,255,89272,1,8,0:3:0:0:
133,271,89359,1,8,0:3:0:0:
137,287,89447,1,8,0:3:0:0:
143,302,89535,5,8,0:0:0:0:
311,335,89711,1,8,0:0:0:0:
225,257,89886,1,8,0:0:0:0:
400,344,90062,1,8,0:0:0:0:
303,209,90237,6,0,P|302:180|315:140,1,55,4|0,1:0|0:0,0:0:0:0:
356,16,90588,2,0,P|357:45|344:85,1,55,0|0,0:0|1:0,0:0:0:0:
156,83,90939,2,0,P|207:64|261:74,1,110,8|0,0:0|0:0,0:0:0:0:
216,164,91465,1,0,0:0:0:0:
350,70,91641,5,0,0:0:0:0:
408,146,91816,1,8,0:0:0:0:
408,146,91904,1,8,0:0:0:0:
408,146,91991,2,0,P|470:154|521:130,1,110,0|8,1:0|0:0,0:0:0:0:
330,199,92518,1,0,1:0:0:0:
247,143,92693,2,8,P|257:98|268:73,1,55,0|8,0:0|0:0,0:0:0:0:
260,89,92956,1,0,1:0:0:0:
260,89,93044,5,0,1:0:0:0:
174,247,93220,2,0,P|216:238|245:223,1,55,8|0,0:0|0:0,0:0:0:0:
305,287,93570,1,0,1:0:0:0:
161,160,93746,2,0,P|119:169|90:184,2,55,8|0|0,0:0|0:0|0:0,0:0:0:0:
316,208,94272,6,0,P|362:177|381:116,1,110,0|8,1:0|0:0,0:0:0:0:
284,21,94798,2,0,P|288:59|299:84,1,55,0|8,1:0|0:0,0:0:0:0:
293,74,95062,1,8,0:0:0:0:
293,74,95149,1,8,0:0:0:0:
380,127,95325,2,0,P|414:115|447:107,1,55,0|0,1:0|0:0,0:0:0:0:
511,20,95676,5,8,0:0:0:0:
