osu file format v14

[General]
AudioFilename: audio.mp3
AudioLeadIn: 0
PreviewTime: 56044
Countdown: 0
SampleSet: Soft
StackLeniency: 0.7
Mode: 3
LetterboxInBreaks: 0
SpecialStyle: 0
WidescreenStoryboard: 0

[Editor]
DistanceSpacing: 0.8
BeatDivisor: 8
GridSize: 32
TimelineZoom: 2.2

[Metadata]
Title:Brave Shine (TV size)
TitleUnicode:Brave Shine (TV size)
Artist:Aimer
ArtistUnicode:Aimer
Creator:Ibrahim
Version:Brave
Source:Fate/stay night [Unlimited Blade Works]
Tags:op opening season 2 ubw Dellvangel
BeatmapID:1066930
BeatmapSetID:501333

[Difficulty]
HPDrainRate:8
CircleSize:4
OverallDifficulty:8
ApproachRate:5
SliderMultiplier:1.4
SliderTickRate:1

[Events]
//Background and Video events
0,0,"stretched-1366-768-667315.png",0,0
//Break Periods
//Storyboard Layer 0 (Background)
//Storyboard Layer 1 (Fail)
//Storyboard Layer 2 (Pass)
//Storyboard Layer 3 (Foreground)
//Storyboard Sound Samples

[TimingPoints]
606,701.754385964912,4,2,1,30,1,0
56746,-100,4,2,1,30,0,1
67272,-100,4,2,1,30,0,0
67974,-100,4,2,1,30,0,1
79202,-100,4,2,1,30,0,0

[HitObjects]
64,192,606,5,0,0:0:0:0:
192,192,606,1,2,0:0:0:0:
448,192,781,1,0,0:0:0:0:
320,192,781,1,2,0:0:0:0:
192,192,956,1,0,0:0:0:0:
320,192,1132,1,0,0:0:0:0:
64,192,1132,1,2,0:0:0:0:
192,192,1307,1,0,0:0:0:0:
448,192,1307,1,8,0:0:0:0:
64,192,1483,1,0,0:0:0:0:
192,192,1658,1,2,0:0:0:0:
320,192,1658,1,0,0:0:0:0:
448,192,1834,1,0,0:0:0:0:
64,192,1834,1,0,0:0:0:0:
320,192,2009,1,0,0:0:0:0:
64,192,2184,1,8,0:0:0:0:
448,192,2184,1,0,0:0:0:0:
64,192,2360,1,0,0:0:0:0:
320,192,2360,1,2,0:0:0:0:
192,192,2535,1,2,0:0:0:0:
448,192,2535,1,0,0:0:0:0:
64,192,2711,1,0,0:0:0:0:
320,192,2711,1,8,0:0:0:0:
320,192,2886,1,0,0:0:0:0:
448,192,2886,1,2,0:0:0:0:
192,192,3062,1,0,0:0:0:0:
64,192,3237,1,2,0:0:0:0:
448,192,3237,1,0,0:0:0:0:
320,192,3413,1,2,0:0:0:0:
192,192,3413,1,0,0:0:0:0:
64,192,3588,1,0,0:0:0:0:
448,192,3588,1,2,0:0:0:0:
320,192,3763,1,0,0:0:0:0:
192,192,3939,1,0,0:0:0:0:
448,192,3939,1,2,0:0:0:0:
320,192,4114,1,0,0:0:0:0:
192,192,4114,1,4,0:0:0:0:
64,192,4114,1,8,0:0:0:0:
320,192,4290,1,0,0:0:0:0:
448,192,4290,1,2,0:0:0:0:
64,192,4465,1,0,0:0:0:0:
192,192,4641,1,0,0:0:0:0:
320,192,4641,1,2,0:0:0:0:
448,192,4816,1,4,0:0:0:0:
320,192,4816,1,0,0:0:0:0:
64,192,4816,1,8,0:0:0:0:
192,192,4991,1,0,0:0:0:0:
320,192,5167,5,0,0:0:0:0:
64,192,5342,1,0,0:0:0:0:
192,192,5430,1,0,0:0:0:0:
448,192,5518,128,0,6220:0:0:0:0:
320,192,5518,1,0,0:0:0:0:
64,192,5693,1,0,0:0:0:0:
192,192,5869,1,0,0:0:0:0:
64,192,6044,1,0,0:0:0:0:
320,192,6220,1,4,0:0:0:0:
192,192,6220,128,0,6746:0:0:0:0:
64,192,6220,1,2,0:0:0:0:
448,192,6395,1,2,0:0:0:0:
64,192,6746,128,0,7272:0:0:0:0:
448,192,6746,1,2,0:0:0:0:
320,192,6921,1,8,0:0:0:0:
192,192,6921,1,0,0:0:0:0:
448,192,7097,1,2,0:0:0:0:
320,192,7272,128,0,7798:0:0:0:0:
192,192,7272,1,0,0:0:0:0:
64,192,7448,1,2,0:0:0:0:
448,192,7623,1,0,0:0:0:0:
64,192,7798,1,8,0:0:0:0:
192,192,7798,128,0,8325:0:0:0:0:
320,192,8149,1,2,0:0:0:0:
448,192,8325,1,8,0:0:0:0:
64,192,8325,128,0,8851:0:0:0:0:
320,192,8500,1,2,0:0:0:0:
448,192,8676,128,0,8851:0:0:0:0:
320,192,8851,1,2,0:0:0:0:
192,192,8851,128,0,9027:0:0:0:0:
320,192,9027,128,4,9202:0:0:0:0:
64,192,9027,1,2,0:0:0:0:
192,192,9202,128,4,10430:0:0:0:0:
448,192,9202,1,2,0:0:0:0:
64,192,9553,1,2,0:0:0:0:
320,192,9728,1,0,0:0:0:0:
448,192,9728,1,8,0:0:0:0:
64,192,9904,1,2,0:0:0:0:
320,192,10255,1,2,0:0:0:0:
64,192,10430,128,0,11132:0:0:0:0:
448,192,10430,1,0,0:0:0:0:
192,192,10605,1,0,0:0:0:0:
320,192,10605,1,8,0:0:0:0:
320,192,10956,1,2,0:0:0:0:
192,192,11132,1,8,0:0:0:0:
448,192,11132,128,0,11834:0:0:0:0:
64,192,11307,1,2,0:0:0:0:
64,192,11658,1,8,0:0:0:0:
192,192,11746,1,8,0:0:0:0:
64,192,11834,128,4,12360:0:0:0:0:
320,192,11834,1,2,0:0:0:0:
448,192,12009,1,2,0:0:0:0:
192,192,12360,128,0,12886:0:0:0:0:
448,192,12360,1,2,0:0:0:0:
320,192,12535,1,8,0:0:0:0:
64,192,12535,1,0,0:0:0:0:
448,192,12711,1,2,0:0:0:0:
320,192,12886,128,0,14290:0:0:0:0:
64,192,12886,1,0,0:0:0:0:
192,192,13062,1,2,0:0:0:0:
448,192,13237,1,0,0:0:0:0:
64,192,13413,1,8,0:0:0:0:
192,192,13413,1,0,0:0:0:0:
192,192,13763,1,2,0:0:0:0:
448,192,13939,1,8,0:0:0:0:
64,192,13939,1,0,0:0:0:0:
448,192,14114,1,2,0:0:0:0:
64,192,14290,128,0,14465:0:0:0:0:
192,192,14290,1,0,0:0:0:0:
448,192,14465,128,0,14641:0:0:0:0:
320,192,14465,1,2,0:0:0:0:
192,192,14641,128,4,15167:0:0:0:0:
64,192,14641,1,2,0:0:0:0:
448,192,14816,1,2,0:0:0:0:
64,192,14991,1,0,0:0:0:0:
320,192,15167,128,0,15693:0:0:0:0:
448,192,15167,1,2,0:0:0:0:
64,192,15342,1,0,0:0:0:0:
192,192,15342,1,8,0:0:0:0:
64,192,15518,1,2,0:0:0:0:
448,192,15693,128,0,16220:0:0:0:0:
192,192,15693,1,0,0:0:0:0:
64,192,15869,1,0,0:0:0:0:
320,192,15869,1,8,0:0:0:0:
192,192,16044,1,2,0:0:0:0:
64,192,16220,128,0,16746:0:0:0:0:
320,192,16220,1,8,0:0:0:0:
192,192,16395,1,2,0:0:0:0:
448,192,16483,1,2,0:0:0:0:
320,192,16570,1,2,0:0:0:0:
192,192,16658,1,2,0:0:0:0:
448,192,16746,128,0,17448:0:0:0:0:
320,192,16746,1,2,0:0:0:0:
64,192,16921,1,2,0:0:0:0:
320,192,17097,1,2,0:0:0:0:
192,192,17272,1,2,0:0:0:0:
320,192,17448,1,4,0:0:0:0:
64,192,17448,1,2,0:0:0:0:
192,192,17798,1,0,0:0:0:0:
320,192,17974,1,0,0:0:0:0:
64,192,17974,1,2,0:0:0:0:
192,192,18149,1,0,0:0:0:0:
320,192,18149,1,0,0:0:0:0:
448,192,18149,1,8,0:0:0:0:
64,192,18325,1,0,0:0:0:0:
320,192,18500,1,0,0:0:0:0:
192,192,18676,1,0,0:0:0:0:
448,192,18676,1,2,0:0:0:0:
64,192,18851,1,0,0:0:0:0:
64,192,19027,1,0,0:0:0:0:
320,192,19027,1,8,0:0:0:0:
448,192,19027,1,0,0:0:0:0:
192,192,19202,1,0,0:0:0:0:
320,192,19202,1,2,0:0:0:0:
64,192,19553,1,8,0:0:0:0:
192,192,19553,1,0,0:0:0:0:
448,192,19553,1,0,0:0:0:0:
320,192,19728,1,2,0:0:0:0:
448,192,19728,1,0,0:0:0:0:
192,192,19904,1,0,0:0:0:0:
64,192,20079,1,8,0:0:0:0:
192,192,20167,1,8,0:0:0:0:
320,192,20255,1,2,0:0:0:0:
448,192,20255,1,0,0:0:0:0:
64,192,20430,1,8,0:0:0:0:
192,192,20430,1,0,0:0:0:0:
320,192,20605,1,0,0:0:0:0:
448,192,20781,1,0,0:0:0:0:
64,192,20781,1,2,0:0:0:0:
448,192,20956,1,0,0:0:0:0:
320,192,20956,1,8,0:0:0:0:
192,192,20956,1,0,0:0:0:0:
64,192,21132,1,0,0:0:0:0:
192,192,21307,1,0,0:0:0:0:
448,192,21483,1,2,0:0:0:0:
320,192,21483,1,0,0:0:0:0:
64,192,21658,1,0,0:0:0:0:
192,192,21834,1,0,0:0:0:0:
320,192,21834,1,8,0:0:0:0:
448,192,21834,1,0,0:0:0:0:
192,192,22009,1,2,0:0:0:0:
64,192,22009,1,0,0:0:0:0:
320,192,22184,1,0,0:0:0:0:
448,192,22360,1,8,0:0:0:0:
64,192,22360,1,0,0:0:0:0:
192,192,22360,1,0,0:0:0:0:
320,192,22535,1,2,0:0:0:0:
192,192,22535,1,0,0:0:0:0:
64,192,22711,1,0,0:0:0:0:
448,192,22886,1,8,0:0:0:0:
320,192,22974,1,8,0:0:0:0:
192,192,23062,1,0,0:0:0:0:
64,192,23062,1,2,0:0:0:0:
320,192,23413,1,0,0:0:0:0:
192,192,23588,1,2,0:0:0:0:
448,192,23588,1,0,0:0:0:0:
64,192,23763,1,0,0:0:0:0:
192,192,23763,1,8,0:0:0:0:
320,192,23763,1,0,0:0:0:0:
320,192,23939,1,2,0:0:0:0:
448,192,23939,1,0,0:0:0:0:
192,192,24114,1,0,0:0:0:0:
64,192,24290,1,0,0:0:0:0:
448,192,24290,1,2,0:0:0:0:
320,192,24465,1,0,0:0:0:0:
192,192,24641,1,0,0:0:0:0:
448,192,24641,1,0,0:0:0:0:
64,192,24641,1,8,0:0:0:0:
192,192,24816,1,2,0:0:0:0:
320,192,24816,1,0,0:0:0:0:
64,192,25167,1,0,0:0:0:0:
448,192,25167,1,8,0:0:0:0:
320,192,25167,1,0,0:0:0:0:
192,192,25342,1,0,0:0:0:0:
320,192,25342,1,2,0:0:0:0:
64,192,25518,1,0,0:0:0:0:
192,192,25693,1,8,0:0:0:0:
320,192,25781,1,8,0:0:0:0:
64,192,25869,1,0,0:0:0:0:
448,192,25869,1,2,0:0:0:0:
192,192,26044,1,0,0:0:0:0:
320,192,26220,1,0,0:0:0:0:
192,192,26395,1,2,0:0:0:0:
448,192,26395,1,0,0:0:0:0:
64,192,26570,1,0,0:0:0:0:
320,192,26570,1,8,0:0:0:0:
448,192,26570,1,0,0:0:0:0:
320,192,26746,1,0,0:0:0:0:
192,192,26746,1,2,0:0:0:0:
64,192,26921,1,0,0:0:0:0:
448,192,27097,128,0,27448:0:0:0:0:
320,192,27097,1,2,0:0:0:0:
192,192,27272,1,0,0:0:0:0:
320,192,27448,128,0,27623:0:0:0:0:
64,192,27448,1,8,0:0:0:0:
192,192,27623,128,0,27798:0:0:0:0:
448,192,27623,1,2,0:0:0:0:
64,192,27798,128,0,27974:0:0:0:0:
320,192,27798,1,0,0:0:0:0:
448,192,27974,128,0,28149:0:0:0:0:
192,192,27974,1,8,0:0:0:0:
64,192,28149,128,0,28676:0:0:0:0:
320,192,28149,1,2,0:0:0:0:
448,192,28325,1,0,0:0:0:0:
192,192,28500,1,0,0:0:0:0:
320,192,28588,1,0,0:0:0:0:
192,192,28676,1,2,0:0:0:0:
448,192,28676,128,4,29904:0:0:0:0:
320,192,29027,1,0,0:0:0:0:
64,192,29202,1,2,0:0:0:0:
192,192,29377,1,0,0:0:0:0:
320,192,29377,1,8,0:0:0:0:
64,192,29553,1,2,0:0:0:0:
192,192,29728,1,0,0:0:0:0:
320,192,29904,128,0,31132:0:0:0:0:
64,192,29904,1,2,0:0:0:0:
448,192,30079,1,0,0:0:0:0:
64,192,30255,1,8,0:0:0:0:
192,192,30342,1,8,0:0:0:0:
448,192,30430,1,2,0:0:0:0:
64,192,30781,1,8,0:0:0:0:
448,192,30781,1,0,0:0:0:0:
192,192,30956,1,2,0:0:0:0:
448,192,31132,1,0,0:0:0:0:
320,192,31307,1,0,0:0:0:0:
192,192,31395,1,0,0:0:0:0:
448,192,31483,1,2,0:0:0:0:
64,192,31483,128,0,32711:0:0:0:0:
192,192,31658,1,0,0:0:0:0:
448,192,31834,1,0,0:0:0:0:
320,192,32009,1,2,0:0:0:0:
192,192,32184,1,8,0:0:0:0:
448,192,32184,1,0,0:0:0:0:
320,192,32360,1,2,0:0:0:0:
192,192,32535,1,0,0:0:0:0:
448,192,32711,128,0,34290:0:0:0:0:
320,192,32711,1,2,0:0:0:0:
192,192,32886,1,0,0:0:0:0:
64,192,33062,1,2,0:0:0:0:
320,192,33237,1,2,0:0:0:0:
64,192,33413,1,8,0:0:0:0:
192,192,33500,1,8,0:0:0:0:
320,192,33588,1,8,0:0:0:0:
64,192,33588,1,0,0:0:0:0:
192,192,33763,1,8,0:0:0:0:
64,192,33763,1,2,0:0:0:0:
320,192,34114,1,8,0:0:0:0:
192,192,34202,1,8,0:0:0:0:
320,192,34290,1,2,0:0:0:0:
64,192,34290,128,0,35518:0:0:0:0:
192,192,34641,1,0,0:0:0:0:
320,192,34816,1,2,0:0:0:0:
448,192,34991,1,8,0:0:0:0:
192,192,34991,1,0,0:0:0:0:
320,192,35167,1,2,0:0:0:0:
448,192,35342,1,0,0:0:0:0:
192,192,35518,128,0,36746:0:0:0:0:
320,192,35518,1,2,0:0:0:0:
64,192,35693,1,0,0:0:0:0:
320,192,35869,1,0,0:0:0:0:
448,192,35869,1,8,0:0:0:0:
64,192,36044,1,2,0:0:0:0:
448,192,36395,1,8,0:0:0:0:
64,192,36395,1,0,0:0:0:0:
320,192,36570,1,2,0:0:0:0:
448,192,36746,1,0,0:0:0:0:
192,192,36921,1,0,0:0:0:0:
320,192,37009,1,0,0:0:0:0:
448,192,37097,1,2,0:0:0:0:
64,192,37097,128,0,38325:0:0:0:0:
448,192,37272,1,0,0:0:0:0:
192,192,37448,1,0,0:0:0:0:
320,192,37623,1,2,0:0:0:0:
448,192,37798,1,8,0:0:0:0:
192,192,37798,1,0,0:0:0:0:
320,192,37974,1,2,0:0:0:0:
192,192,38149,1,0,0:0:0:0:
320,192,38325,1,0,0:0:0:0:
448,192,38325,1,2,0:0:0:0:
192,192,38500,1,0,0:0:0:0:
64,192,38676,1,8,0:0:0:0:
320,192,38676,1,0,0:0:0:0:
448,192,38676,1,0,0:0:0:0:
192,192,38851,1,0,0:0:0:0:
64,192,38851,1,2,0:0:0:0:
320,192,39027,1,8,0:0:0:0:
192,192,39114,1,8,0:0:0:0:
320,192,39202,1,0,0:0:0:0:
448,192,39202,1,0,0:0:0:0:
64,192,39202,1,8,0:0:0:0:
192,192,39377,1,0,0:0:0:0:
448,192,39377,1,2,0:0:0:0:
192,192,39553,1,2,0:0:0:0:
320,192,39553,1,0,0:0:0:0:
64,192,39728,1,0,0:0:0:0:
320,192,39728,1,2,0:0:0:0:
192,192,39904,1,2,0:0:0:0:
64,192,39904,1,0,0:0:0:0:
448,192,39904,1,4,0:0:0:0:
320,192,40079,1,0,0:0:0:0:
64,192,40255,1,0,0:0:0:0:
192,192,40430,1,0,0:0:0:0:
448,192,40605,1,0,0:0:0:0:
64,192,40605,1,0,0:0:0:0:
320,192,40781,1,0,0:0:0:0:
64,192,40956,1,0,0:0:0:0:
448,192,40956,1,0,0:0:0:0:
192,192,41132,1,0,0:0:0:0:
320,192,41307,1,0,0:0:0:0:
448,192,41483,1,0,0:0:0:0:
64,192,41658,1,0,0:0:0:0:
192,192,41658,1,0,0:0:0:0:
320,192,41834,1,0,0:0:0:0:
192,192,42009,1,0,0:0:0:0:
320,192,42097,1,0,0:0:0:0:
64,192,42184,1,0,0:0:0:0:
448,192,42272,1,0,0:0:0:0:
192,192,42360,1,0,0:0:0:0:
320,192,42448,1,0,0:0:0:0:
64,192,42535,1,0,0:0:0:0:
448,192,42623,1,0,0:0:0:0:
192,192,42711,1,0,0:0:0:0:
64,192,42711,1,0,0:0:0:0:
320,192,42886,1,0,0:0:0:0:
192,192,43062,1,0,0:0:0:0:
64,192,43237,1,0,0:0:0:0:
448,192,43413,1,0,0:0:0:0:
192,192,43588,1,0,0:0:0:0:
64,192,43763,1,0,0:0:0:0:
320,192,43763,1,0,0:0:0:0:
448,192,43939,1,0,0:0:0:0:
192,192,44114,1,0,0:0:0:0:
320,192,44290,1,0,0:0:0:0:
192,192,44465,1,0,0:0:0:0:
64,192,44641,1,0,0:0:0:0:
448,192,44816,1,0,0:0:0:0:
320,192,44991,1,0,0:0:0:0:
64,192,45167,1,0,0:0:0:0:
192,192,45342,1,0,0:0:0:0:
320,192,45518,1,0,0:0:0:0:
448,192,45518,1,0,0:0:0:0:
192,192,45693,1,0,0:0:0:0:
320,192,45869,1,0,0:0:0:0:
64,192,46044,1,0,0:0:0:0:
448,192,46220,1,0,0:0:0:0:
192,192,46395,1,0,0:0:0:0:
64,192,46570,1,0,0:0:0:0:
320,192,46570,1,0,0:0:0:0:
192,192,46746,1,0,0:0:0:0:
448,192,46921,1,0,0:0:0:0:
320,192,47097,1,0,0:0:0:0:
192,192,47272,1,0,0:0:0:0:
64,192,47448,1,0,0:0:0:0:
320,192,47623,1,0,0:0:0:0:
448,192,47623,1,0,0:0:0:0:
192,192,47798,1,0,0:0:0:0:
448,192,47974,1,0,0:0:0:0:
64,192,48149,1,0,0:0:0:0:
192,192,48325,1,0,0:0:0:0:
320,192,48325,1,0,0:0:0:0:
448,192,48500,1,0,0:0:0:0:
192,192,48676,1,0,0:0:0:0:
320,192,48851,1,0,0:0:0:0:
64,192,49027,1,0,0:0:0:0:
192,192,49202,1,0,0:0:0:0:
320,192,49377,1,0,0:0:0:0:
448,192,49377,1,0,0:0:0:0:
192,192,49553,1,0,0:0:0:0:
448,192,49728,1,0,0:0:0:0:
64,192,49904,1,0,0:0:0:0:
320,192,50079,1,0,0:0:0:0:
192,192,50255,128,0,50430:0:0:0:0:
64,192,50430,1,0,0:0:0:0:
448,192,50430,128,0,50605:0:0:0:0:
320,192,50605,128,0,50781:0:0:0:0:
64,192,50781,1,0,0:0:0:0:
192,192,50869,1,0,0:0:0:0:
320,192,50956,1,0,0:0:0:0:
448,192,51044,1,0,0:0:0:0:
64,192,51132,1,2,0:0:0:0:
192,192,51132,1,0,0:0:0:0:
320,192,51307,1,0,0:0:0:0:
192,192,51483,1,0,0:0:0:0:
320,192,51658,1,0,0:0:0:0:
448,192,51658,1,2,0:0:0:0:
64,192,51834,1,0,0:0:0:0:
192,192,51834,1,0,0:0:0:0:
448,192,51834,1,8,0:0:0:0:
320,192,52009,1,0,0:0:0:0:
64,192,52184,1,0,0:0:0:0:
192,192,52360,1,2,0:0:0:0:
448,192,52360,1,0,0:0:0:0:
320,192,52535,1,0,0:0:0:0:
64,192,52711,1,0,0:0:0:0:
192,192,52711,1,0,0:0:0:0:
448,192,52711,1,8,0:0:0:0:
64,192,52886,1,0,0:0:0:0:
320,192,52886,1,2,0:0:0:0:
192,192,53062,1,0,0:0:0:0:
320,192,53149,1,0,0:0:0:0:
448,192,53237,1,8,0:0:0:0:
192,192,53237,1,0,0:0:0:0:
64,192,53237,1,0,0:0:0:0:
320,192,53413,1,2,0:0:0:0:
448,192,53413,1,0,0:0:0:0:
192,192,53588,1,2,0:0:0:0:
64,192,53588,1,0,0:0:0:0:
448,192,53763,1,0,0:0:0:0:
64,192,53763,1,2,0:0:0:0:
320,192,53939,1,8,0:0:0:0:
448,192,53939,1,0,0:0:0:0:
192,192,53939,1,0,0:0:0:0:
64,192,54114,1,0,0:0:0:0:
192,192,54114,1,8,0:0:0:0:
320,192,54114,1,0,0:0:0:0:
448,192,54465,128,0,54816:0:0:0:0:
64,192,54465,1,0,0:0:0:0:
320,192,54816,128,0,55167:0:0:0:0:
192,192,54816,1,0,0:0:0:0:
64,192,55167,128,0,55693:0:0:0:0:
448,192,55167,1,0,0:0:0:0:
64,192,56044,1,0,0:0:0:0:
192,192,56044,1,0,0:0:0:0:
448,192,56220,1,2,0:0:0:0:
320,192,56220,1,0,0:0:0:0:
64,192,56395,1,0,0:0:0:0:
192,192,56395,1,8,0:0:0:0:
448,192,56395,1,0,0:0:0:0:
320,192,56746,1,4,0:0:0:0:
448,192,56746,1,2,0:0:0:0:
64,192,56746,128,0,57798:0:0:0:0:
320,192,57272,1,2,0:0:0:0:
448,192,57448,1,0,0:0:0:0:
192,192,57448,1,4,0:0:0:0:
320,192,57623,1,0,0:0:0:0:
448,192,57798,1,2,0:0:0:0:
192,192,57798,128,0,59553:0:0:0:0:
320,192,57974,1,2,0:0:0:0:
320,192,58149,1,0,0:0:0:0:
448,192,58325,1,8,0:0:0:0:
64,192,58325,1,0,0:0:0:0:
64,192,58500,1,0,0:0:0:0:
320,192,58676,1,2,0:0:0:0:
448,192,58851,1,8,0:0:0:0:
64,192,58851,1,0,0:0:0:0:
320,192,59027,1,2,0:0:0:0:
448,192,59377,1,8,0:0:0:0:
320,192,59465,1,8,0:0:0:0:
448,192,59553,128,0,60605:0:0:0:0:
64,192,59553,1,2,0:0:0:0:
320,192,59728,1,0,0:0:0:0:
192,192,59728,1,8,0:0:0:0:
320,192,60079,1,2,0:0:0:0:
64,192,60255,1,8,0:0:0:0:
192,192,60255,1,0,0:0:0:0:
320,192,60605,128,0,61307:0:0:0:0:
192,192,60605,1,2,0:0:0:0:
64,192,60781,1,2,0:0:0:0:
448,192,60956,1,0,0:0:0:0:
448,192,61132,1,8,0:0:0:0:
64,192,61132,1,0,0:0:0:0:
64,192,61307,128,0,61658:0:0:0:0:
192,192,61307,1,0,0:0:0:0:
320,192,61483,1,2,0:0:0:0:
192,192,61658,128,0,62360:0:0:0:0:
448,192,61658,1,8,0:0:0:0:
64,192,61834,1,2,0:0:0:0:
320,192,62009,1,0,0:0:0:0:
448,192,62184,1,0,0:0:0:0:
64,192,62184,1,8,0:0:0:0:
448,192,62360,128,4,63413:0:0:0:0:
320,192,62360,1,2,0:0:0:0:
64,192,62711,1,0,0:0:0:0:
192,192,62886,1,2,0:0:0:0:
320,192,63062,1,8,0:0:0:0:
64,192,63062,1,0,0:0:0:0:
192,192,63237,1,0,0:0:0:0:
64,192,63413,128,0,65167:0:0:0:0:
320,192,63413,1,2,0:0:0:0:
320,192,63588,1,2,0:0:0:0:
448,192,63763,1,0,0:0:0:0:
192,192,63939,1,8,0:0:0:0:
320,192,63939,1,0,0:0:0:0:
448,192,64290,1,2,0:0:0:0:
192,192,64465,1,0,0:0:0:0:
448,192,64465,1,8,0:0:0:0:
320,192,64641,1,2,0:0:0:0:
192,192,64816,1,0,0:0:0:0:
448,192,64991,1,8,0:0:0:0:
320,192,65079,1,8,0:0:0:0:
192,192,65167,128,0,66395:0:0:0:0:
448,192,65167,1,2,0:0:0:0:
64,192,65342,1,0,0:0:0:0:
320,192,65342,1,8,0:0:0:0:
64,192,65693,1,2,0:0:0:0:
320,192,65869,1,8,0:0:0:0:
448,192,65869,1,4,0:0:0:0:
448,192,66044,1,0,0:0:0:0:
64,192,66220,1,2,0:0:0:0:
320,192,66395,128,0,67272:0:0:0:0:
448,192,66395,1,8,0:0:0:0:
192,192,66570,1,0,0:0:0:0:
448,192,66746,1,0,0:0:0:0:
64,192,66746,1,8,0:0:0:0:
448,192,66921,1,2,0:0:0:0:
192,192,67097,1,0,0:0:0:0:
448,192,67272,1,8,0:0:0:0:
64,192,67272,128,0,67974:0:0:0:0:
192,192,67448,1,2,0:0:0:0:
448,192,67535,1,2,0:0:0:0:
192,192,67623,1,8,0:0:0:0:
320,192,67623,1,0,0:0:0:0:
448,192,67798,1,0,0:0:0:0:
320,192,67798,1,8,0:0:0:0:
448,192,67974,128,4,69027:0:0:0:0:
192,192,67974,1,2,0:0:0:0:
320,192,68500,1,2,0:0:0:0:
64,192,68676,1,8,0:0:0:0:
192,192,68676,1,0,0:0:0:0:
320,192,69027,128,0,70781:0:0:0:0:
192,192,69027,1,2,0:0:0:0:
64,192,69202,1,2,0:0:0:0:
448,192,69377,1,0,0:0:0:0:
192,192,69553,1,8,0:0:0:0:
64,192,69553,1,0,0:0:0:0:
192,192,69904,1,2,0:0:0:0:
64,192,70079,1,0,0:0:0:0:
448,192,70079,1,8,0:0:0:0:
448,192,70255,1,2,0:0:0:0:
64,192,70605,1,8,0:0:0:0:
448,192,70693,1,8,0:0:0:0:
192,192,70781,128,0,72009:0:0:0:0:
64,192,70781,1,2,0:0:0:0:
320,192,70956,1,8,0:0:0:0:
448,192,70956,1,0,0:0:0:0:
320,192,71307,1,2,0:0:0:0:
448,192,71483,1,8,0:0:0:0:
64,192,71483,1,0,0:0:0:0:
320,192,71834,1,2,0:0:0:0:
64,192,72009,128,0,72535:0:0:0:0:
448,192,72009,1,2,0:0:0:0:
192,192,72360,1,8,0:0:0:0:
448,192,72360,1,0,0:0:0:0:
320,192,72535,128,0,72711:0:0:0:0:
448,192,72535,1,0,0:0:0:0:
192,192,72711,128,0,73062:0:0:0:0:
64,192,72711,1,2,0:0:0:0:
320,192,72886,1,8,0:0:0:0:
448,192,72886,1,0,0:0:0:0:
64,192,73062,1,0,0:0:0:0:
448,192,73062,1,2,0:0:0:0:
320,192,73237,1,0,0:0:0:0:
192,192,73413,1,0,0:0:0:0:
64,192,73413,1,2,0:0:0:0:
64,192,73588,128,4,74114:0:0:0:0:
320,192,73588,1,2,0:0:0:0:
448,192,73588,1,0,0:0:0:0:
192,192,74114,1,2,0:0:0:0:
448,192,74114,128,0,74290:0:0:0:0:
320,192,74290,1,8,0:0:0:0:
64,192,74290,1,0,0:0:0:0:
448,192,74465,1,0,0:0:0:0:
192,192,74465,128,0,74553:0:0:0:0:
64,192,74641,1,2,0:0:0:0:
320,192,74641,128,0,75167:0:0:0:0:
192,192,74991,1,0,0:0:0:0:
64,192,75167,128,0,75342:0:0:0:0:
448,192,75167,1,8,0:0:0:0:
320,192,75342,128,0,75518:0:0:0:0:
192,192,75342,1,0,0:0:0:0:
64,192,75518,1,2,0:0:0:0:
448,192,75518,1,0,0:0:0:0:
192,192,75693,1,0,0:0:0:0:
320,192,75693,1,8,0:0:0:0:
448,192,75693,1,0,0:0:0:0:
192,192,75869,1,2,0:0:0:0:
64,192,75869,128,0,76220:0:0:0:0:
448,192,76044,1,0,0:0:0:0:
192,192,76220,1,8,0:0:0:0:
320,192,76307,1,8,0:0:0:0:
64,192,76395,1,2,0:0:0:0:
192,192,76395,1,4,0:0:0:0:
448,192,76395,128,0,76921:0:0:0:0:
320,192,76921,1,0,0:0:0:0:
64,192,76921,1,2,0:0:0:0:
192,192,77097,1,0,0:0:0:0:
320,192,77097,1,8,0:0:0:0:
448,192,77097,1,0,0:0:0:0:
192,192,77272,1,0,0:0:0:0:
64,192,77272,128,0,77360:0:0:0:0:
320,192,77448,1,4,0:0:0:0:
64,192,77448,1,2,0:0:0:0:
448,192,77448,128,0,77974:0:0:0:0:
192,192,77798,1,0,0:0:0:0:
64,192,77974,1,8,0:0:0:0:
320,192,77974,1,0,0:0:0:0:
192,192,78062,1,0,0:0:0:0:
320,192,78149,1,0,0:0:0:0:
448,192,78237,1,0,0:0:0:0:
64,192,78325,1,0,0:0:0:0:
192,192,78413,1,0,0:0:0:0:
448,192,78500,1,2,0:0:0:0:
320,192,78500,1,0,0:0:0:0:
192,192,78676,1,0,0:0:0:0:
320,192,78676,1,2,0:0:0:0:
64,192,78851,1,0,0:0:0:0:
192,192,78851,1,2,0:0:0:0:
64,192,79027,1,2,0:0:0:0:
448,192,79027,1,0,0:0:0:0:
448,192,79202,1,4,0:0:0:0:
320,192,79202,1,2,0:0:0:0:
192,192,79202,128,0,79904:0:0:0:0:
64,192,79553,1,0,0:0:0:0:
320,192,79728,1,2,0:0:0:0:
448,192,79904,1,8,0:0:0:0:
64,192,79904,1,0,0:0:0:0:
192,192,80079,1,0,0:0:0:0:
320,192,80255,128,0,82009:0:0:0:0:
64,192,80255,1,2,0:0:0:0:
448,192,80255,1,4,0:0:0:0:
192,192,80430,1,2,0:0:0:0:
448,192,80781,1,8,0:0:0:0:
64,192,80781,1,0,0:0:0:0:
192,192,80956,1,0,0:0:0:0:
64,192,81132,1,2,0:0:0:0:
448,192,81307,1,0,0:0:0:0:
192,192,81307,1,8,0:0:0:0:
448,192,81483,1,2,0:0:0:0:
448,192,81834,1,8,0:0:0:0:
64,192,81921,1,8,0:0:0:0:
192,192,82009,128,0,83062:0:0:0:0:
448,192,82009,1,2,0:0:0:0:
320,192,82184,1,8,0:0:0:0:
64,192,82184,1,0,0:0:0:0:
320,192,82535,1,2,0:0:0:0:
448,192,82711,1,8,0:0:0:0:
64,192,82711,1,0,0:0:0:0:
448,192,83062,128,0,83588:0:0:0:0:
320,192,83062,1,2,0:0:0:0:
64,192,83237,1,2,0:0:0:0:
320,192,83588,1,0,0:0:0:0:
64,192,83588,1,8,0:0:0:0:
192,192,83763,1,0,0:0:0:0:
320,192,83939,1,2,0:0:0:0:
448,192,83939,1,0,0:0:0:0:
64,192,84114,128,0,84816:0:0:0:0:
192,192,84114,1,0,0:0:0:0:
448,192,84114,1,8,0:0:0:0:
320,192,84290,1,2,0:0:0:0:
320,192,84465,1,0,0:0:0:0:
192,192,84641,1,8,0:0:0:0:
448,192,84641,1,0,0:0:0:0:
320,192,84728,1,8,0:0:0:0:
192,192,84816,128,4,85869:0:0:0:0:
448,192,84816,1,2,0:0:0:0:
320,192,85342,1,2,0:0:0:0:
64,192,85518,1,0,0:0:0:0:
448,192,85518,1,8,0:0:0:0:
320,192,85869,1,2,0:0:0:0:
64,192,85869,1,0,0:0:0:0:
448,192,85869,1,4,0:0:0:0:
192,192,86044,1,2,0:0:0:0:
64,192,86044,1,0,0:0:0:0:
320,192,86220,1,0,0:0:0:0:
448,192,86395,1,8,0:0:0:0:
192,192,86395,1,0,0:0:0:0:
64,192,86395,1,0,0:0:0:0:
192,192,86570,1,0,0:0:0:0:
320,192,86746,1,2,0:0:0:0:
64,192,86746,1,0,0:0:0:0:
192,192,86921,128,0,87623:0:0:0:0:
448,192,86921,1,8,0:0:0:0:
320,192,86921,1,4,0:0:0:0:
64,192,87272,1,8,0:0:0:0:
320,192,87272,1,0,0:0:0:0:
320,192,87448,1,2,0:0:0:0:
448,192,87623,1,0,0:0:0:0:
64,192,87623,1,2,0:0:0:0:
192,192,87740,1,0,0:0:0:0:
320,192,87857,1,8,0:0:0:0:
448,192,87857,1,0,0:0:0:0:
64,192,87974,1,0,0:0:0:0:
192,192,87974,1,8,0:0:0:0:
320,192,88091,1,2,0:0:0:0:
192,192,88208,1,2,0:0:0:0:
64,192,88325,1,8,0:0:0:0:
448,192,88325,1,0,0:0:0:0:
320,192,88325,1,0,0:0:0:0:
192,192,88500,1,0,0:0:0:0:
320,192,88500,1,8,0:0:0:0:
448,192,88500,1,0,0:0:0:0:
320,192,88676,1,8,0:0:0:0:
64,192,88676,1,0,0:0:0:0:
192,192,88676,1,0,0:0:0:0:
64,192,88851,1,0,0:0:0:0:
192,192,88851,1,8,0:0:0:0:
448,192,88851,1,0,0:0:0:0:
