osu file format v14

[General]
AudioFilename: audio.mp3
AudioLeadIn: 0
PreviewTime: 55874
Countdown: 0
SampleSet: Soft
StackLeniency: 0.7
Mode: 0
LetterboxInBreaks: 0
WidescreenStoryboard: 1

[Editor]
DistanceSpacing: 1.5
BeatDivisor: 4
GridSize: 4
TimelineZoom: 1

[Metadata]
Title:Brave Shine
TitleUnicode:Brave Shine
Artist:Aimer
ArtistUnicode:Aimer
Creator:-Nya-
Version:Insane
Source:Fate/stay night [Unlimited Blade Works]
Tags:second 2nd opening op season cut version aihuro kaitjuh collab
BeatmapID:1015986
BeatmapSetID:475538

[Difficulty]
HPDrainRate:7
CircleSize:4
OverallDifficulty:7
ApproachRate:9
SliderMultiplier:2.8
SliderTickRate:1

[Events]
//Background and Video events
0,0,"Rin.jpg",0,0
//Break Periods
2,54144,55450
2,127127,128432
//Storyboard Layer 0 (Background)
//Storyboard Layer 1 (Fail)
//Storyboard Layer 2 (Pass)
//Storyboard Layer 3 (Foreground)
Sprite,Foreground,Centre,"Lyrics\0.png",320,340 S,0,16927,,0.4 C,0,16927,,255,255,255 P,0,16927,,A F,0,16927,17227,0,0.8 MX,0,16927,19558,500 MY,0,16927,19558,85,90 F,0,19258,19558,0.8,0
Sprite,Foreground,Centre,"Lyrics\1.png",320,340 S,0,19734,,0.4 C,0,19734,,255,255,255 P,0,19734,,A F,0,19734,20034,0,0.8 MX,0,19734,22804,500 MY,0,19734,22804,85,90 F,0,22504,22804,0.8,0
Sprite,Foreground,Centre,"Lyrics\2.png",320,340 S,0,22892,,0.4 C,0,22892,,255,255,255 P,0,22892,,A F,0,22892,23192,0,0.8 MX,0,22892,25172,500 MY,0,22892,25172,85,90 F,0,24872,25172,0.8,0
Sprite,Foreground,Centre,"Lyrics\3.png",320,340 S,0,25348,,0.4 C,0,25348,,255,255,255 P,0,25348,,A F,0,25348,25648,0,0.8 MX,0,25348,27804,500 MY,0,25348,27804,85,90 F,0,27504,27804,0.8,0
Sprite,Foreground,Centre,"Lyrics\4.png",320,340 S,0,28155,,0.4 C,0,28155,,255,255,255 P,0,28155,,A F,0,28155,28455,0,0.8 MX,0,28155,30611,500 MY,0,28155,30611,85,90 F,0,30311,30611,0.8,0
Sprite,Foreground,Centre,"Lyrics\5.png",320,340 S,0,30962,,0.4 C,0,30962,,255,255,255 P,0,30962,,A F,0,30962,31262,0,0.8 MX,0,30962,32014,500 MY,0,30962,32014,85,90 F,0,31714,32014,0.8,0
Sprite,Foreground,Centre,"Lyrics\6.png",320,340 S,0,32190,,0.4 C,0,32190,,255,255,255 P,0,32190,,A F,0,32190,32490,0,0.8 MX,0,32190,33944,500 MY,0,32190,33944,85,90 F,0,33644,33944,0.8,0
Sprite,Foreground,Centre,"Lyrics\7.png",320,340 S,0,34120,,0.4 C,0,34120,,255,255,255 P,0,34120,,A F,0,34120,34420,0,0.8 MX,0,34120,36400,500 MY,0,34120,36400,85,90 F,0,36100,36400,0.8,0
Sprite,Foreground,Centre,"Lyrics\8.png",320,340 S,0,36576,,0.4 C,0,36576,,255,255,255 P,0,36576,,A F,0,36576,36876,0,0.8 MX,0,36576,39734,500 MY,0,36576,39734,85,90 F,0,39434,39734,0.8,0
Sprite,Foreground,Centre,"Lyrics\9.png",320,340 S,0,40786,,0.4 C,0,40786,,255,255,255 P,0,40786,,A F,0,40786,41086,0,0.8 MX,0,40786,43418,500 MY,0,40786,43418,85,90 F,0,43118,43418,0.8,0
Sprite,Foreground,Centre,"Lyrics\10.png",320,340 S,0,43593,,0.4 C,0,43593,,255,255,255 P,0,43593,,A F,0,43593,43893,0,0.8 MX,0,43593,45348,500 MY,0,43593,45348,85,90 F,0,45048,45348,0.8,0
Sprite,Foreground,Centre,"Lyrics\11.png",320,340 S,0,46225,,0.4 C,0,46225,,255,255,255 P,0,46225,,A F,0,46225,46525,0,0.8 MX,0,46225,50260,500 MY,0,46225,50260,85,90 F,0,49960,50260,0.8,0
Sprite,Foreground,Centre,"Lyrics\12.png",320,340 S,0,50611,,0.4 C,0,50611,,255,255,255 P,0,50611,,A F,0,50611,50911,0,0.8 MX,0,50611,53243,500 MY,0,50611,53243,85,90 F,0,52943,53243,0.8,0
Sprite,Foreground,Centre,"Lyrics\13.png",320,340 S,0,53418,,0.4 C,0,53418,,255,255,255 P,0,53418,,A F,0,53418,53718,0,0.8 MX,0,53418,55523,500 MY,0,53418,55523,85,90 F,0,55223,55523,0.8,0
Sprite,Foreground,Centre,"Lyrics\14.png",320,340 S,0,55874,,0.4 C,0,55874,,255,255,255 P,0,55874,,A F,0,55874,56174,0,0.8 MX,0,55874,58506,500 MY,0,55874,58506,85,90 F,0,58206,58506,0.8,0
Sprite,Foreground,Centre,"Lyrics\15.png",320,340 S,0,58681,,0.4 C,0,58681,,255,255,255 P,0,58681,,A F,0,58681,58981,0,0.8 MX,0,58681,61137,500 MY,0,58681,61137,85,90 F,0,60837,61137,0.8,0
Sprite,Foreground,Centre,"Lyrics\16.png",320,340 S,0,61313,,0.4 C,0,61313,,255,255,255 P,0,61313,,A F,0,61313,61613,0,0.8 MX,0,61313,64120,500 MY,0,61313,64120,85,90 F,0,63820,64120,0.8,0
Sprite,Foreground,Centre,"Lyrics\17.png",320,340 S,0,64295,,0.4 C,0,64295,,255,255,255 P,0,64295,,A F,0,64295,64595,0,0.8 MX,0,64295,66400,500 MY,0,64295,66400,85,90 F,0,66100,66400,0.8,0
Sprite,Foreground,Centre,"Lyrics\18.png",320,340 S,0,66576,,0.4 C,0,66576,,255,255,255 P,0,66576,,A F,0,66576,66876,0,0.8 MX,0,66576,69734,500 MY,0,66576,69734,85,90 F,0,69434,69734,0.8,0
Sprite,Foreground,Centre,"Lyrics\19.png",320,340 S,0,69909,,0.4 C,0,69909,,255,255,255 P,0,69909,,A F,0,69909,70209,0,0.8 MX,0,69909,73243,500 MY,0,69909,73243,85,90 F,0,72943,73243,0.8,0
Sprite,Foreground,Centre,"Lyrics\20.png",320,340 S,0,73418,,0.4 C,0,73418,,255,255,255 P,0,73418,,A F,0,73418,73718,0,0.8 MX,0,73418,76050,500 MY,0,73418,76050,85,90 F,0,75750,76050,0.8,0
Sprite,Foreground,Centre,"Lyrics\21.png",320,340 S,0,76225,,0.4 C,0,76225,,255,255,255 P,0,76225,,A F,0,76225,76525,0,0.8 MX,0,76225,83769,500 MY,0,76225,83769,85,90 F,0,83469,83769,0.8,0
Sprite,Foreground,Centre,"Lyrics\22.png",320,340 S,0,83944,,0.4 C,0,83944,,255,255,255 P,0,83944,,A F,0,83944,84244,0,0.8 MX,0,83944,89558,500 MY,0,83944,89558,85,90 F,0,89258,89558,0.8,0
Sprite,Foreground,Centre,"Lyrics\23.png",320,340 S,0,89909,,0.4 C,0,89909,,255,255,255 P,0,89909,,A F,0,89909,90209,0,0.8 MX,0,89909,92541,500 MY,0,89909,92541,85,90 F,0,92241,92541,0.8,0
Sprite,Foreground,Centre,"Lyrics\24.png",320,340 S,0,92716,,0.4 C,0,92716,,255,255,255 P,0,92716,,A F,0,92716,93016,0,0.8 MX,0,92716,95699,500 MY,0,92716,95699,85,90 F,0,95399,95699,0.8,0
Sprite,Foreground,Centre,"Lyrics\25.png",320,340 S,0,95874,,0.4 C,0,95874,,255,255,255 P,0,95874,,A F,0,95874,96174,0,0.8 MX,0,95874,100962,500 MY,0,95874,100962,85,90 F,0,100662,100962,0.8,0
Sprite,Foreground,Centre,"Lyrics\26.png",320,340 S,0,101137,,0.4 C,0,101137,,255,255,255 P,0,101137,,A F,0,101137,101437,0,0.8 MX,0,101137,103769,500 MY,0,101137,103769,85,90 F,0,103469,103769,0.8,0
Sprite,Foreground,Centre,"Lyrics\27.png",320,340 S,0,103944,,0.4 C,0,103944,,255,255,255 P,0,103944,,A F,0,103944,104244,0,0.8 MX,0,103944,106927,500 MY,0,103944,106927,85,90 F,0,106627,106927,0.8,0
Sprite,Foreground,Centre,"Lyrics\28.png",320,340 S,0,107102,,0.4 C,0,107102,,255,255,255 P,0,107102,,A F,0,107102,107402,0,0.8 MX,0,107102,109383,500 MY,0,107102,109383,85,90 F,0,109083,109383,0.8,0
Sprite,Foreground,Centre,"Lyrics\29.png",320,340 S,0,109558,,0.4 C,0,109558,,255,255,255 P,0,109558,,A F,0,109558,109858,0,0.8 MX,0,109558,112716,500 MY,0,109558,112716,85,90 F,0,112416,112716,0.8,0
Sprite,Foreground,Centre,"Lyrics\30.png",320,340 S,0,113769,,0.4 C,0,113769,,255,255,255 P,0,113769,,A F,0,113769,114069,0,0.8 MX,0,113769,116400,500 MY,0,113769,116400,85,90 F,0,116100,116400,0.8,0
Sprite,Foreground,Centre,"Lyrics\31.png",320,340 S,0,116576,,0.4 C,0,116576,,255,255,255 P,0,116576,,A F,0,116576,116876,0,0.8 MX,0,116576,119032,500 MY,0,116576,119032,85,90 F,0,118732,119032,0.8,0
Sprite,Foreground,Centre,"Lyrics\32.png",320,340 S,0,119207,,0.4 C,0,119207,,255,255,255 P,0,119207,,A F,0,119207,119507,0,0.8 MX,0,119207,123418,500 MY,0,119207,123418,85,90 F,0,123118,123418,0.8,0
Sprite,Foreground,Centre,"Lyrics\33.png",320,340 S,0,123593,,0.4 C,0,123593,,255,255,255 P,0,123593,,A F,0,123593,123893,0,0.8 MX,0,123593,126225,500 MY,0,123593,126225,85,90 F,0,125925,126225,0.8,0
Sprite,Foreground,Centre,"Lyrics\34.png",320,340 S,0,126400,,0.4 C,0,126400,,255,255,255 P,0,126400,,A F,0,126400,126700,0,0.8 MX,0,126400,128681,500 MY,0,126400,128681,85,90 F,0,128381,128681,0.8,0
Sprite,Foreground,Centre,"Lyrics\35.png",320,340 S,0,128857,,0.4 C,0,128857,,255,255,255 P,0,128857,,A F,0,128857,129157,0,0.8 MX,0,128857,131488,500 MY,0,128857,131488,85,90 F,0,131188,131488,0.8,0
Sprite,Foreground,Centre,"Lyrics\36.png",320,340 S,0,131664,,0.4 C,0,131664,,255,255,255 P,0,131664,,A F,0,131664,131964,0,0.8 MX,0,131664,137102,500 MY,0,131664,137102,85,90 F,0,136802,137102,0.8,0
Sprite,Foreground,Centre,"Lyrics\37.png",320,340 S,0,137278,,0.4 C,0,137278,,255,255,255 P,0,137278,,A F,0,137278,137578,0,0.8 MX,0,137278,139383,500 MY,0,137278,139383,85,90 F,0,139083,139383,0.8,0
Sprite,Foreground,Centre,"Lyrics\38.png",320,340 S,0,139558,,0.4 C,0,139558,,255,255,255 P,0,139558,,A F,0,139558,139858,0,0.8 MX,0,139558,142716,500 MY,0,139558,142716,85,90 F,0,142416,142716,0.8,0
Sprite,Foreground,Centre,"Lyrics\39.png",320,340 S,0,142892,,0.4 C,0,142892,,255,255,255 P,0,142892,,A F,0,142892,143192,0,0.8 MX,0,142892,146050,500 MY,0,142892,146050,85,90 F,0,145750,146050,0.8,0
Sprite,Foreground,Centre,"Lyrics\40.png",320,340 S,0,146225,,0.4 C,0,146225,,255,255,255 P,0,146225,,A F,0,146225,146525,0,0.8 MX,0,146225,148857,500 MY,0,146225,148857,85,90 F,0,148557,148857,0.8,0
Sprite,Foreground,Centre,"Lyrics\41.png",320,340 S,0,149032,,0.4 C,0,149032,,255,255,255 P,0,149032,,A F,0,149032,149332,0,0.8 MX,0,149032,157628,500 MY,0,149032,157628,85,90 F,0,157328,157628,0.8,0
//Storyboard Sound Samples

[TimingPoints]
436,701.754385964912,4,2,1,20,1,0
3243,-100,4,2,1,30,0,0
3944,-100,4,2,1,40,0,0
5348,-133.333333333333,4,2,1,20,0,0
6050,-100,4,2,1,50,0,0
17278,-100,4,2,1,40,0,0
39734,-133.333333333333,4,2,1,40,0,0
50962,-100,4,2,1,50,0,0
56576,-83.3333333333333,4,2,1,70,0,1
90260,-100,4,2,1,50,0,0
112716,-133.333333333333,4,2,1,40,0,0
123944,-100,4,2,1,50,0,0
129558,-83.3333333333333,4,2,1,70,0,1
152014,-83.3333333333333,4,2,1,70,0,0
157628,-83.3333333333333,4,2,1,5,0,0

[Colours]
Combo1 : 255,151,255
Combo2 : 255,117,117
Combo3 : 85,162,255
Combo4 : 102,255,102

[HitObjects]
256,188,436,6,0,L|204:112,1,70
172,60,786,1,0,0:0:0:0:
128,132,962,1,0,0:0:0:0:
216,252,1137,2,0,P|296:252|324:160,1,140,8|0,0:0|0:0,0:0:0:0:
300,128,1664,1,0,0:0:0:0:
276,48,1839,5,0,0:0:0:0:
404,80,2014,1,8,0:0:0:0:
432,160,2190,2,0,L|420:244,1,70
320,144,2541,1,8,0:0:0:0:
280,216,2716,1,0,0:0:0:0:
248,292,2892,1,0,0:0:0:0:
216,368,3067,1,0,0:0:0:0:
120,280,3243,6,0,P|112:244|116:196,1,70
204,104,3593,2,0,P|211:138|211:172,1,70
176,32,3944,2,0,P|248:40|280:108,1,140,8|0,0:0|0:0,0:0:0:0:
292,176,4471,1,0,0:0:0:0:
376,280,4646,2,0,L|460:156,1,140,8|0,0:0|0:0,0:0:0:0:
424,84,5172,1,0,0:0:0:0:
280,94,5348,6,0,P|204:122|152:54,1,157.500006008148
36,120,6050,6,0,P|64:196|88:260,1,140,4|0,0:0|0:0,0:0:0:0:
124,332,6576,1,0,0:0:0:0:
272,272,6751,2,0,L|320:220,1,70,8|0,0:0|0:0,0:0:0:0:
368,152,7102,1,0,0:0:0:0:
308,52,7278,1,0,0:0:0:0:
224,140,7453,1,0,0:0:0:0:
424,96,7628,6,0,L|456:160,1,70,8|0,0:0|0:0,0:0:0:0:
488,236,7979,1,0,0:0:0:0:
301,202,8155,2,0,L|333:266,1,70,8|0,0:0|0:0,0:0:0:0:
364,344,8506,1,0,0:0:0:0:
248,304,8681,1,0,0:0:0:0:
308,128,8857,6,0,P|240:156|228:220,1,140,4|0,0:0|0:0,0:0:0:0:
248,304,9383,1,0,0:0:0:0:
128,212,9558,2,0,L|64:156,1,70,8|0,0:0|0:0,0:0:0:0:
87,29,9909,2,0,L|140:76,1,70
204,132,10260,1,0,0:0:0:0:
352,48,10435,5,8,0:0:0:0:
212,16,10611,1,0,0:0:0:0:
276,88,10786,1,0,0:0:0:0:
128,164,10962,2,0,P|184:212|256:196,1,140,8|0,0:0|0:0,0:0:0:0:
336,160,11488,1,0,0:0:0:0:
336,160,11576,1,0,0:0:0:0:
336,160,11664,6,0,L|420:272,1,140,4|0,0:0|0:0,0:0:0:0:
468,340,12190,1,0,0:0:0:0:
480,208,12365,2,0,P|468:132|464:124,1,70,8|0,0:0|0:0,0:0:0:0:
388,116,12716,1,0,0:0:0:0:
356,232,12892,1,0,0:0:0:0:
480,208,13067,1,0,0:0:0:0:
360,36,13243,6,0,P|288:28|200:40,1,140,8|0,0:0|0:0,0:0:0:0:
148,144,13769,2,0,P|132:180|104:224,1,70,8|0,0:0|0:0,0:0:0:0:
24,260,14120,1,0,0:0:0:0:
44,156,14295,1,0,0:0:0:0:
272,160,14471,6,0,P|280:244|232:292,1,140,4|0,0:0|0:0,0:0:0:0:
168,308,14997,1,0,0:0:0:0:
184,168,15172,2,0,L|196:96,1,70,8|0,0:0|0:0,0:0:0:0:
208,16,15523,1,0,0:0:0:0:
340,40,15699,2,0,P|420:32|432:24,1,70,8|0,0:0|0:0,0:0:0:0:
512,104,16050,5,8,0:0:0:0:
408,172,16225,1,0,0:0:0:0:
408,172,16313,1,0,0:0:0:0:
408,172,16400,1,0,0:0:0:0:
408,172,16488,1,0,0:0:0:0:
408,172,16576,2,0,P|400:212|424:256,1,70,8|8,0:0|0:0,0:0:0:0:
464,304,16927,1,0,0:0:0:0:
380,320,17102,1,0,0:0:0:0:
216,220,17278,6,0,P|132:232|56:212,1,140,4|0,0:0|0:0,0:0:0:0:
20,160,17804,1,0,0:0:0:0:
64,40,17979,2,0,L|100:104,1,70,8|0,0:0|0:0,0:0:0:0:
140,176,18330,1,0,0:0:0:0:
220,64,18506,2,0,P|204:140|200:144,1,70
156,24,18857,5,8,0:0:0:0:
304,100,19032,2,0,P|372:100|408:40,1,140,0|8,0:0|0:0,0:0:0:0:
304,100,19558,1,0,0:0:0:0:
328,196,19734,2,0,L|352:272,1,70
372,340,19997,1,0,0:0:0:0:
372,340,20085,6,0,P|416:344|460:328,1,70,0|8,0:0|0:0,0:0:0:0:
480,264,20435,1,0,0:0:0:0:
420,204,20611,1,0,0:0:0:0:
276,288,20786,2,0,P|192:296|160:240,1,140,8|0,0:0|0:0,0:0:0:0:
148,172,21313,1,0,0:0:0:0:
8,244,21488,2,0,L|84:208,1,70,0|8,0:0|0:0,0:0:0:0:
148,172,21839,5,0,0:0:0:0:
216,108,22014,1,0,0:0:0:0:
96,88,22190,1,8,0:0:0:0:
236,192,22365,2,0,P|240:264|176:288,1,140,2|0,0:0|0:0,0:0:0:0:
100,288,22804,1,0,0:0:0:0:
100,288,22892,6,0,L|104:368,1,70
145,197,23243,1,0,0:0:0:0:
52,220,23418,1,0,0:0:0:0:
72,102,23593,2,0,P|31:155|52:220,1,140,8|0,0:0|0:0,0:0:0:0:
140,144,24120,1,0,0:0:0:0:
142,60,24295,1,0,0:0:0:0:
208,216,24471,6,0,L|332:136,1,140,8|0,0:0|0:0,0:0:0:0:
412,72,24997,1,8,0:0:0:0:
428,196,25172,1,0,0:0:0:0:
326,140,25348,1,0,0:0:0:0:
480,136,25523,1,0,0:0:0:0:
480,136,25611,1,0,0:0:0:0:
480,136,25699,6,0,P|511:211|463:271,1,140
388,264,26225,1,0,0:0:0:0:
480,136,26400,1,8,0:0:0:0:
364,170,26576,1,0,0:0:0:0:
388,264,26751,2,0,L|408:348,1,70
364,170,27102,1,0,0:0:0:0:
204,104,27278,6,0,P|140:136|128:148,1,70,8|0,0:0|0:0,0:0:0:0:
76,252,27628,1,0,0:0:0:0:
48,108,27804,2,0,P|68:72|116:40,1,70,8|0,0:0|0:0,0:0:0:0:
142,134,28155,1,0,0:0:0:0:
184,276,28330,1,0,0:0:0:0:
184,276,28418,1,0,0:0:0:0:
184,276,28506,6,0,P|256:284|332:256,1,140,4|0,0:0|0:0,0:0:0:0:
376,200,29032,1,0,0:0:0:0:
316,72,29207,2,0,L|256:144,1,70,8|0,0:0|0:0,0:0:0:0:
216,192,29558,1,0,0:0:0:0:
204,24,29734,2,0,L|144:96,1,70
76,176,30085,5,8,0:0:0:0:
68,80,30260,1,0,0:0:0:0:
148,152,30435,1,0,0:0:0:0:
272,240,30611,2,0,L|336:184,1,70,8|0,0:0|0:0,0:0:0:0:
384,136,30962,1,0,0:0:0:0:
424,228,31137,1,0,0:0:0:0:
424,228,31225,1,0,0:0:0:0:
424,228,31313,6,0,P|456:224|520:240,1,70,0|8,0:0|0:0,0:0:0:0:
388,296,31664,1,0,0:0:0:0:
448,352,31839,1,0,0:0:0:0:
336,236,32014,1,8,0:0:0:0:
280,296,32190,2,0,P|256:260|260:216,1,70
188,148,32541,2,0,P|124:184|104:248,1,140,0|8,0:0|0:0,0:0:0:0:
148,316,33067,5,0,0:0:0:0:
16,244,33243,1,0,0:0:0:0:
16,228,33330,1,0,0:0:0:0:
16,212,33418,1,8,0:0:0:0:
40,88,33593,2,0,P|116:80|160:28,1,140,2|0,0:0|0:0,0:0:0:0:
240,12,34032,1,0,0:0:0:0:
240,12,34120,6,0,L|320:64,1,70
372,92,34471,1,0,0:0:0:0:
436,36,34646,1,0,0:0:0:0:
396,180,34821,2,0,P|328:232|260:208,1,140,8|0,0:0|0:0,0:0:0:0:
168,184,35348,2,0,P|112:228|44:280,1,140,0|8,0:0|0:0,0:0:0:0:
60,164,35874,5,0,0:0:0:0:
58,270,36050,1,0,0:0:0:0:
216,116,36225,2,0,P|248:184|220:248,1,140,8|0,0:0|0:0,0:0:0:0:
152,320,36751,1,0,0:0:0:0:
152,320,36839,1,0,0:0:0:0:
152,320,36927,6,0,L|304:364,1,140
368,376,37453,1,0,0:0:0:0:
384,228,37628,2,0,L|376:304,1,70,8|0,0:0|0:0,0:0:0:0:
368,376,37979,1,0,0:0:0:0:
484,272,38155,2,0,L|491:202,1,70
320,176,38506,6,0,P|296:116|332:52,1,140,8|0,0:0|0:0,0:0:0:0:
360,36,38944,1,0,0:0:0:0:
360,36,39032,1,8,0:0:0:0:
228,56,39207,1,0,0:0:0:0:
372,120,39383,1,0,0:0:0:0:
284,0,39558,1,0,0:0:0:0:
232,148,39734,6,0,L|196:256,1,105.000004005432,4|0,0:0|0:0,0:0:0:0:
180,320,40260,1,0,0:0:0:0:
88,228,40435,2,0,L|40:172,1,52.5000020027161,0|0,3:0|0:0,0:0:0:0:
128,148,40786,2,0,L|174:91,1,52.5000020027161
224,40,41137,5,0,0:0:0:0:
280,120,41313,1,0,0:0:0:0:
161,107,41488,1,0,0:0:0:0:
328,60,41664,2,0,P|352:96|336:172,1,105.000004005432
284,212,42190,1,0,0:0:0:0:
208,248,42365,1,0,0:0:0:0:
336,336,42541,6,0,P|420:328|444:312,1,105.000004005432,0|0,3:0|0:0,0:0:0:0:
468,252,43067,1,0,0:0:0:0:
328,224,43243,2,0,L|248:208,1,52.5000020027161,0|0,3:0|0:0,0:0:0:0:
220,108,43593,2,0,L|271:118,1,52.5000020027161
216,28,43944,6,0,P|164:48|140:104,1,105.000004005432
136,188,44471,2,0,P|112:233|63:250,1,105.000004005432
68,144,44997,1,0,0:0:0:0:
63,250,45172,1,0,0:0:0:0:
216,160,45348,6,0,L|248:272,1,105.000004005432,0|0,3:0|0:0,0:0:0:0:
264,332,45874,1,0,0:0:0:0:
388,264,46050,2,0,L|324:300,1,52.5000020027161,0|0,3:0|0:0,0:0:0:0:
264,332,46400,1,0,0:0:0:0:
340,372,46576,1,0,0:0:0:0:
456,300,46751,6,0,P|464:260|432:200,1,105.000004005432
360,148,47278,2,0,P|332:104|343:54,1,105.000004005432
424,40,47804,1,0,0:0:0:0:
464,112,47979,1,0,0:0:0:0:
276,172,48155,6,0,P|220:180|140:168,1,105.000004005432,0|0,3:0|0:0,0:0:0:0:
252,320,48681,2,0,P|304:317|356:325,1,105.000004005432,0|0,3:0|0:0,0:0:0:0:
196,248,49207,2,0,P|164:328|212:400,1,157.500006008148,0|0,3:0|0:0,0:0:0:0:
252,320,49909,1,0,0:0:0:0:
304,216,50085,1,2,0:0:0:0:
356,324,50260,1,0,0:0:0:0:
216,236,50435,1,2,0:0:0:0:
384,192,50611,2,0,L|400:136,1,52.5000020027161
339,18,50962,6,0,P|383:82|399:166,1,140
348,212,51488,1,0,0:0:0:0:
208,160,51664,2,0,L|132:296,1,140,8|0,0:0|0:0,0:0:0:0:
100,356,52190,1,0,0:0:0:0:
56,244,52365,1,0,0:0:0:0:
212,336,52541,6,0,P|284:308|288:304,1,70,8|0,0:0|0:0,0:0:0:0:
332,248,52892,1,0,0:0:0:0:
352,84,53067,2,0,L|344:160,1,70,8|0,0:0|0:0,0:0:0:0:
272,56,53418,1,0,0:0:0:0:
364,8,53593,1,0,0:0:0:0:
480,144,53769,5,8,0:0:0:0:
272,56,53944,1,8,0:0:0:0:
340,260,56050,5,8,0:0:0:0:
480,144,56225,1,8,0:0:0:0:
272,296,56576,6,0,P|180:308|116:260,1,167.999994873047,4|0,0:0|0:0,0:0:0:0:
112,164,57102,1,0,0:0:0:0:
180,20,57278,2,0,L|224:112,1,83.9999974365235,8|0,0:0|0:0,0:0:0:0:
260,192,57628,1,0,0:0:0:0:
256,0,57804,2,0,L|300:92,1,83.9999974365235
340,192,58155,5,8,0:0:0:0:
217,95,58330,1,0,0:0:0:0:
184,228,58506,1,0,0:0:0:0:
340,192,58681,2,0,P|380:156|388:100,1,83.9999974365235,8|0,0:0|0:0,0:0:0:0:
260,192,59032,1,0,0:0:0:0:
320,328,59207,1,0,0:0:0:0:
320,328,59295,1,0,0:0:0:0:
320,328,59383,6,0,P|240:360|152:328,1,167.999994873047
132,208,59909,1,0,0:0:0:0:
236,64,60085,2,0,L|324:232,1,167.999994873047,8|0,0:0|0:0,0:0:0:0:
356,304,60611,1,0,0:0:0:0:
412,220,60786,1,0,0:0:0:0:
296,384,60962,6,0,P|256:324|256:292,1,83.9999974365235,8|0,0:0|0:0,0:0:0:0:
314,213,61312,1,0,0:0:0:0:
172,344,61488,2,0,L|72:368,1,83.9999974365235,8|0,0:0|0:0,0:0:0:0:
176,256,61839,1,0,0:0:0:0:
176,256,62014,1,0,0:0:0:0:
56,96,62190,6,0,P|144:80|164:4,1,167.999994873047,4|0,0:0|0:0,0:0:0:0:
56,96,62716,1,0,0:0:0:0:
144,256,62892,2,0,P|184:276|244:272,1,83.9999974365235,8|0,0:0|0:0,0:0:0:0:
320,248,63243,1,0,0:0:0:0:
232,176,63418,1,0,0:0:0:0:
292,328,63593,1,0,0:0:0:0:
312,144,63769,5,8,0:0:0:0:
392,224,63944,1,0,0:0:0:0:
222,277,64120,1,0,0:0:0:0:
180,104,64295,2,0,P|228:28|248:20,1,83.9999974365235,8|0,0:0|0:0,0:0:0:0:
312,144,64646,2,0,P|264:220|244:228,1,83.9999974365235
180,248,64909,1,0,0:0:0:0:
180,248,64997,6,0,P|96:212|124:136,1,167.999994873047
148,56,65523,1,0,0:0:0:0:
256,152,65699,2,0,L|328:208,1,83.9999974365235,4|0,0:0|0:0,0:0:0:0:
232,240,66050,1,0,0:0:0:0:
188,112,66225,2,0,P|212:84|288:84,1,83.9999974365235
396,124,66576,5,8,0:0:0:0:
500,108,66751,1,0,0:0:0:0:
432,32,66927,1,0,0:0:0:0:
500,220,67102,2,0,P|485:259|456:289,1,83.9999974365235,8|0,0:0|0:0,0:0:0:0:
352,232,67453,1,0,0:0:0:0:
396,124,67628,1,0,0:0:0:0:
224,220,67804,6,0,P|232:308|304:348,1,167.999994873047,4|0,0:0|0:0,0:0:0:0:
392,324,68330,1,0,0:0:0:0:
292,180,68506,2,0,P|216:140|152:188,1,167.999994873047,8|0,0:0|0:0,0:0:0:0:
84,308,69032,2,0,P|40:272|32:228,1,83.9999974365235
28,80,69382,5,8,0:0:0:0:
128,32,69558,1,0,0:0:0:0:
208,104,69734,1,0,0:0:0:0:
356,12,69909,2,0,P|384:96|384:112,1,83.9999974365235,8|0,0:0|0:0,0:0:0:0:
272,28,70260,1,0,0:0:0:0:
324,144,70435,1,0,0:0:0:0:
324,144,70523,1,0,0:0:0:0:
324,144,70611,6,0,P|384:172|460:108,1,167.999994873047
400,204,71137,1,0,0:0:0:0:
248,272,71313,2,0,P|192:280|156:272,1,83.9999974365235,8|0,0:0|0:0,0:0:0:0:
110,183,71664,1,0,0:0:0:0:
41,60,71839,2,0,L|120:32,1,83.9999974365235
110,183,72190,5,8,0:0:0:0:
208,204,72365,1,0,0:0:0:0:
176,108,72541,1,0,0:0:0:0:
300,200,72716,2,0,L|396:264,1,83.9999974365235,8|0,0:0|0:0,0:0:0:0:
440,140,73067,2,0,L|536:204,1,83.9999974365235
384,336,73418,6,0,P|288:344|224:304,1,167.999994873047,4|0,0:0|0:0,0:0:0:0:
208,204,73944,1,0,0:0:0:0:
201,55,74120,2,0,P|237:147|181:223,1,167.999994873047,8|0,0:0|0:0,0:0:0:0:
300,64,74646,2,0,P|400:88|408:96,1,83.9999974365235
448,180,74997,5,8,0:0:0:0:
472,64,75172,1,0,0:0:0:0:
352,148,75348,1,0,0:0:0:0:
392,284,75523,2,0,P|464:320|524:252,1,167.999994873047,8|0,0:0|0:0,0:0:0:0:
448,180,76050,1,0,0:0:0:0:
448,180,76137,1,0,0:0:0:0:
448,180,76225,6,0,P|336:176|292:216,1,167.999994873047,4|0,0:0|0:0,0:0:0:0:
276,308,76751,1,0,0:0:0:0:
152,204,76927,2,0,L|116:296,1,83.9999974365235,8|0,0:0|0:0,0:0:0:0:
232,160,77278,1,4,0:0:0:0:
148,104,77453,1,0,0:0:0:0:
240,64,77628,1,0,0:0:0:0:
152,204,77804,5,0,0:0:0:0:
180,234,77891,1,0,0:0:0:0:
218,250,77979,1,0,0:0:0:0:
260,249,78067,1,0,0:0:0:0:
297,230,78154,1,0,0:0:0:0:
323,197,78242,1,0,0:0:0:0:
328,156,78330,5,0,0:0:0:0:
400,52,78506,1,0,0:0:0:0:
444,164,78681,1,0,0:0:0:0:
320,72,78857,1,0,0:0:0:0:
392,236,79032,6,0,P|368:320|288:364,1,167.999994873047,4|0,0:0|0:0,0:0:0:0:
208,328,79558,1,0,0:0:0:0:
184,168,79734,2,0,L|200:264,1,83.9999974365235,8|0,0:0|0:0,0:0:0:0:
248,96,80085,1,4,0:0:0:0:
112,96,80260,2,0,P|75:115|51:149,1,83.9999974365235
248,96,80611,5,8,0:0:0:0:
288,188,80786,1,0,0:0:0:0:
184,168,80962,1,0,0:0:0:0:
328,44,81137,2,0,L|376:176,1,83.9999974365235,8|0,0:0|0:0,0:0:0:0:
384,220,81488,1,0,0:0:0:0:
460,120,81664,1,0,0:0:0:0:
460,120,81751,1,0,0:0:0:0:
460,120,81839,5,0,0:0:0:0:
496,256,82014,1,8,0:0:0:0:
384,220,82190,1,0,0:0:0:0:
388,328,82365,1,0,0:0:0:0:
328,160,82541,2,0,P|304:208|312:256,1,83.9999974365235,4|0,0:0|0:0,0:0:0:0:
388,328,82892,1,0,0:0:0:0:
384,220,83067,1,0,0:0:0:0:
480,276,83243,1,0,0:0:0:0:
305,237,83418,5,8,0:0:0:0:
184,156,83593,2,0,P|156:120|160:64,1,83.9999974365235
256,24,83944,1,8,0:0:0:0:
272,136,84120,1,0,0:0:0:0:
352,72,84295,1,0,0:0:0:0:
388,180,84471,1,0,0:0:0:0:
388,180,84558,1,0,0:0:0:0:
388,180,84646,6,0,P|356:244|260:268,1,167.999994873047,4|0,0:0|0:0,0:0:0:0:
172,216,85172,1,0,0:0:0:0:
72,352,85348,2,0,L|128:276,1,83.9999974365235,8|0,0:0|0:0,0:0:0:0:
172,112,85699,1,4,0:0:0:0:
48,104,85874,2,0,P|12:184|12:196,1,83.9999974365235
244,152,86225,5,8,0:0:0:0:
252,52,86400,1,0,0:0:0:0:
172,112,86576,1,0,0:0:0:0:
372,124,86751,2,0,P|384:208|304:272,1,167.999994873047,8|0,0:0|0:0,0:0:0:0:
232,248,87278,1,0,0:0:0:0:
232,248,87365,1,0,0:0:0:0:
232,248,87453,6,0,L|208:364,1,83.9999974365235
112,200,87804,2,0,L|129:117,1,83.9999974365235
16,236,88155,1,8,0:0:0:0:
36,136,88330,1,0,0:0:0:0:
0,340,88506,1,4,0:0:0:0:
96,304,88681,1,0,0:0:0:0:
96,304,88769,1,0,0:0:0:0:
96,304,88857,5,0,0:0:0:0:
172,204,89032,1,0,0:0:0:0:
185,181,89119,1,0,0:0:0:0:
198,159,89207,1,0,0:0:0:0:
211,137,89295,1,0,0:0:0:0:
224,115,89382,1,0,0:0:0:0:
237,93,89470,1,0,0:0:0:0:
250,71,89558,5,8,0:0:0:0:
388,80,89734,1,0,3:0:0:0:
320,8,89909,1,0,3:0:0:0:
320,148,90085,1,0,3:0:0:0:
472,168,90260,6,0,L|464:256,1,70,4|0,0:0|0:0,0:0:0:0:
452,320,90611,1,0,0:0:0:0:
336,344,90786,2,0,P|264:356|188:332,1,140
152,272,91313,1,0,0:0:0:0:
232,184,91488,2,0,P|184:108|140:96,1,140
64,136,92014,2,0,L|8:64,1,70
128,20,92365,2,0,P|194:3|257:30,1,140,2|0,0:0|0:0,0:0:0:0:
312,96,92892,1,0,0:0:0:0:
216,228,93067,6,0,L|276:160,1,70
348,172,93418,1,0,0:0:0:0:
432,220,93593,2,0,P|432:140|428:132,1,70
472,80,93944,2,0,P|396:52|387:53,1,70
348,0,94295,2,0,P|296:61|294:69,1,70,0|2,0:0|0:0,0:0:0:0:
240,132,94646,5,0,0:0:0:0:
168,92,94821,1,0,0:0:0:0:
148,192,94997,1,0,0:0:0:0:
148,192,95085,1,0,0:0:0:0:
148,192,95172,1,8,0:0:0:0:
124,284,95348,2,0,P|80:260|60:224,1,70
52,152,95699,1,0,0:0:0:0:
52,152,95786,1,0,0:0:0:0:
52,152,95874,6,0,L|100:80,1,70
160,48,96225,1,0,0:0:0:0:
208,116,96400,1,0,0:0:0:0:
240,40,96576,1,0,0:0:0:0:
420,240,96927,1,0,0:0:0:0:
420,240,97102,6,0,L|376:296,1,70
296,224,97453,2,0,L|339:168,1,70
396,108,97804,1,0,0:0:0:0:
296,72,97979,2,0,P|224:112|208:192,1,140,2|0,0:0|0:0,0:0:0:0:
212,248,98506,1,0,0:0:0:0:
128,356,98681,5,2,0:0:0:0:
116,200,98857,1,8,0:0:0:0:
32,284,99032,1,0,0:0:0:0:
136,276,99207,1,0,0:0:0:0:
48,160,99383,2,0,P|124:120|148:124,1,70
240,156,99734,5,8,0:0:0:0:
292,88,99909,1,0,0:0:0:0:
408,176,100085,2,0,L|348:132,1,70,2|0,0:0|0:0,0:0:0:0:
448,72,100435,2,0,L|504:113,1,70
368,44,100786,1,8,0:0:0:0:
292,88,100962,1,0,0:0:0:0:
292,4,101137,1,0,0:0:0:0:
192,68,101313,1,0,0:0:0:0:
192,68,101400,1,0,0:0:0:0:
192,68,101488,6,0,L|152:232,1,140,4|0,0:0|0:0,0:0:0:0:
140,288,102014,1,0,0:0:0:0:
308,272,102190,2,0,P|376:216|384:148,1,140,8|0,0:0|0:0,0:0:0:0:
352,92,102716,1,0,0:0:0:0:
460,120,102892,1,0,0:0:0:0:
372,8,103067,5,8,0:0:0:0:
264,76,103243,2,0,L|208:148,1,70
152,12,103593,2,0,L|48:136,1,140,8|0,0:0|0:0,0:0:0:0:
24,208,104120,1,0,0:0:0:0:
24,208,104207,1,0,0:0:0:0:
24,208,104295,6,0,P|40:288|48:296,1,70
144,352,104646,2,0,P|128:272|120:264,1,70
184,136,104997,2,0,P|268:128|328:164,1,140,8|0,0:0|0:0,0:0:0:0:
352,228,105523,1,0,0:0:0:0:
480,152,105699,2,0,L|400:200,1,70
448,76,106050,1,0,0:0:0:0:
328,32,106225,1,0,0:0:0:0:
328,32,106313,1,0,0:0:0:0:
328,32,106400,5,8,0:0:0:0:
248,132,106576,2,0,P|172:112|172:48,1,140,2|0,0:0|0:0,0:0:0:0:
76,24,107014,1,0,0:0:0:0:
76,24,107102,6,0,L|52:104,1,70
32,172,107453,1,0,0:0:0:0:
112,152,107628,1,0,0:0:0:0:
100,304,107804,2,0,P|176:308|216:248,1,140,8|0,0:0|0:0,0:0:0:0:
240,176,108330,1,0,0:0:0:0:
312,228,108506,1,0,0:0:0:0:
136,228,108681,5,8,0:0:0:0:
160,148,108857,1,0,0:0:0:0:
240,176,109032,1,0,0:0:0:0:
300,28,109207,2,0,L|368:84,1,70,8|0,0:0|0:0,0:0:0:0:
236,72,109558,1,0,0:0:0:0:
340,152,109734,1,0,0:0:0:0:
340,152,109821,1,0,0:0:0:0:
340,152,109909,6,0,P|384:152|420:112,1,70
412,297,110260,2,0,P|378:300|348:284,1,70
268,104,110611,2,0,P|256:184|300:232,1,140,8|0,0:0|0:0,0:0:0:0:
372,204,111137,1,0,0:0:0:0:
372,204,111313,1,0,0:0:0:0:
252,308,111488,5,8,0:0:0:0:
192,224,111664,1,0,0:0:0:0:
136,312,111839,1,0,0:0:0:0:
136,324,111927,1,0,0:0:0:0:
136,336,112014,1,0,0:0:0:0:
88,184,112190,1,0,0:0:0:0:
192,224,112365,1,0,0:0:0:0:
48,264,112541,1,0,0:0:0:0:
36,104,112716,6,0,L|136:28,1,105.000004005432,4|0,0:0|0:0,0:0:0:0:
88,184,113243,1,8,0:0:0:0:
212,88,113418,2,0,P|264:84|316:96,1,105.000004005432,2|8,0:0|0:0,0:0:0:0:
360,168,113944,1,0,0:0:0:0:
328,300,114120,6,0,L|344:236,1,52.5000020027161
232,312,114471,2,0,L|248:248,1,52.5000020027161
136,316,114821,2,0,L|152:252,1,52.5000020027161
172,156,115172,1,0,0:0:0:0:
68,212,115347,1,0,0:0:0:0:
152,120,115522,5,8,0:0:0:0:
84,32,115699,2,0,P|63:47|51:71,1,52.5000020027161
200,60,116049,1,8,0:0:0:0:
256,168,116225,2,0,P|316:164|364:112,1,105.000004005432,2|8,0:0|0:0,0:0:0:0:
376,52,116751,1,0,0:0:0:0:
440,144,116927,5,0,0:0:0:0:
468,56,117102,1,8,0:0:0:0:
350,137,117278,1,0,0:0:0:0:
380,272,117453,2,0,L|364:208,1,52.5000020027161
350,137,117804,1,8,3:0:0:0:
236,88,117979,1,8,3:0:0:0:
320,16,118155,1,8,3:0:0:0:
164,56,118330,6,0,P|164:124|216:160,1,105.000004005432,8|0,0:0|0:0,0:0:0:0:
288,208,118857,1,8,0:0:0:0:
196,324,119032,2,0,P|136:340|124:340,1,52.5000020027161
76,184,119383,2,0,P|101:189|125:199,1,52.5000020027161,8|0,0:0|0:0,0:0:0:0:
32,264,119734,5,0,0:0:0:0:
72,344,119909,1,0,0:0:0:0:
126,199,120085,1,0,0:0:0:0:
192,264,120260,1,0,0:0:0:0:
172,64,120435,2,0,L|128:128,1,52.5000020027161,8|0,0:0|0:0,0:0:0:0:
256,100,120786,1,0,0:0:0:0:
244,16,120962,1,0,0:0:0:0:
332,124,121137,6,0,P|288:176|244:180,1,105.000004005432,8|0,0:0|0:0,0:0:0:0:
128,288,121664,2,0,P|168:340|228:332,1,105.000004005432,8|0,0:0|0:0,0:0:0:0:
152,216,122190,2,0,P|88:224|56:264,1,105.000004005432,8|0,0:0|0:0,0:0:0:0:
48,344,122716,1,8,0:0:0:0:
128,288,122892,1,0,0:0:0:0:
140,376,123067,1,0,0:0:0:0:
232,256,123243,2,0,P|236:188|188:132,1,105.000004005432,8|0,0:0|0:0,0:0:0:0:
144,88,123769,1,0,0:0:0:0:
144,88,123857,1,0,0:0:0:0:
144,88,123944,6,0,L|216:28,1,70,4|0,0:0|0:0,0:0:0:0:
280,20,124295,1,0,0:0:0:0:
344,76,124471,1,0,0:0:0:0:
452,244,124646,2,0,P|456:168|408:124,1,140,8|0,0:0|0:0,0:0:0:0:
336,164,125172,1,0,0:0:0:0:
364,244,125348,1,0,0:0:0:0:
212,184,125523,5,8,0:0:0:0:
124,264,125699,2,0,L|64:320,1,70
104,180,126050,1,8,0:0:0:0:
160,116,126225,1,0,0:0:0:0:
212,184,126400,1,0,0:0:0:0:
272,124,126576,1,0,0:0:0:0:
392,288,126751,5,8,0:0:0:0:
212,184,126927,1,8,0:0:0:0:
196,340,129032,5,8,0:0:0:0:
392,288,129207,1,8,0:0:0:0:
172,52,129558,6,0,P|72:92|64:160,1,167.999994873047,4|0,0:0|0:0,0:0:0:0:
104,232,130085,1,0,0:0:0:0:
304,128,130260,2,0,L|348:204,1,83.9999974365235,8|0,0:0|0:0,0:0:0:0:
392,288,130611,1,0,0:0:0:0:
444,200,130786,1,0,0:0:0:0:
488,292,130962,1,0,0:0:0:0:
396,112,131137,6,0,L|352:32,1,83.9999974365235,8|0,0:0|0:0,0:0:0:0:
240,48,131488,1,0,0:0:0:0:
184,204,131664,2,0,P|184:252|212:300,1,83.9999974365235,8|0,0:0|0:0,0:0:0:0:
296,300,132014,1,0,0:0:0:0:
272,176,132190,1,0,0:0:0:0:
272,176,132278,1,0,0:0:0:0:
272,176,132365,6,0,P|216:120|128:132,1,167.999994873047
92,220,132892,1,0,0:0:0:0:
16,52,133067,2,0,L|48:136,1,83.9999974365235,8|0,0:0|0:0,0:0:0:0:
92,220,133418,1,0,0:0:0:0:
92,320,133593,2,0,P|136:316|164:284,1,83.9999974365235
248,180,133944,5,8,0:0:0:0:
162,288,134120,1,0,0:0:0:0:
296,256,134295,1,0,0:0:0:0:
168,208,134471,1,8,0:0:0:0:
240,320,134646,1,0,0:0:0:0:
168,208,134821,1,0,0:0:0:0:
324,272,134997,1,0,0:0:0:0:
324,272,135085,1,0,0:0:0:0:
324,272,135172,6,0,P|308:196|332:104,1,167.999994873047,4|0,0:0|0:0,0:0:0:0:
436,108,135699,1,0,0:0:0:0:
480,288,135874,2,0,L|448:184,1,83.9999974365235,8|0,0:0|0:0,0:0:0:0:
436,108,136225,1,0,0:0:0:0:
356,36,136400,2,0,P|308:32|272:52,1,83.9999974365235
196,192,136751,5,8,0:0:0:0:
136,112,136927,1,0,0:0:0:0:
72,188,137102,1,0,0:0:0:0:
248,260,137278,2,0,P|280:168|232:112,1,167.999994873047,8|0,0:0|0:0,0:0:0:0:
72,188,137804,1,0,0:0:0:0:
72,188,137892,1,0,0:0:0:0:
72,188,137979,6,0,L|64:288,1,83.9999974365235
56,372,138330,1,0,0:0:0:0:
148,324,138506,1,0,0:0:0:0:
140,144,138681,2,0,P|92:108|56:112,1,83.9999974365235,4|0,0:0|0:0,0:0:0:0:
0,192,139032,1,0,0:0:0:0:
28,24,139207,5,8,0:0:0:0:
168,64,139383,2,0,L|256:108,1,83.9999974365235
336,140,139734,1,0,0:0:0:0:
396,60,139909,1,0,0:0:0:0:
396,60,139997,1,0,0:0:0:0:
396,60,140085,1,8,0:0:0:0:
452,144,140260,1,0,0:0:0:0:
404,288,140435,1,8,0:0:0:0:
256,264,140611,1,8,0:0:0:0:
104,136,140786,6,0,P|36:200|52:264,1,167.999994873047,4|0,0:0|0:0,0:0:0:0:
104,136,141313,1,0,0:0:0:0:
252,44,141488,2,0,L|148:112,1,83.9999974365235,8|0,0:0|0:0,0:0:0:0:
172,192,141839,1,0,0:0:0:0:
232,284,142014,2,0,P|192:304|152:300,1,83.9999974365235
284,192,142365,1,8,0:0:0:0:
392,212,142541,5,0,0:0:0:0:
336,304,142716,1,0,0:0:0:0:
172,192,142892,2,0,L|152:104,1,83.9999974365235,8|0,0:0|0:0,0:0:0:0:
140,8,143243,1,0,0:0:0:0:
268,48,143418,1,0,0:0:0:0:
268,48,143506,1,0,0:0:0:0:
268,48,143593,6,0,P|300:96|304:136,1,83.9999974365235
300,224,143944,1,0,0:0:0:0:
388,172,144120,1,0,0:0:0:0:
296,316,144295,2,0,P|196:332|120:308,1,167.999994873047,8|0,0:0|0:0,0:0:0:0:
92,220,144821,1,0,0:0:0:0:
28,300,144997,1,0,0:0:0:0:
56,104,145172,5,8,0:0:0:0:
156,124,145348,2,0,P|248:100|256:92,1,83.9999974365235
100,20,145699,1,8,0:0:0:0:
56,104,145874,1,0,0:0:0:0:
156,124,146050,1,0,0:0:0:0:
244,24,146225,1,0,0:0:0:0:
244,24,146313,1,0,0:0:0:0:
244,24,146400,6,0,P|312:72|304:164,1,167.999994873047,4|0,0:0|0:0,0:0:0:0:
248,232,146927,1,0,0:0:0:0:
80,300,147102,2,0,L|40:204,1,83.9999974365235,8|0,0:0|0:0,0:0:0:0:
28,124,147453,1,0,0:0:0:0:
184,97,147628,2,0,P|187:56|176:16,1,83.9999974365235
120,160,147979,5,8,0:0:0:0:
208,192,148155,1,0,0:0:0:0:
288,132,148330,1,0,0:0:0:0:
296,336,148506,2,0,P|396:340|432:284,1,167.999994873047,8|0,0:0|0:0,0:0:0:0:
424,176,149032,1,0,0:0:0:0:
424,176,149120,1,0,0:0:0:0:
424,176,149207,6,0,P|384:128|364:120,1,83.9999974365235,4|0,0:0|0:0,0:0:0:0:
272,156,149558,1,0,0:0:0:0:
292,56,149734,1,0,0:0:0:0:
256,264,149909,2,0,P|192:240|164:136,1,167.999994873047,8|4,0:0|0:0,0:0:0:0:
94,11,150435,2,0,P|56:26|32:60,1,83.9999974365235
32,232,150786,1,8,0:0:0:0:
152,324,150962,5,0,0:0:0:0:
189,342,151049,1,0,0:0:0:0:
230,338,151137,1,0,0:0:0:0:
263,313,151225,1,0,0:0:0:0:
276,272,151313,5,0,0:0:0:0:
252,104,151488,1,0,0:0:0:0:
276,272,151664,1,0,0:0:0:0:
176,168,151839,1,0,0:0:0:0:
344,56,152014,5,4,0:0:0:0:
256,192,152365,12,4,157628,0:0:0:0:
