osu file format v14

[General]
AudioFilename: audio.mp3
AudioLeadIn: 0
PreviewTime: 119442
Countdown: 0
SampleSet: Soft
StackLeniency: 0.5
Mode: 0
LetterboxInBreaks: 0
WidescreenStoryboard: 1

[Editor]
Bookmarks: 13608,25460,31386,37312,46201,49164,72868,78794,90645,93608,105460,117312,120275,143979,149905,167682,176571,206201,209164,218053,223979
DistanceSpacing: 1
BeatDivisor: 8
GridSize: 32
TimelineZoom: 1.1

[Metadata]
Title:Black Bird
TitleUnicode:Black Bird
Artist:Aimer
ArtistUnicode:Aimer
Creator:Shirahane Suou
Version:Normal
Source:累 -かさね-
Tags:kasane japanese rock movie theme song 累-かさね- エメ
BeatmapID:3510048
BeatmapSetID:1693439

[Difficulty]
HPDrainRate:3
CircleSize:3
OverallDifficulty:4
ApproachRate:5
SliderMultiplier:1
SliderTickRate:1

[Events]
//Background and Video events
0,0,"blackbird.jpg",0,0
//Break Periods
2,25660,30186
2,73068,76112
2,144179,147223
//Storyboard Layer 0 (Background)
//Storyboard Layer 1 (Fail)
//Storyboard Layer 2 (Pass)
//Storyboard Layer 3 (Foreground)
//Storyboard Layer 4 (Overlay)
//Storyboard Sound Samples

[TimingPoints]
1757,740.740740740741,4,2,1,60,1,0
1757,-50,4,2,1,60,0,0
25460,-50,4,2,1,40,0,0
31386,-50,4,2,1,50,0,0
46201,-50,4,2,1,60,0,0
49164,-50,4,2,1,70,0,1
72868,-50,4,2,1,70,0,0
73053,-50,4,2,1,40,0,0
77312,-50,4,2,1,60,0,0
90645,-50,4,2,1,40,0,0
91386,-50,4,2,1,50,0,0
92127,-50,4,2,1,60,0,0
92868,-50,4,2,1,70,0,0
93608,-50,4,2,2,50,0,0
117312,-50,4,2,1,50,0,0
118979,-50,4,2,1,60,0,0
120275,-50,4,2,1,70,0,1
143979,-50,4,2,1,70,0,0
144071,-50,4,2,1,40,0,0
148423,-50,4,2,1,60,0,0
176571,-50,4,2,1,70,0,1
206201,-50,4,2,1,60,0,0
218053,-50,4,2,1,40,0,0
218794,-50,4,2,1,40,0,0
219534,-50,4,2,1,45,0,0
220275,-50,4,2,1,45,0,0
221016,-50,4,2,1,50,0,0
221757,-50,4,2,1,50,0,0
222497,-50,4,2,1,55,0,0
222868,-50,4,2,1,60,0,0
223238,-50,4,2,1,65,0,0
223423,-50,4,2,1,75,0,0
223608,-50,4,2,1,85,0,0
223794,-50,4,2,1,95,0,0

[Colours]
Combo1 : 240,140,140
Combo2 : 200,180,220
Combo3 : 240,200,155
Combo4 : 150,185,220

[HitObjects]
443,201,12868,6,0,L|390:189,1,50,8|8,0:2|0:2,0:0:0:0:
363,229,13238,2,0,L|310:241,1,50,8|8,0:2|0:2,0:0:0:0:
273,211,13608,6,0,P|224:205|187:236,1,100,14|2,0:2|3:2,0:0:0:0:
162,281,14164,1,8,0:3:0:0:
162,281,14349,1,2,0:2:0:0:
65,253,14719,2,0,B|18:169|18:169|77:66,1,200,10|0,0:2|0:0,0:0:0:0:
134,2,15831,2,0,L|197:20,1,50,10|0,0:2|3:2,0:0:0:0:
210,56,16201,1,10,0:2:0:0:
298,9,16571,6,0,P|351:18|396:27,1,100,10|2,0:2|3:2,0:0:0:0:
432,70,17127,1,8,0:3:0:0:
432,70,17312,1,2,0:2:0:0:
361,141,17682,2,0,B|315:202|315:202|353:327,1,200,10|0,0:2|0:0,0:0:0:0:
435,373,18794,2,0,L|504:345,1,50,10|0,0:2|3:2,0:0:0:0:
510,313,19164,1,10,0:2:0:0:
447,235,19534,6,0,P|398:223|348:215,1,100,10|0,0:2|3:2,0:0:0:0:
311,249,20090,1,10,0:3:0:0:
168,202,20645,2,0,P|150:161|168:97,1,100,10|0,0:2|3:2,0:0:0:0:
182,63,21201,1,10,0:3:0:0:
304,150,21757,2,0,L|361:150,1,50,10|0,0:2|3:2,0:0:0:0:
403,150,22127,1,8,0:2:0:0:
474,80,22497,6,0,L|466:24,2,50,10|0|0,0:2|3:2|3:2,0:0:0:0:
498,123,23053,1,10,0:2:0:0:
448,264,23608,2,0,L|456:320,2,50,10|0|0,0:2|3:2|3:2,0:0:0:0:
424,221,24164,1,10,0:2:0:0:
291,290,24719,2,0,L|238:300,1,50,10|0,0:2|3:2,0:0:0:0:
198,327,25090,2,0,L|145:317,2,50,10|0|0,0:2|3:2|3:0,0:0:0:0:
48,108,31386,6,0,B|100:92|124:42|124:42|160:90|240:97,1,200,4|2,3:2|1:2,0:0:0:0:
390,17,32868,2,0,P|457:56|448:174,1,200,2|2,1:2|1:2,0:0:0:0:
398,251,33979,1,0,3:2:0:0:
494,276,34349,6,0,P|395:290|296:309,1,200,0|2,3:2|1:2,0:0:0:0:
104,364,35831,2,0,B|76:258|173:276|108:133,1,200,2|2,1:2|1:2,0:0:0:0:
15,2,37312,6,0,P|63:44|112:33,1,100,0|2,3:2|0:2,0:0:0:0:
191,11,38053,2,0,B|245:61|245:61|204:209,1,200,2|2,1:2|1:2,0:0:0:0:
115,212,39164,2,0,B|84:252|84:252|115:341,1,100,2|0,0:2|1:2,0:0:0:0:
164,375,39905,1,2,3:2:0:0:
235,305,40275,6,0,B|305:285|333:340|309:347|354:397|434:366,1,200,2|0,3:2|1:2,0:0:0:0:
488,314,41386,1,2,0:2:0:0:
442,224,41757,2,0,P|386:206|339:234,2,100,0|2|2,1:2|0:2|1:2,0:0:0:0:
490,136,42868,1,2,0:2:0:0:
399,94,43238,6,0,P|349:103|301:115,1,100,4|0,3:2|0:2,0:0:0:0:
212,69,43979,2,0,P|152:107|182:234,1,200,2|2,1:2|1:2,0:0:0:0:
169,322,45090,2,0,L|274:301,1,100,2|0,0:2|1:2,0:0:0:0:
312,213,45831,1,2,3:2:0:0:
385,281,46201,5,6,3:2:0:0:
474,236,46571,1,8,0:2:0:0:
498,138,46942,1,8,0:2:0:0:
415,81,47312,1,6,3:2:0:0:
296,170,47868,1,2,3:2:0:0:
296,170,48053,1,10,0:2:0:0:
207,123,48423,2,0,L|146:133,1,50,10|8,0:2|0:2,0:0:0:0:
107,127,48794,2,0,L|97:188,1,50,10|8,0:2|0:2,0:0:0:0:
90,225,49164,6,0,B|129:255|129:255|177:243,1,100,4|2,3:2|3:2,0:0:0:0:
228,230,49719,1,2,0:2:0:0:
228,230,49905,2,0,L|247:334,1,100,10|0,0:2|0:0,0:0:0:0:
266,374,50460,2,0,P|328:374|353:315,1,100,2|2,3:2|3:2,0:0:0:0:
365,300,51016,1,2,3:2:0:0:
461,327,51386,1,10,0:2:0:0:
509,239,51757,1,2,3:2:0:0:
458,153,52127,6,0,P|409:142|359:134,1,100,0|2,3:2|3:2,0:0:0:0:
324,108,52682,1,2,0:2:0:0:
324,108,52868,2,0,P|274:116|225:126,1,100,10|0,0:2|0:0,0:0:0:0:
178,143,53423,2,0,B|144:184|144:184|164:246,1,100,2|2,3:2|3:2,0:0:0:0:
192,265,53979,1,2,3:2:0:0:
142,351,54349,1,10,0:2:0:0:
43,331,54720,1,2,3:2:0:0:
0,239,55090,6,0,P|13:166|28:92,1,150,2|2,3:2|0:2,0:0:0:0:
56,50,55831,1,8,0:2:0:0:
138,106,56201,2,0,P|187:109|236:65,1,100,2|0,0:2|0:0,0:0:0:0:
251,39,56757,1,2,3:2:0:0:
251,39,56942,1,2,3:2:0:0:
332,96,57312,1,8,0:2:0:0:
413,37,57682,2,0,L|469:50,1,50,2|2,3:2|3:2,0:0:0:0:
499,89,58053,5,2,3:2:0:0:
499,89,58238,2,0,P|488:137|479:187,1,100,8|2,0:2|0:2,0:0:0:0:
468,236,58794,1,8,0:2:0:0:
371,210,59164,2,0,B|323:197|323:197|270:242,1,100,6|0,3:2|0:0,0:0:0:0:
239,239,59719,1,10,0:2:0:0:
239,239,59905,2,0,L|226:293,1,50,2|0,3:2|3:2,0:0:0:0:
220,337,60275,1,10,0:2:0:0:
316,363,60645,2,0,L|394:344,1,50,10|8,0:2|0:2,0:0:0:0:
411,334,61016,5,4,3:2:0:0:
385,237,61386,1,2,3:2:0:0:
452,162,61757,2,0,L|524:176,2,50,10|2|2,0:2|0:2|0:2,0:0:0:0:
437,119,62312,1,2,3:2:0:0:
437,119,62497,2,0,B|391:92|391:92|309:111,1,100,2|2,0:2|3:2,0:0:0:0:
308,135,63053,1,2,0:2:0:0:
308,135,63238,1,10,0:2:0:0:
216,93,63608,1,2,3:2:0:0:
162,175,63979,5,0,3:2:0:0:
233,244,64349,2,0,P|240:276|229:309,1,50,2|2,3:2|0:2,0:0:0:0:
234,342,64719,2,0,L|312:359,2,50,10|2|2,0:2|0:2|0:2,0:0:0:0:
189,358,65275,1,2,3:2:0:0:
189,358,65460,2,0,L|76:333,1,100,2|2,0:2|3:2,0:0:0:0:
11,276,66201,1,10,0:2:0:0:
93,220,66571,2,0,P|100:188|89:155,1,50,2|10,3:2|0:2,0:0:0:0:
49,153,66942,6,0,P|23:103|54:46,1,100,2|0,3:2|3:2,0:0:0:0:
116,5,67682,2,0,L|174:17,1,50,8|2,0:2|0:2,0:0:0:0:
203,47,68053,1,2,0:2:0:0:
203,47,68238,2,0,P|254:59|298:22,1,100,0|2,3:2|3:2,0:0:0:0:
331,4,68794,1,2,3:2:0:0:
411,63,69164,1,8,0:2:0:0:
361,149,69534,2,0,L|383:220,1,50,2|0,3:2|3:2,0:0:0:0:
424,210,69905,6,0,B|458:250|458:250|436:308,1,100,14|0,0:2|3:2,0:0:0:0:
428,342,70460,2,0,L|308:320,1,100,14|0,0:2|3:2,0:0:0:0:
285,346,71016,2,0,B|245:302|245:302|285:202,1,150,14|10,0:2|0:2,0:0:0:0:
301,173,71757,1,2,3:2:0:0:
257,83,72127,2,0,L|195:73,1,50,10|8,0:2|0:2,0:0:0:0:
169,42,72497,2,0,L|107:52,1,50,10|8,0:2|0:2,0:0:0:0:
82,83,72868,5,4,3:2:0:0:
32,184,77312,5,0,3:2:0:0:
32,184,77497,2,0,P|51:155|116:158,1,100,8|0,0:2|3:2,0:0:0:0:
141,196,78053,2,0,L|130:257,2,50,2|4|2,0:2|0:3|0:2,0:0:0:0:
206,118,78794,6,0,B|252:96|252:96|316:129,1,100,14|2,0:2|3:2,0:0:0:0:
344,145,79349,1,8,0:3:0:0:
344,145,79534,1,2,0:2:0:0:
429,93,79905,2,0,P|483:132|459:271,1,200,10|0,0:2|0:0,0:0:0:0:
397,315,81016,2,0,L|331:303,1,50,10|0,0:2|3:2,0:0:0:0:
302,284,81386,1,10,0:2:0:0:
219,342,81757,6,0,P|171:354|122:365,1,100,10|2,0:2|3:2,0:0:0:0:
76,371,82312,1,8,0:3:0:0:
76,371,82497,1,2,0:2:0:0:
18,288,82868,2,0,B|37:217|37:217|12:176|12:176|43:67,1,200,10|0,0:2|0:0,0:0:0:0:
108,33,83979,2,0,L|171:49,1,50,10|0,0:2|3:2,0:0:0:0:
195,76,84349,1,10,0:2:0:0:
152,166,84719,6,0,B|136:213|136:213|168:268,1,100,10|0,0:2|3:2,0:0:0:0:
195,292,85275,1,10,0:3:0:0:
332,232,85831,2,0,B|348:185|348:185|316:130,1,100,10|0,0:2|3:2,0:0:0:0:
289,106,86387,1,10,0:3:0:0:
406,13,86942,2,0,L|479:31,1,50,10|0,0:2|3:2,0:0:0:0:
499,46,87312,1,8,0:2:0:0:
448,131,87682,6,0,L|375:149,2,50,10|0|0,0:2|3:2|3:2,0:0:0:0:
492,153,88238,1,10,0:2:0:0:
455,298,88794,2,0,L|382:280,2,50,10|0|0,0:2|3:2|3:2,0:0:0:0:
499,276,89350,1,10,0:2:0:0:
382,181,89905,2,0,L|315:170,1,50,10|0,0:2|3:2,0:0:0:0:
294,205,90275,2,0,L|227:216,1,50,10|0,0:2|3:2,0:0:0:0:
200,236,90645,6,0,B|165:198|165:198|185:149,1,100,6|2,3:2|0:2,0:0:0:0:
125,71,91386,2,0,B|163:36|163:36|212:56,1,100,2|2,0:2|0:2,0:0:0:0:
298,96,92127,2,0,L|313:26,2,50,2|2|2,0:2|0:2|0:2,0:0:0:0:
352,179,92868,2,0,L|422:164,2,50,2|2|2,0:2|0:2|0:2,0:0:0:0:
277,245,93608,6,0,P|226:259|175:229,1,100,4|2,3:2|0:2,0:0:0:0:
148,147,94349,2,0,P|97:133|46:163,1,100,10|0,0:2|0:2,0:0:0:0:
1,235,95090,2,0,B|11:311|11:311|42:347|100:340,1,150,2|0,0:2|0:2,0:0:0:0:
125,343,95831,1,10,0:2:0:0:
297,242,96571,6,0,P|312:190|273:140,1,100,2|2,3:2|0:2,0:0:0:0:
191,142,97312,2,0,P|169:98|185:51,1,100,10|0,0:2|0:2,0:0:0:0:
273,7,98053,2,0,L|383:29,1,100,2|0,0:2|0:2,0:0:0:0:
441,98,98794,1,10,0:2:0:0:
359,156,99164,1,2,0:2:0:0:
425,230,99534,6,0,P|451:278|418:340,1,100,0|2,3:2|0:2,0:0:0:0:
353,369,100275,2,0,L|241:349,1,100,10|0,0:2|0:2,0:0:0:0:
167,302,101016,2,0,B|171:265|203:238|203:238|159:215|151:155,1,150,2|0,0:2|0:2,0:0:0:0:
167,132,101757,1,10,0:2:0:0:
334,23,102497,6,0,P|281:56|220:33,1,100,0|2,3:2|0:2,0:0:0:0:
155,8,103238,2,0,L|32:28,1,100,10|0,0:2|0:2,0:0:0:0:
9,112,103979,2,0,P|-3:164|50:213,1,100,2|0,0:2|0:2,0:0:0:0:
105,253,104719,1,10,0:2:0:0:
47,335,105090,1,2,0:2:0:0:
136,378,105460,6,0,L|247:351,1,100,4|2,3:2|0:2,0:0:0:0:
324,313,106201,2,0,P|366:241|326:163,1,150,10|0,0:2|0:2,0:0:0:0:
310,147,106942,2,0,L|250:163,1,50,2|0,0:2|0:2,0:0:0:0:
213,174,107312,1,2,0:2:0:0:
121,55,107868,2,0,L|61:39,2,50,2|2|0,0:2|0:2|0:2,0:0:0:0:
165,31,108423,6,0,L|318:63,1,150,2|2,3:2|0:2,0:0:0:0:
359,76,109164,1,8,0:2:0:0:
408,162,109534,2,0,B|368:224|368:224|399:323,1,150,2|2,0:2|0:2,0:0:0:0:
409,343,110275,1,2,0:2:0:0:
315,377,110645,2,0,L|229:359,1,50,10|0,0:2|0:2,0:0:0:0:
216,361,111016,1,2,0:2:0:0:
154,282,111386,6,0,P|142:234|167:192,1,100,0|2,3:2|0:2,0:0:0:0:
255,145,112127,2,0,L|422:168,1,150,10|0,0:2|0:0,0:0:0:0:
452,178,112868,1,2,0:2:0:0:
504,92,113238,1,2,0:2:0:0:
425,30,113608,2,0,P|374:19|321:74,1,100,10|2,0:2|0:2,0:0:0:0:
274,122,114349,6,0,B|234:123|205:151|205:151|185:111|134:90,1,150,2|2,3:2|0:2,0:0:0:0:
105,89,115090,1,8,0:2:0:0:
49,171,115460,2,0,L|71:323,1,150,2|2,0:2|0:2,0:0:0:0:
87,366,116201,1,2,0:2:0:0:
175,320,116571,1,10,0:2:0:0:
261,370,116942,1,2,0:2:0:0:
336,304,117312,6,0,B|356:258|356:258|327:198,1,100,2|2,0:2|0:2,0:0:0:0:
250,158,118053,2,0,B|228:113|228:113|248:67,2,100,2|2|2,0:2|0:2|0:2,0:0:0:0:
246,211,118979,1,0,3:2:0:0:
246,211,119164,1,10,0:2:0:0:
171,277,119534,2,0,L|101:293,1,50,10|10,0:2|0:2,0:0:0:0:
73,301,119905,2,0,L|57:230,1,50,10|6,0:3|0:3,0:0:0:0:
28,214,120275,6,0,L|49:104,1,100,4|2,3:2|3:2,0:0:0:0:
56,66,120831,1,2,0:2:0:0:
56,66,121016,2,0,B|97:42|97:42|162:70,1,100,10|0,0:2|0:0,0:0:0:0:
177,100,121571,2,0,L|294:80,1,100,2|2,3:2|3:2,0:0:0:0:
318,56,122127,1,2,3:2:0:0:
395,119,122497,1,10,0:2:0:0:
345,206,122868,1,2,3:2:0:0:
431,256,123238,6,0,B|464:293|464:293|450:347,1,100,0|2,3:2|3:2,0:0:0:0:
414,374,123794,1,2,0:2:0:0:
414,374,123979,2,0,L|296:356,1,100,10|0,0:2|0:0,0:0:0:0:
279,323,124534,2,0,L|161:341,1,100,2|2,3:2|3:2,0:0:0:0:
137,364,125090,1,2,3:2:0:0:
61,298,125460,1,10,0:2:0:0:
101,206,125831,1,2,3:2:0:0:
35,130,126201,6,0,B|-1:63|-1:63|65:-8,1,150,2|2,3:2|0:2,0:0:0:0:
99,8,126942,2,0,L|174:24,1,50,8|2,0:2|0:2,0:0:0:0:
187,57,127312,1,2,0:2:0:0:
187,57,127497,2,0,L|302:32,1,100,0|2,3:2|3:2,0:0:0:0:
327,10,128053,1,2,3:2:0:0:
397,80,128423,1,8,0:2:0:0:
339,162,128794,2,0,L|267:181,1,50,2|2,3:2|3:2,0:0:0:0:
252,206,129164,5,2,3:2:0:0:
252,206,129349,2,0,P|200:220|150:178,1,100,8|2,0:2|0:2,0:0:0:0:
136,155,129905,1,8,0:2:0:0:
55,214,130275,2,0,P|27:257|49:317,1,100,6|0,3:2|0:0,0:0:0:0:
69,347,130831,1,10,0:2:0:0:
69,347,131016,2,0,L|145:359,1,50,2|0,3:2|3:2,0:0:0:0:
167,365,131386,1,10,0:2:0:0:
232,289,131757,2,0,L|221:223,1,50,10|8,0:2|0:2,0:0:0:0:
182,211,132127,5,4,3:2:0:0:
238,128,132497,1,2,3:2:0:0:
155,70,132868,2,0,L|80:83,2,50,10|2|2,0:2|0:2|0:2,0:0:0:0:
192,36,133423,1,2,3:2:0:0:
192,36,133608,2,0,B|237:14|237:14|304:46,1,100,2|2,0:2|3:2,0:0:0:0:
330,63,134164,1,2,0:2:0:0:
330,63,134349,1,10,0:2:0:0:
416,11,134720,1,2,3:2:0:0:
497,69,135090,5,0,3:2:0:0:
441,152,135460,2,0,P|438:180|444:205,1,50,2|2,3:2|0:2,0:0:0:0:
462,247,135831,2,0,L|513:256,2,50,10|2|2,0:2|0:2|0:2,0:0:0:0:
431,286,136386,1,2,3:2:0:0:
431,286,136571,2,0,L|303:313,1,100,2|2,0:2|3:2,0:0:0:0:
246,256,137312,1,10,0:2:0:0:
300,172,137682,2,0,L|306:107,1,50,2|10,3:2|0:2,0:0:0:0:
287,75,138053,6,0,B|239:58|239:58|181:85,1,100,2|0,3:2|3:2,0:0:0:0:
99,46,138794,2,0,B|82:94|82:94|109:152,1,100,8|2,0:2|0:2,0:0:0:0:
135,175,139349,2,0,L|133:246,1,50,0|0,3:2|0:0,0:0:0:0:
102,264,139719,1,2,3:2:0:0:
102,264,139905,1,2,3:2:0:0:
139,356,140275,1,8,0:2:0:0:
224,304,140645,2,0,L|311:309,1,50,2|2,3:2|3:2,0:0:0:0:
307,344,141016,6,0,B|356:365|356:365|422:326,1,100,14|0,0:2|3:2,0:0:0:0:
422,298,141571,2,0,L|394:183,1,100,14|0,0:2|3:2,0:0:0:0:
377,154,142127,2,0,B|337:147|309:124|309:124|293:166|236:195,1,150,14|10,0:2|0:2,0:0:0:0:
212,192,142868,1,2,3:2:0:0:
125,141,143238,2,0,P|111:119|113:91,1,50,10|8,0:2|0:2,0:0:0:0:
117,46,143608,2,0,P|139:32|167:34,1,50,10|8,0:2|0:2,0:0:0:0:
207,54,143979,5,4,3:2:0:0:
229,44,148423,5,0,3:2:0:0:
229,44,148608,2,0,P|243:80|200:145,1,100,8|0,0:2|3:2,0:0:0:0:
196,177,149164,2,0,L|130:163,2,50,2|4|2,0:2|0:3|0:2,0:0:0:0:
281,229,149905,6,0,B|317:267|317:267|305:321,1,100,14|0,0:2|3:2,0:0:0:0:
291,361,150460,1,10,0:2:0:0:
157,298,151016,2,0,B|121:260|121:260|133:206,1,100,10|0,0:2|3:2,0:0:0:0:
147,166,151571,1,10,0:2:0:0:
270,80,152127,2,0,L|331:92,1,50,10|0,0:2|3:2,0:0:0:0:
363,112,152497,2,0,L|424:100,1,50,10|0,0:2|3:2,0:0:0:0:
459,81,152868,5,2,3:2:0:0:
459,81,153053,1,0,3:2:0:0:
499,172,153423,2,0,B|475:217|475:217|408:212,1,100,8|0,0:2|0:0,0:0:0:0:
376,209,153979,2,0,B|288:205|337:266|211:250,1,150,2|0,3:2|3:2,0:0:0:0:
193,229,154719,1,0,3:2:0:0:
98,276,155090,2,0,L|83:339,1,50,10|0,0:2|3:2,0:0:0:0:
116,364,155460,2,0,L|164:375,1,50,10|0,0:2|3:2,0:0:0:0:
211,357,155831,6,0,B|257:378|257:378|326:342,1,100,6|0,3:2|3:2,0:0:0:0:
339,323,156386,1,10,0:2:0:0:
305,176,156942,2,0,B|259:155|259:155|190:191,1,100,2|0,3:2|3:2,0:0:0:0:
177,210,157497,1,10,0:2:0:0:
47,134,158053,2,0,L|34:70,1,50,10|0,0:2|3:2,0:0:0:0:
54,38,158423,2,0,L|118:25,1,50,10|0,0:3|3:2,0:0:0:0:
155,18,158794,5,2,3:2:0:0:
155,18,158979,1,0,3:2:0:0:
208,102,159349,2,0,B|254:122|254:122|306:95,1,100,10|0,0:2|0:0,0:0:0:0:
344,79,159905,2,0,B|392:122|392:122|356:233,1,150,2|10,3:2|0:2,0:0:0:0:
350,250,160645,2,0,L|284:267,1,50,0|0,3:2|3:2,0:0:0:0:
254,279,161016,1,10,0:2:0:0:
177,215,161386,1,10,0:2:0:0:
243,140,161757,6,0,B|263:95|263:95|230:45,1,100,6|0,3:2|3:2,0:0:0:0:
202,14,162312,1,10,0:2:0:0:
86,109,162868,2,0,B|66:154|66:154|99:204,1,100,2|0,3:2|3:2,0:0:0:0:
123,236,163423,1,10,0:2:0:0:
272,219,163979,2,0,L|336:230,1,50,10|0,0:2|3:2,0:0:0:0:
354,264,164349,2,0,L|418:253,1,50,10|0,0:2|3:2,0:0:0:0:
444,225,164719,5,2,3:2:0:0:
444,225,164905,1,0,3:2:0:0:
388,142,165275,2,0,B|370:96|370:96|406:46,1,100,8|0,0:2|0:0,0:0:0:0:
439,24,165831,2,0,L|287:8,1,150,2|0,3:2|3:2,0:0:0:0:
240,2,166571,1,0,3:2:0:0:
163,66,166942,2,0,L|152:124,1,50,10|0,0:2|3:2,0:0:0:0:
189,149,167312,2,0,L|200:207,1,50,8|0,0:3|3:2,0:0:0:0:
175,242,167682,6,0,B|134:275|134:275|72:255,1,100,6|0,3:2|3:2,0:0:0:0:
22,185,168423,2,0,L|43:63,1,100,10|0,0:2|0:0,0:0:0:0:
46,36,168979,1,0,3:2:0:0:
46,36,169164,2,0,B|91:13|91:13|147:38,1,100,2|0,0:2|3:2,0:0:0:0:
210,100,169905,1,10,0:2:0:0:
281,30,170275,1,0,3:2:0:0:
361,98,170645,5,2,3:2:0:0:
361,98,170831,2,0,P|392:154|365:211,1,100,0|10,3:2|0:2,0:0:0:0:
354,226,171386,2,0,L|291:217,1,50,2|0,3:2|0:0,0:0:0:0:
256,203,171757,5,6,3:2:0:0:
256,192,172127,12,0,173608,0:0:0:0:
255,99,175831,6,0,L|267:164,1,50,8|8,0:2|0:2,0:0:0:0:
300,182,176201,2,0,L|288:247,1,50,8|8,0:2|0:2,0:0:0:0:
261,271,176571,6,0,P|217:302|149:272,1,100,4|2,3:2|3:2,0:0:0:0:
129,285,177127,1,2,0:2:0:0:
129,285,177312,2,0,L|112:172,1,100,10|0,0:2|0:0,0:0:0:0:
78,151,177868,2,0,B|64:101|64:101|101:53,1,100,2|2,3:2|3:2,0:0:0:0:
128,27,178423,1,2,3:2:0:0:
211,82,178794,1,10,0:2:0:0:
295,28,179164,1,2,3:2:0:0:
361,102,179534,6,0,B|389:144|389:144|353:222,1,100,0|2,3:2|3:2,0:0:0:0:
341,232,180090,1,2,0:2:0:0:
341,232,180275,2,0,L|237:218,1,100,10|0,0:2|0:0,0:0:0:0:
191,218,180831,2,0,B|163:260|163:260|199:338,1,100,2|2,3:2|3:2,0:0:0:0:
201,351,181386,1,2,3:2:0:0:
293,312,181757,1,10,0:2:0:0:
375,368,182127,1,2,3:2:0:0:
444,296,182497,6,0,P|462:226|410:157,1,150,2|2,3:2|0:2,0:0:0:0:
379,137,183238,1,8,0:2:0:0:
294,191,183608,2,0,L|195:205,1,100,2|0,0:2|0:0,0:0:0:0:
148,200,184164,1,2,3:2:0:0:
148,200,184349,1,2,3:2:0:0:
81,125,184719,1,8,0:2:0:0:
132,38,185090,2,0,P|158:24|190:22,1,50,2|2,3:2|3:2,0:0:0:0:
225,36,185460,5,2,3:2:0:0:
225,36,185645,2,0,P|272:51|320:67,1,100,8|2,0:2|0:2,0:0:0:0:
359,98,186201,1,8,0:2:0:0:
300,179,186571,2,0,P|280:248|313:306,1,100,6|0,3:2|0:0,0:0:0:0:
318,319,187127,1,10,0:2:0:0:
318,319,187312,2,0,L|391:338,1,50,2|0,3:2|3:2,0:0:0:0:
414,343,187682,1,10,0:2:0:0:
477,265,188053,2,0,L|462:195,1,50,10|8,0:2|0:2,0:0:0:0:
450,168,188423,6,0,B|404:150|404:150|351:178,1,100,12|2,0:2|3:2,0:0:0:0:
313,193,188979,1,8,0:2:0:0:
313,193,189164,2,0,L|221:162,1,50,2|2,3:2|3:2,0:0:0:0:
232,139,189534,1,14,0:2:0:0:
154,202,189905,2,0,L|83:224,1,50,2|10,3:2|0:2,0:0:0:0:
77,257,190275,2,0,L|6:235,1,50,2|2,3:2|3:2,0:0:0:0:
0,201,190645,2,0,L|23:88,1,100,14|10,0:2|0:3,0:0:0:0:
78,21,191386,6,0,L|131:8,1,50,12|2,0:2|3:2,0:0:0:0:
164,42,191757,2,0,L|217:55,1,50,2|10,3:2|0:2,0:0:0:0:
257,31,192127,1,2,3:2:0:0:
335,92,192497,2,0,P|362:147|336:194,1,100,14|2,0:2|3:2,0:0:0:0:
318,219,193053,1,8,0:2:0:0:
318,219,193238,2,0,L|252:204,1,50,2|0,3:2|3:2,0:0:0:0:
230,176,193608,1,14,0:2:0:0:
162,249,193979,2,0,L|148:320,1,50,10|10,0:2|0:2,0:0:0:0:
179,339,194349,6,0,P|230:366|310:302,1,150,6|2,3:2|0:2,0:0:0:0:
338,286,195090,2,0,L|395:300,1,50,8|2,0:2|0:2,0:0:0:0:
436,302,195460,2,0,B|459:259|459:259|423:169,1,100,2|0,0:2|0:0,0:0:0:0:
429,167,196016,1,2,3:2:0:0:
429,167,196201,1,2,3:2:0:0:
337,127,196571,1,8,0:2:0:0:
253,182,196942,2,0,L|181:200,1,50,2|0,3:2|3:2,0:0:0:0:
156,208,197312,6,0,B|130:253|130:253|161:303,1,100,14|0,0:2|3:2,0:0:0:0:
191,328,197868,2,0,L|296:302,1,100,14|0,0:2|3:2,0:0:0:0:
336,317,198423,2,0,P|390:248|350:173,1,150,14|10,0:2|0:2,0:0:0:0:
344,153,199164,1,2,3:2:0:0:
248,181,199534,1,10,0:2:0:0:
185,102,199905,2,0,L|197:38,1,50,10|8,0:2|0:2,0:0:0:0:
214,7,200275,6,0,L|335:18,1,100,4|10,3:2|0:2,0:0:0:0:
412,34,201016,2,0,P|438:75|433:124,1,100,10|10,0:2|0:2,0:0:0:0:
439,174,201571,2,0,B|408:212|408:212|327:196,1,100,10|2,0:2|0:2,0:0:0:0:
312,180,202127,1,10,0:2:0:0:
233,241,202497,1,8,0:2:0:0:
147,189,202868,2,0,L|132:131,1,50,10|10,0:2|0:2,0:0:0:0:
105,100,203238,6,0,B|138:61|138:61|206:71,1,100,6|10,3:2|0:2,0:0:0:0:
233,84,203794,2,0,B|281:91|281:91|314:52,1,100,10|10,0:2|0:2,0:0:0:0:
340,9,204349,2,0,L|408:23,1,50,10|8,0:2|0:2,0:0:0:0:
437,29,204719,1,8,0:2:0:0:
494,111,205090,2,0,L|472:226,1,100,10|10,0:2|0:2,0:0:0:0:
436,239,205645,1,10,0:2:0:0:
436,239,205831,2,0,L|452:302,1,50,10|8,0:2|0:2,0:0:0:0:
474,329,206201,5,14,0:2:0:0:
202,148,207868,5,2,3:2:0:0:
202,148,208053,2,0,L|261:131,1,50,8|0,0:2|3:2,0:0:0:0:
280,94,208423,2,0,B|328:76|328:76|376:105,1,100,10|10,0:2|0:3,0:0:0:0:
433,178,209164,6,0,L|417:288,1,100,14|2,0:2|3:2,0:0:0:0:
410,329,209719,1,8,0:3:0:0:
410,329,209905,1,2,0:2:0:0:
319,371,210275,2,0,B|218:347|218:347|195:288|245:251,1,200,10|0,0:2|0:0,0:0:0:0:
315,198,211386,1,10,0:2:0:0:
309,97,211757,1,10,0:2:0:0:
220,50,212127,6,0,P|171:45|125:96,1,100,10|0,0:2|3:2,0:0:0:0:
115,121,212682,1,10,0:3:0:0:
181,255,213238,2,0,P|142:284|93:279,1,100,10|0,0:2|3:2,0:0:0:0:
47,261,213793,1,10,0:3:0:0:
2,117,214349,2,0,L|19:54,1,50,10|0,0:2|3:2,0:0:0:0:
36,23,214719,1,8,0:2:0:0:
119,79,215090,6,0,L|105:127,2,50,10|0|0,0:2|3:2|3:2,0:0:0:0:
145,36,215645,1,10,0:2:0:0:
256,136,216201,2,0,L|269:184,2,50,10|0|0,0:2|3:2|3:2,0:0:0:0:
274,89,216756,1,10,0:2:0:0:
406,18,217312,2,0,P|427:48|429:90,1,50,10|0,0:2|3:2,0:0:0:0:
444,108,217682,2,0,P|428:141|393:163,1,50,10|0,0:2|3:2,0:0:0:0:
410,199,218053,5,6,3:2:0:0:
256,192,218423,12,2,223794,0:0:0:0:
