osu file format v14

[General]
AudioFilename: audio.mp3
AudioLeadIn: 0
PreviewTime: 119442
Countdown: 0
SampleSet: Soft
StackLeniency: 0.5
Mode: 0
LetterboxInBreaks: 0
WidescreenStoryboard: 1

[Editor]
Bookmarks: 13608,25460,31386,37312,46201,49164,72868,78794,90645,93608,105460,117312,120275,143979,149905,167682,176571,206201,209164,218053,223979
DistanceSpacing: 1.3
BeatDivisor: 8
GridSize: 32
TimelineZoom: 1.7

[Metadata]
Title:Black Bird
TitleUnicode:Black Bird
Artist:Aimer
ArtistUnicode:Aimer
Creator:Shirahane Suou
Version:Hard
Source:累 -かさね-
Tags:kasane japanese rock movie theme song 累-かさね- エメ
BeatmapID:3512770
BeatmapSetID:1693439

[Difficulty]
HPDrainRate:4
CircleSize:3.7
OverallDifficulty:6
ApproachRate:7.5
SliderMultiplier:1.4
SliderTickRate:1

[Events]
//Background and Video events
0,0,"blackbird.jpg",0,0
//Break Periods
//Storyboard Layer 0 (Background)
//Storyboard Layer 1 (Fail)
//Storyboard Layer 2 (Pass)
//Storyboard Layer 3 (Foreground)
//Storyboard Layer 4 (Overlay)
//Storyboard Sound Samples

[TimingPoints]
1757,740.740740740741,4,2,1,60,1,0
1757,-55.5555555555556,4,2,1,60,0,0
25460,-66.6666666666667,4,2,1,40,0,0
31386,-66.6666666666667,4,2,1,50,0,0
46201,-55.5555555555556,4,2,1,60,0,0
49164,-50,4,2,1,70,0,1
72868,-55.5555555555556,4,2,1,70,0,0
73053,-55.5555555555556,4,2,1,40,0,0
77312,-55.5555555555556,4,2,1,60,0,0
90645,-55.5555555555556,4,2,1,40,0,0
91386,-55.5555555555556,4,2,1,50,0,0
92127,-55.5555555555556,4,2,1,60,0,0
92868,-55.5555555555556,4,2,1,70,0,0
93608,-66.6666666666667,4,2,0,50,0,0
117312,-66.6666666666667,4,2,1,50,0,0
118979,-55.5555555555556,4,2,1,60,0,0
120275,-50,4,2,1,70,0,1
143979,-55.5555555555556,4,2,1,70,0,0
144071,-55.5555555555556,4,2,1,40,0,0
148423,-55.5555555555556,4,2,1,60,0,0
167682,-66.6666666666667,4,2,1,60,0,0
170645,-55.5555555555556,4,2,1,60,0,0
176571,-50,4,2,1,70,0,1
206201,-55.5555555555556,4,2,1,60,0,0
218053,-55.5555555555556,4,2,1,40,0,0
218794,-55.5555555555556,4,2,1,40,0,0
219534,-55.5555555555556,4,2,1,45,0,0
220275,-55.5555555555556,4,2,1,45,0,0
221016,-55.5555555555556,4,2,1,50,0,0
221757,-55.5555555555556,4,2,1,50,0,0
222497,-55.5555555555556,4,2,1,55,0,0
222868,-55.5555555555556,4,2,1,60,0,0
223238,-55.5555555555556,4,2,1,65,0,0
223423,-55.5555555555556,4,2,1,75,0,0
223608,-55.5555555555556,4,2,1,85,0,0
223794,-55.5555555555556,4,2,1,95,0,0

[Colours]
Combo1 : 240,140,140
Combo2 : 200,180,220
Combo3 : 240,200,155
Combo4 : 150,185,220

[HitObjects]
383,153,12868,6,0,P|404:184|404:216,1,62.9999980773926,8|8,0:2|0:2,0:0:0:0:
328,235,13238,2,0,P|307:204|307:172,1,62.9999980773926,8|8,0:2|0:2,0:0:0:0:
311,80,13608,6,0,P|274:95|195:40,1,125.999996154785,14|2,0:2|3:2,0:0:0:0:
133,12,14164,1,8,0:3:0:0:
133,12,14349,2,0,L|59:33,1,62.9999980773926,2|0,0:2|3:2,0:0:0:0:
17,96,14719,2,0,P|31:157|43:219,1,125.999996154785,10|0,0:2|3:2,0:0:0:0:
104,273,15275,2,0,P|154:285|209:223,1,125.999996154785,8|0,0:3|3:2,0:0:0:0:
261,178,15831,1,10,0:2:0:0:
261,178,16016,1,0,3:2:0:0:
192,132,16201,1,10,0:2:0:0:
317,26,16571,6,0,P|378:9|437:53,1,125.999996154785,10|2,0:2|3:2,0:0:0:0:
489,102,17127,1,8,0:3:0:0:
489,102,17312,2,0,P|480:132|475:163,1,62.9999980773926,2|0,0:2|3:2,0:0:0:0:
401,197,17682,2,0,P|418:257|427:319,1,125.999996154785,10|0,0:2|3:2,0:0:0:0:
359,365,18238,2,0,B|309:352|309:352|299:330|299:330|250:317,1,125.999996154785,8|0,0:3|3:2,0:0:0:0:
191,260,18794,1,10,0:2:0:0:
191,260,18979,1,0,3:2:0:0:
157,334,19164,1,10,0:2:0:0:
27,233,19534,6,0,B|8:163|8:163|46:120,1,125.999996154785,10|0,0:2|3:2,0:0:0:0:
103,66,20090,2,0,P|164:80|226:92,1,125.999996154785,10|0,0:3|0:0,0:0:0:0:
303,120,20645,2,0,P|245:130|250:194,1,125.999996154785,10|0,0:2|3:2,0:0:0:0:
293,253,21201,2,0,P|354:238|416:226,1,125.999996154785,10|0,0:3|0:0,0:0:0:0:
483,179,21757,1,10,0:2:0:0:
483,179,21942,1,0,3:2:0:0:
425,120,22127,1,8,0:2:0:0:
293,252,22497,6,0,P|286:283|282:315,2,62.9999980773926,10|0|0,0:2|3:2|3:2,0:0:0:0:
325,154,23053,1,10,0:2:0:0:
97,62,23608,6,0,P|90:31|86:0,2,62.9999980773926,10|0|0,0:2|3:2|3:2,0:0:0:0:
129,161,24164,1,10,0:2:0:0:
338,33,24719,5,10,0:2:0:0:
338,33,24905,1,0,3:2:0:0:
260,5,25090,1,10,0:2:0:0:
260,5,25275,1,0,3:2:0:0:
211,87,25460,5,0,3:2:0:0:
336,181,25831,2,0,P|362:229|335:285,2,105.000004005432,2|2|2,0:2|0:2|0:2,0:0:0:0:
207,226,26942,2,0,B|140:248|117:182|117:182|162:144,1,157.500006008148,2|0,0:2|0:2,0:0:0:0:
213,99,27682,2,0,P|230:59|190:0,1,105.000004005432,2|0,0:2|0:0,0:0:0:0:
63,70,28423,6,0,P|52:132|39:193,1,105.000004005432,0|2,0:2|0:2,0:0:0:0:
130,279,29164,2,0,P|181:268|233:260,1,105.000004005432,2|2,0:2|0:2,0:0:0:0:
285,133,29905,2,0,P|336:143|388:151,1,105.000004005432,2|2,0:2|0:2,0:0:0:0:
471,258,30645,2,0,P|480:283|490:308,1,52.5000020027161,2|0,0:2|0:0,0:0:0:0:
410,338,31016,2,0,P|401:313|391:288,1,52.5000020027161,2|0,0:2|0:0,0:0:0:0:
326,227,31386,5,4,3:2:0:0:
231,325,31757,1,2,0:2:0:0:
109,263,32127,2,0,B|83:218|83:218|112:162,1,105.000004005432,2|0,1:2|0:2,0:0:0:0:
197,68,32868,2,0,P|253:75|359:99,1,157.500006008148,2|0,1:2|0:2,0:0:0:0:
425,132,33608,1,2,1:2:0:0:
312,210,33979,1,0,3:2:0:0:
419,294,34349,5,0,3:2:0:0:
296,355,34719,1,2,0:2:0:0:
194,264,35090,2,0,P|121:262|90:294,1,105.000004005432,2|0,1:2|0:2,0:0:0:0:
26,165,35831,2,0,P|98:166|129:134,1,105.000004005432,2|2,1:2|0:2,0:0:0:0:
240,143,36571,2,0,P|234:117|230:91,2,52.5000020027161,2|0|2,1:2|0:2|0:2,0:0:0:0:
352,254,37312,5,0,3:2:0:0:
457,167,37682,2,0,P|457:126|448:109,1,52.5000020027161,2|0,0:2|0:2,0:0:0:0:
420,41,38053,2,0,P|368:52|317:61,1,105.000004005432,2|0,1:2|0:0,0:0:0:0:
187,16,38794,2,0,P|187:57|196:74,1,52.5000020027161,2|0,1:2|0:2,0:0:0:0:
232,141,39164,2,0,P|220:192|211:243,1,105.000004005432,2|0,0:2|1:2,0:0:0:0:
109,333,39905,2,0,P|101:297|96:282,1,52.5000020027161,2|0,3:2|0:2,0:0:0:0:
32,229,40275,6,0,B|31:190|1:157|1:157|45:140|63:98,1,157.500006008148,2|2,3:2|0:2,0:0:0:0:
74,24,41016,1,0,1:2:0:0:
193,89,41386,2,0,P|244:80|296:72,1,105.000004005432,2|0,0:2|1:2,0:0:0:0:
422,18,42127,2,0,L|436:76,1,52.5000020027161,2|0,0:2|0:2,0:0:0:0:
492,129,42497,2,0,L|478:187,2,52.5000020027161,2|0|2,1:2|0:2|0:2,0:0:0:0:
360,167,43238,6,0,P|333:201|359:273,1,105.000004005432,4|2,3:2|0:2,0:0:0:0:
412,376,43979,2,0,P|334:362|256:351,1,157.500006008148,2|0,1:2|0:0,0:0:0:0:
178,321,44719,2,0,P|147:293|168:226,1,105.000004005432,2|2,1:2|0:2,0:0:0:0:
233,122,45460,1,2,1:2:0:0:
321,225,45831,1,2,3:2:0:0:
452,156,46201,6,0,P|463:129|453:90,1,62.9999980773926,6|0,3:2|0:0,0:0:0:0:
473,9,46571,2,0,P|447:15|405:20,1,62.9999980773926,8|0,0:2|0:0,0:0:0:0:
339,72,46942,2,0,P|313:65|271:61,1,62.9999980773926,8|0,0:2|0:0,0:0:0:0:
188,0,47312,5,6,3:2:0:0:
101,232,47868,1,2,3:2:0:0:
101,232,48053,2,0,L|164:253,1,62.9999980773926,10|0,0:2|0:0,0:0:0:0:
244,236,48423,1,10,0:2:0:0:
244,236,48608,1,8,0:2:0:0:
243,329,48794,1,10,0:2:0:0:
243,329,48979,1,8,0:2:0:0:
323,373,49164,6,0,L|465:347,1,140,4|2,3:2|3:2,0:0:0:0:
511,272,49719,1,2,0:2:0:0:
438,216,49905,2,0,B|405:180|405:180|439:79,1,140,10|0,0:2|0:0,0:0:0:0:
477,15,50460,1,2,3:2:0:0:
477,15,50645,2,0,L|408:3,1,70,2|2,0:2|3:2,0:0:0:0:
343,67,51016,2,0,L|274:79,1,70,2|0,3:2|0:0,0:0:0:0:
195,33,51386,2,0,L|126:45,1,70,10|0,0:2|3:2,0:0:0:0:
72,119,51757,1,2,3:2:0:0:
173,269,52127,6,0,B|222:282|222:282|241:307|241:307|321:325,1,140,0|2,3:2|3:2,0:0:0:0:
356,250,52682,1,2,0:2:0:0:
441,282,52868,2,0,P|476:229|437:147,1,140,10|0,0:2|0:0,0:0:0:0:
384,111,53423,1,2,3:2:0:0:
384,111,53608,2,0,L|308:125,1,70,2|2,0:2|3:2,0:0:0:0:
224,133,53979,2,0,L|211:201,1,70,2|0,3:2|0:0,0:0:0:0:
278,262,54349,2,0,L|265:330,1,70,10|0,0:2|3:2,0:0:0:0:
184,372,54719,1,2,3:2:0:0:
48,250,55090,6,0,B|7:194|7:194|53:124,1,140,2|0,3:2|3:2,0:0:0:0:
96,59,55645,1,2,0:2:0:0:
175,103,55831,2,0,P|208:111|240:99,1,70,8|0,0:2|0:0,0:0:0:0:
302,32,56201,1,2,0:2:0:0:
383,72,56386,2,0,P|406:114|371:198,1,140,0|2,3:2|3:2,0:0:0:0:
345,281,56942,2,0,L|263:269,1,70,2|0,3:2|0:0,0:0:0:0:
200,220,57312,2,0,L|118:232,1,70,8|0,0:2|0:0,0:0:0:0:
61,288,57682,1,2,3:2:0:0:
61,288,57868,1,2,3:2:0:0:
9,180,58053,5,2,3:2:0:0:
64,107,58238,2,0,B|89:75|132:82|132:82|150:117|186:130,1,140,8|2,0:2|0:2,0:0:0:0:
265,108,58794,2,0,P|286:67|278:32,1,70,8|0,0:2|0:0,0:0:0:0:
405,0,59164,6,0,P|387:49|414:152,1,140,6|0,3:2|0:0,0:0:0:0:
464,199,59719,1,10,0:2:0:0:
398,262,59905,2,0,L|315:278,1,70,2|0,3:2|3:2,0:0:0:0:
249,231,60275,2,0,P|230:196|243:152,1,70,10|0,0:2|3:2,0:0:0:0:
275,86,60645,2,0,L|334:76,3,35,10|8|8|8,0:2|0:2|0:2|0:2,0:0:0:0:
345,51,61016,6,0,L|491:80,1,140,4|2,3:2|3:2,0:0:0:0:
398,262,61757,1,10,0:2:0:0:
398,262,61942,1,2,0:2:0:0:
335,195,62127,2,0,P|297:184|253:203,1,70,2|2,0:2|3:2,0:0:0:0:
197,248,62497,5,2,0:2:0:0:
197,248,62682,1,2,3:2:0:0:
134,189,62868,1,2,3:2:0:0:
134,189,63053,1,2,0:2:0:0:
56,236,63238,2,0,P|41:277|57:319,1,70,10|0,0:2|3:2,0:0:0:0:
113,362,63608,2,0,L|191:347,1,70,2|0,3:2|0:0,0:0:0:0:
270,372,63979,6,0,B|309:326|309:326|270:230,1,140,0|2,3:2|3:2,0:0:0:0:
220,189,64534,1,2,0:2:0:0:
220,189,64719,2,0,L|235:118,1,70,10|2,0:2|0:2,0:0:0:0:
296,53,65090,1,2,0:2:0:0:
296,53,65275,1,2,3:2:0:0:
367,109,65460,6,0,P|417:117|448:102,1,70,2|0,0:2|3:2,0:0:0:0:
503,51,65831,1,2,3:2:0:0:
504,232,66201,2,0,P|454:224|423:239,1,70,10|0,0:2|3:2,0:0:0:0:
375,296,66571,1,2,3:2:0:0:
375,296,66757,1,10,0:2:0:0:
287,224,66942,6,0,B|235:240|235:240|222:267|222:267|159:285,1,140,2|0,3:2|3:2,0:0:0:0:
79,300,67497,1,2,0:2:0:0:
33,221,67682,2,0,L|53:136,1,70,8|2,0:2|0:2,0:0:0:0:
67,63,68053,1,2,0:2:0:0:
149,100,68238,2,0,B|214:126|214:126|278:74,1,140,0|2,3:2|3:2,0:0:0:0:
365,41,68794,2,0,P|357:85|378:121,1,70,2|0,3:2|0:0,0:0:0:0:
443,155,69164,2,0,P|451:199|430:235,1,70,8|0,0:2|0:0,0:0:0:0:
393,299,69534,1,2,3:2:0:0:
393,299,69719,1,0,3:2:0:0:
297,228,69905,6,0,P|253:218|215:234,1,70,14|0,0:2|0:0,0:0:0:0:
156,278,70275,1,0,3:2:0:0:
94,189,70460,6,0,L|110:102,1,70,14|0,0:2|0:0,0:0:0:0:
126,30,70831,1,0,3:2:0:0:
207,98,71016,5,14,0:2:0:0:
280,44,71201,2,0,P|339:32|374:104,1,140,8|10,0:2|0:2,0:0:0:0:
332,172,71757,2,0,L|345:260,1,70,2|0,3:2|3:2,0:0:0:0:
414,304,72127,1,10,0:2:0:0:
414,304,72312,1,8,0:2:0:0:
475,237,72497,1,10,0:2:0:0:
475,237,72682,1,8,0:2:0:0:
422,161,72868,5,4,3:2:0:0:
256,192,73053,12,0,75831,0:0:0:0:
414,173,77312,5,0,3:2:0:0:
342,121,77497,2,0,B|311:97|274:106|274:106|267:143|237:171,1,125.999996154785,8|0,0:2|3:2,0:0:0:0:
187,205,78053,2,0,L|112:190,1,62.9999980773926,2|4,0:2|0:3,0:0:0:0:
67,135,78423,1,2,0:2:0:0:
67,135,78608,1,0,3:2:0:0:
20,202,78794,6,0,L|42:343,1,125.999996154785,14|2,0:2|3:2,0:0:0:0:
115,368,79349,1,8,0:3:0:0:
115,368,79534,2,0,P|149:372|177:359,1,62.9999980773926,2|0,0:2|3:2,0:0:0:0:
230,300,79905,2,0,P|288:285|335:323,1,125.999996154785,10|0,0:2|3:2,0:0:0:0:
408,360,80460,2,0,L|426:231,1,125.999996154785,8|0,0:3|3:2,0:0:0:0:
466,165,81016,1,10,0:2:0:0:
466,165,81201,1,0,3:2:0:0:
417,99,81386,1,10,0:2:0:0:
309,222,81757,6,0,P|270:238|205:183,1,125.999996154785,10|2,0:2|3:2,0:0:0:0:
150,142,82312,1,8,0:3:0:0:
150,142,82497,2,0,L|166:76,1,62.9999980773926,2|0,0:2|3:2,0:0:0:0:
220,20,82868,2,0,B|269:33|269:33|279:55|279:55|329:68,1,125.999996154785,10|0,0:2|3:2,0:0:0:0:
402,33,83423,2,0,P|443:57|435:139,1,125.999996154785,8|0,0:3|3:2,0:0:0:0:
398,197,83979,1,10,0:2:0:0:
398,197,84164,1,0,3:2:0:0:
465,242,84349,1,10,0:2:0:0:
344,353,84719,6,0,P|282:342|220:333,1,125.999996154785,10|0,0:2|3:2,0:0:0:0:
148,293,85275,2,0,P|208:299|244:250,1,125.999996154785,10|0,0:3|0:0,0:0:0:0:
309,192,85831,2,0,B|252:218|252:218|211:169,1,125.999996154785,10|0,0:2|3:2,0:0:0:0:
163,103,86386,2,0,P|102:96|66:145,1,125.999996154785,10|0,0:3|0:0,0:0:0:0:
14,208,86942,1,10,0:2:0:0:
14,208,87127,1,0,3:2:0:0:
69,268,87312,1,8,0:2:0:0:
211,169,87682,6,0,L|278:184,2,62.9999980773926,10|0|0,0:2|3:2|3:2,0:0:0:0:
141,101,88238,1,10,0:2:0:0:
304,284,88794,6,0,L|371:269,2,62.9999980773926,10|0|0,0:2|3:2|3:2,0:0:0:0:
234,352,89350,1,10,0:2:0:0:
8,267,89905,5,10,0:2:0:0:
8,267,90090,1,0,3:2:0:0:
64,207,90275,1,10,0:2:0:0:
64,207,90460,1,0,3:2:0:0:
133,250,90645,6,0,P|123:312|112:374,1,125.999996154785,6|2,3:2|0:2,0:0:0:0:
229,259,91386,2,0,P|219:321|208:383,1,125.999996154785,2|2,0:2|0:2,0:0:0:0:
328,272,92127,6,0,P|318:237|312:210,1,62.9999980773926,2|2,0:2|0:2,0:0:0:0:
259,149,92497,2,0,P|265:118|274:87,1,62.9999980773926,2|2,0:2|0:2,0:0:0:0:
335,32,92868,6,0,P|365:38|396:45,1,62.9999980773926,2|2,0:2|0:2,0:0:0:0:
469,8,93238,2,0,P|476:38|482:69,1,62.9999980773926,2|2,0:2|0:2,0:0:0:0:
501,149,93608,5,4,3:2:0:0:
389,269,93979,2,0,P|345:286|327:278,1,52.5000020027161,2|2,0:2|0:2,0:0:0:0:
281,231,94349,2,0,P|291:168|302:109,1,105.000004005432,10|0,0:2|0:2,0:0:0:0:
173,32,95090,2,0,B|209:18|209:18|198:86|186:138,1,157.500006008148,2|0,0:2|0:2,0:0:0:0:
150,208,95831,1,10,0:2:0:0:
422,373,96571,5,0,3:2:0:0:
311,292,96942,2,0,P|301:257|316:227,1,52.5000020027161,2|0,0:2|0:2,0:0:0:0:
306,159,97312,2,0,P|259:165|221:100,1,105.000004005432,10|0,0:2|0:2,0:0:0:0:
345,27,98053,2,0,B|396:42|396:42|406:121,1,105.000004005432,2|0,0:2|0:2,0:0:0:0:
495,215,98794,2,0,B|456:251|456:251|383:220,1,105.000004005432,10|2,0:2|0:2,0:0:0:0:
243,196,99534,5,0,3:2:0:0:
142,325,99905,2,0,L|76:342,1,52.5000020027161,2|0,0:2|0:2,0:0:0:0:
21,297,100275,2,0,L|50:150,1,105.000004005432,10|0,0:2|0:2,0:0:0:0:
132,69,101016,2,0,B|177:50|207:83|199:93|239:121|285:93,1,157.500006008148,2|0,0:2|0:2,0:0:0:0:
338,43,101757,1,10,0:2:0:0:
507,284,102497,5,0,3:2:0:0:
363,362,102868,2,0,L|301:348,1,52.5000020027161,2|0,0:2|0:2,0:0:0:0:
258,289,103238,2,0,P|295:245|276:190,1,105.000004005432,10|0,0:2|0:2,0:0:0:0:
165,112,103979,2,0,B|111:105|111:105|72:161,1,105.000004005432,2|0,0:2|0:2,0:0:0:0:
0,271,104719,2,0,P|62:285|119:301,1,105.000004005432,10|2,0:2|0:2,0:0:0:0:
284,360,105460,5,4,3:2:0:0:
392,236,105831,2,0,L|380:174,1,52.5000020027161,2|2,0:2|0:2,0:0:0:0:
356,106,106201,2,0,B|320:107|294:91|294:91|283:149|244:189,1,157.500006008148,10|0,0:2|0:2,0:0:0:0:
183,215,106942,2,0,P|177:189|170:164,1,52.5000020027161,2|0,0:2|0:2,0:0:0:0:
111,108,107312,1,2,0:2:0:0:
307,50,107868,2,0,P|312:24|319:-1,2,52.5000020027161,2|2|0,0:2|0:2|0:2,0:0:0:0:
369,115,108423,6,0,B|367:165|401:208|401:208|379:232|365:287,1,157.500006008148,2|2,3:2|0:2,0:0:0:0:
359,339,109164,1,8,0:2:0:0:
238,250,109534,2,0,P|187:243|147:275,1,105.000004005432,2|0,0:2|0:0,0:0:0:0:
76,318,110090,2,0,L|67:374,2,52.5000020027161,2|2|2,0:2|0:2|0:2,0:0:0:0:
23,253,110645,2,0,L|32:197,1,52.5000020027161,10|0,0:2|0:2,0:0:0:0:
90,142,111016,1,2,0:2:0:0:
238,250,111386,5,0,3:2:0:0:
302,112,111757,2,0,L|356:95,1,52.5000020027161,2|0,0:2|0:0,0:0:0:0:
433,80,112127,2,0,L|417:203,1,105.000004005432,10|0,0:2|0:0,0:0:0:0:
472,334,112868,1,2,0:2:0:0:
324,288,113238,1,2,0:2:0:0:
197,375,113608,2,0,P|160:340|182:274,1,105.000004005432,10|2,0:2|0:2,0:0:0:0:
268,176,114349,6,0,B|351:136|351:136|415:203,1,157.500006008148,2|2,3:2|0:2,0:0:0:0:
502,8,115460,2,0,P|459:65|366:16,1,157.500006008148,2|2,0:2|0:2,0:0:0:0:
311,6,116201,1,2,0:2:0:0:
181,91,116571,6,0,P|157:133|188:189,1,105.000004005432,10|2,0:2|0:2,0:0:0:0:
344,190,117312,2,0,P|319:148|255:147,1,105.000004005432,2|2,0:2|0:2,0:0:0:0:
176,281,118053,2,0,P|224:280|257:225,1,105.000004005432,2|2,0:2|0:2,0:0:0:0:
173,128,118794,1,2,0:2:0:0:
106,184,118979,1,0,3:2:0:0:
106,184,119164,2,0,L|90:280,1,62.9999980773926,10|0,0:2|0:0,0:0:0:0:
77,325,119534,6,0,P|103:340|134:340,1,62.9999980773926,10|10,0:2|0:2,0:0:0:0:
202,285,119905,2,0,P|233:284|259:300,1,62.9999980773926,10|6,0:3|0:3,0:0:0:0:
367,373,120275,6,0,L|396:205,1,140,4|2,3:2|3:2,0:0:0:0:
448,164,120831,1,2,0:2:0:0:
374,109,121016,2,0,B|291:98|291:98|248:163,1,140,10|0,0:2|0:0,0:0:0:0:
205,218,121571,1,2,3:2:0:0:
205,218,121757,2,0,L|227:307,1,70,2|2,0:2|3:2,0:0:0:0:
275,359,122127,2,0,L|342:375,1,70,2|0,3:2|0:0,0:0:0:0:
377,291,122497,2,0,L|444:274,1,70,10|0,0:2|3:2,0:0:0:0:
506,341,122868,1,2,3:2:0:0:
390,187,123238,6,0,P|324:143|259:177,1,140,0|2,3:2|3:2,0:0:0:0:
221,238,123794,1,2,0:2:0:0:
134,211,123979,2,0,B|119:159|119:159|130:131|130:131|111:60,1,140,10|0,0:2|0:0,0:0:0:0:
35,46,124534,1,2,3:2:0:0:
35,46,124719,2,0,L|17:133,1,70,2|2,0:2|3:2,0:0:0:0:
48,201,125090,2,0,L|30:288,1,70,2|0,3:2|0:0,0:0:0:0:
18,359,125460,2,0,P|60:361|93:332,1,70,10|0,0:2|3:2,0:0:0:0:
156,293,125831,1,2,3:2:0:0:
315,380,126201,6,0,B|358:326|358:326|321:243,1,140,2|0,3:2|3:2,0:0:0:0:
263,197,126757,1,2,0:2:0:0:
331,136,126942,2,0,P|342:103|336:69,1,70,8|2,0:2|0:2,0:0:0:0:
272,5,127312,1,2,0:2:0:0:
213,74,127497,2,0,B|157:119|157:119|80:86,1,140,0|2,3:2|3:2,0:0:0:0:
15,45,128053,2,0,L|-1:129,1,70,2|0,3:2|0:0,0:0:0:0:
54,187,128423,2,0,L|70:271,1,70,8|0,0:2|0:0,0:0:0:0:
28,340,128794,1,2,3:2:0:0:
28,340,128979,1,2,3:2:0:0:
142,375,129164,5,2,3:2:0:0:
197,303,129349,2,0,P|206:230|171:139,1,140,8|2,0:2|0:2,0:0:0:0:
122,103,129905,2,0,L|38:119,1,70,8|0,0:2|0:0,0:0:0:0:
144,8,130275,6,0,L|307:36,1,140,6|0,3:2|0:0,0:0:0:0:
337,104,130831,1,10,0:2:0:0:
406,45,131016,2,0,P|445:44|474:61,1,70,2|0,3:2|3:2,0:0:0:0:
505,142,131386,2,0,L|492:227,1,70,10|0,0:2|3:2,0:0:0:0:
478,301,131757,2,0,L|426:315,3,35,10|8|8|8,0:2|0:2|0:2|0:2,0:0:0:0:
409,340,132127,6,0,B|334:348|355:286|268:301,1,140,4|2,3:2|3:2,0:0:0:0:
134,199,132868,1,10,0:2:0:0:
134,199,133053,1,2,0:2:0:0:
62,255,133238,2,0,P|48:292|61:336,1,70,2|2,0:2|3:2,0:0:0:0:
133,373,133608,5,2,0:2:0:0:
133,373,133794,1,2,3:2:0:0:
193,305,133979,1,2,3:2:0:0:
193,305,134164,1,2,0:2:0:0:
273,346,134349,2,0,P|312:352|345:333,1,70,10|0,0:2|3:2,0:0:0:0:
405,278,134719,2,0,L|392:202,1,70,2|0,3:2|0:0,0:0:0:0:
414,120,135090,6,0,B|358:76|358:76|283:108,1,140,0|2,3:2|3:2,0:0:0:0:
220,155,135645,1,2,0:2:0:0:
166,80,135831,2,0,P|106:76|75:99,1,70,10|2,0:2|0:2,0:0:0:0:
27,133,136201,1,2,0:2:0:0:
27,133,136386,1,2,3:2:0:0:
54,219,136571,6,0,L|38:306,1,70,2|0,0:2|3:2,0:0:0:0:
26,378,136942,1,2,3:2:0:0:
167,263,137312,2,0,P|207:254|240:266,1,70,10|0,0:2|3:2,0:0:0:0:
283,344,137682,1,2,3:2:0:0:
283,344,137868,1,10,0:2:0:0:
366,270,138053,6,0,L|342:129,1,140,2|0,3:2|3:2,0:0:0:0:
281,64,138608,1,2,0:2:0:0:
350,4,138794,2,0,P|383:-4|416:6,1,70,8|0,0:2|0:0,0:0:0:0:
495,51,139164,1,2,0:2:0:0:
449,129,139349,2,0,B|422:175|422:175|463:270,1,140,0|2,3:2|3:2,0:0:0:0:
488,339,139905,2,0,L|402:359,1,70,2|0,3:2|0:0,0:0:0:0:
350,295,140275,2,0,L|264:275,1,70,8|0,0:2|0:0,0:0:0:0:
208,331,140645,1,2,3:2:0:0:
208,331,140831,1,2,3:2:0:0:
138,239,141016,6,0,P|130:194|148:163,1,70,14|0,0:2|0:0,0:0:0:0:
189,97,141386,1,0,3:2:0:0:
275,173,141571,6,0,P|320:181|351:163,1,70,14|0,0:2|0:0,0:0:0:0:
417,122,141941,1,0,3:2:0:0:
351,26,142127,5,14,0:2:0:0:
270,61,142312,2,0,L|115:29,1,140,8|10,0:2|0:2,0:0:0:0:
42,17,142868,2,0,P|23:57|37:96,1,70,2|0,3:2|3:2,0:0:0:0:
90,153,143238,1,10,0:2:0:0:
90,153,143423,1,8,0:2:0:0:
33,224,143608,1,10,0:2:0:0:
33,224,143794,1,8,0:2:0:0:
90,291,143979,5,4,3:2:0:0:
256,192,144164,12,0,146942,0:0:0:0:
114,94,148423,5,0,3:2:0:0:
197,136,148608,2,0,B|242:123|242:123|255:98|255:98|317:82,1,125.999996154785,8|0,0:2|3:2,0:0:0:0:
373,29,149164,2,0,L|453:49,1,62.9999980773926,2|4,0:2|0:3,0:0:0:0:
493,109,149534,1,2,0:2:0:0:
493,109,149719,1,0,3:2:0:0:
441,173,149905,6,0,L|452:242,1,62.9999980773926,14|0,0:2|3:2,0:0:0:0:
475,318,150275,1,0,3:2:0:0:
475,318,150460,1,10,0:2:0:0:
236,377,151016,6,0,L|225:308,1,62.9999980773926,10|0,0:2|3:2,0:0:0:0:
207,239,151386,1,0,3:2:0:0:
207,239,151571,1,10,0:2:0:0:
72,23,152127,6,0,L|59:90,1,62.9999980773926,10|0,0:2|3:2,0:0:0:0:
62,170,152497,1,10,0:2:0:0:
62,170,152682,1,0,3:2:0:0:
145,137,152868,5,2,3:2:0:0:
145,137,153053,2,0,P|176:130|211:133,1,62.9999980773926,0|0,3:2|3:2,0:0:0:0:
274,178,153423,2,0,L|255:307,1,125.999996154785,8|0,0:2|0:0,0:0:0:0:
203,366,153979,6,0,B|155:356|155:356|137:329|137:329|93:320,1,125.999996154785,2|0,3:2|0:0,0:0:0:0:
16,350,154534,1,0,3:2:0:0:
16,350,154719,1,0,3:2:0:0:
2,186,155090,2,0,L|15:119,1,62.9999980773926,10|0,0:2|3:2,0:0:0:0:
32,44,155460,1,10,0:2:0:0:
169,133,155831,6,0,L|244:114,1,62.9999980773926,6|0,3:2|3:2,0:0:0:0:
287,59,156201,1,0,3:2:0:0:
287,59,156386,2,0,B|336:69|336:69|349:90|349:90|411:105,1,125.999996154785,10|0,0:2|0:0,0:0:0:0:
472,138,156942,6,0,P|489:105|480:69,1,62.9999980773926,2|0,3:2|3:2,0:0:0:0:
452,5,157312,1,0,3:2:0:0:
452,5,157497,2,0,L|319:31,1,125.999996154785,10|0,0:2|0:0,0:0:0:0:
265,82,158053,6,0,L|199:71,1,62.9999980773926,10|0,0:2|3:2,0:0:0:0:
138,21,158423,1,10,0:3:0:0:
45,156,158794,5,2,3:2:0:0:
45,156,158979,2,0,L|59:221,1,62.9999980773926,0|0,3:2|0:0,0:0:0:0:
86,294,159349,2,0,B|115:292|146:309|146:309|158:272|195:254,1,125.999996154785,10|0,0:2|0:0,0:0:0:0:
234,194,159905,6,0,B|301:169|301:169|328:176|350:212,1,125.999996154785,2|0,3:2|0:0,0:0:0:0:
368,284,160460,1,10,0:2:0:0:
368,284,160645,1,0,3:2:0:0:
488,172,161016,2,0,L|500:101,1,62.9999980773926,10|0,0:2|3:2,0:0:0:0:
450,43,161386,2,0,P|412:37|379:50,1,62.9999980773926,10|8,0:2|0:2,0:0:0:0:
354,63,161664,1,8,0:2:0:0:
354,63,161757,6,0,L|285:48,1,62.9999980773926,6|0,3:2|3:2,0:0:0:0:
212,31,162127,1,0,3:2:0:0:
163,97,162312,2,0,B|137:147|137:147|177:216,1,125.999996154785,10|0,0:2|0:0,0:0:0:0:
251,229,162868,6,0,L|320:214,1,62.9999980773926,2|0,3:2|3:2,0:0:0:0:
393,197,163238,1,0,3:2:0:0:
442,263,163423,2,0,B|468:313|468:313|428:382,1,125.999996154785,10|0,0:2|0:0,0:0:0:0:
356,342,163979,6,0,L|267:362,1,62.9999980773926,10|0,0:2|3:2,0:0:0:0:
213,368,164349,1,10,0:2:0:0:
89,269,164719,5,2,3:2:0:0:
89,269,164905,2,0,P|74:236|80:198,1,62.9999980773926,0|0,3:2|0:0,0:0:0:0:
122,142,165275,2,0,L|250:166,1,125.999996154785,8|0,0:2|0:0,0:0:0:0:
326,183,165831,6,0,P|363:141|341:68,1,125.999996154785,2|0,3:2|0:0,0:0:0:0:
298,20,166386,1,0,3:2:0:0:
298,20,166571,1,0,3:2:0:0:
161,110,166942,2,0,L|96:125,1,62.9999980773926,10|0,0:2|3:2,0:0:0:0:
38,77,167312,1,8,0:3:0:0:
38,77,167497,1,0,3:2:0:0:
4,160,167682,6,0,L|30:271,1,105.000004005432,6|0,3:2|3:2,0:0:0:0:
125,384,168423,1,10,0:2:0:0:
221,255,168794,1,0,0:0:0:0:
221,255,168979,1,0,3:2:0:0:
284,315,169164,2,0,P|320:322|345:313,1,52.5000020027161,2|0,0:2|3:2,0:0:0:0:
399,254,169534,2,0,L|386:194,1,52.5000020027161,0|0,3:2|0:0,0:0:0:0:
365,118,169905,1,10,0:2:0:0:
247,21,170275,1,0,3:2:0:0:
130,117,170645,5,2,3:2:0:0:
178,183,170831,2,0,L|164:252,1,62.9999980773926,0|0,3:2|0:0,0:0:0:0:
105,300,171201,1,10,0:2:0:0:
171,348,171387,2,0,L|240:334,1,62.9999980773926,2|0,3:2|0:0,0:0:0:0:
315,255,171757,5,6,3:2:0:0:
256,192,171942,12,0,173608,0:0:0:0:
378,123,175831,6,0,P|347:104|315:107,1,62.9999980773926,8|8,0:2|0:2,0:0:0:0:
295,188,176201,2,0,P|326:207|358:204,1,62.9999980773926,8|8,0:2|0:2,0:0:0:0:
468,184,176571,6,0,B|432:225|432:225|457:311,1,140,4|2,3:2|3:2,0:0:0:0:
400,379,177127,1,2,0:2:0:0:
328,322,177312,2,0,B|253:314|274:376|187:361,1,140,10|0,0:2|0:0,0:0:0:0:
133,307,177868,1,2,3:2:0:0:
133,307,178053,2,0,L|152:234,1,70,2|2,0:2|3:2,0:0:0:0:
211,171,178423,2,0,L|192:98,1,70,2|0,3:2|0:0,0:0:0:0:
123,44,178794,2,0,P|86:34|43:60,1,70,10|0,0:2|3:2,0:0:0:0:
7,121,179164,1,2,3:2:0:0:
151,239,179534,6,0,L|297:268,1,140,0|2,3:2|3:2,0:0:0:0:
361,321,180090,1,2,0:2:0:0:
413,246,180275,2,0,B|422:195|422:195|404:159|404:159|415:111,1,140,10|0,0:2|0:0,0:0:0:0:
462,35,180831,1,2,3:2:0:0:
462,35,181016,2,0,L|369:14,1,70,2|2,0:2|3:2,0:0:0:0:
318,70,181386,2,0,L|225:91,1,70,2|0,3:2|0:0,0:0:0:0:
171,38,181757,2,0,P|131:35|92:65,1,70,10|0,0:2|3:2,0:0:0:0:
56,125,182127,1,2,3:2:0:0:
222,197,182497,6,0,B|257:240|257:240|231:339,1,140,2|0,3:2|3:2,0:0:0:0:
166,381,183053,1,2,0:2:0:0:
99,318,183238,2,0,L|111:246,1,70,8|0,0:2|0:0,0:0:0:0:
128,159,183608,1,2,0:2:0:0:
45,119,183794,2,0,P|112:120|147:63,1,140,0|2,3:2|3:2,0:0:0:0:
223,13,184349,2,0,L|301:35,1,70,2|0,3:2|0:0,0:0:0:0:
340,107,184719,2,0,L|418:85,1,70,8|0,0:2|0:0,0:0:0:0:
490,46,185090,1,2,3:2:0:0:
490,46,185275,1,2,3:2:0:0:
512,158,185460,5,2,3:2:0:0:
442,216,185645,2,0,P|403:227|310:173,1,140,8|2,0:2|0:2,0:0:0:0:
239,137,186201,2,0,P|199:131|165:152,1,70,8|0,0:2|0:0,0:0:0:0:
87,223,186571,6,0,P|155:235|224:250,1,140,6|0,3:2|0:0,0:0:0:0:
299,302,187127,1,10,0:2:0:0:
242,373,187312,2,0,L|162:386,1,70,2|0,3:2|3:2,0:0:0:0:
98,332,187682,2,0,L|58:338,3,35,10|8|0|0,0:2|0:2|3:2|3:2,0:0:0:0:
17,340,188053,2,0,L|10:300,3,35,10|8|8|8,0:2|0:2|0:2|0:2,0:0:0:0:
26,262,188423,6,0,L|13:183,1,70,12|0,0:2|3:2,0:0:0:0:
10,101,188794,1,2,3:2:0:0:
98,123,188979,2,0,P|141:125|177:102,1,70,8|2,0:2|3:2,0:0:0:0:
224,45,189349,1,2,3:2:0:0:
306,130,189534,6,0,L|319:209,1,70,14|2,0:2|3:2,0:0:0:0:
322,291,189905,1,2,3:2:0:0:
234,269,190090,2,0,P|191:267|155:290,1,70,10|2,0:2|3:2,0:0:0:0:
107,346,190460,1,2,3:2:0:0:
50,274,190645,6,0,B|25:281|25:281|11:305,2,46.6666666666667,14|8|8,0:2|0:2|0:2,0:0:0:0:
62,213,191016,6,0,B|43:194|43:194|15:194,2,46.6666666666667,10|8|8,0:3|0:3|0:3,0:0:0:0:
113,181,191386,6,0,L|187:197,1,70,12|2,0:2|3:2,0:0:0:0:
249,257,191757,1,2,3:2:0:0:
315,195,191942,2,0,P|322:152|302:116,1,70,10|2,0:2|3:2,0:0:0:0:
240,73,192312,1,2,3:2:0:0:
336,8,192497,6,0,L|423:25,1,70,14|2,0:2|3:2,0:0:0:0:
485,63,192868,1,2,3:2:0:0:
438,141,193053,2,0,P|426:180|449:221,1,70,8|2,0:2|3:2,0:0:0:0:
495,274,193423,1,0,3:2:0:0:
435,342,193608,2,0,L|363:328,1,70,14|8,0:2|0:2,0:0:0:0:
330,309,193886,1,8,0:2:0:0:
330,309,193979,2,0,L|277:321,3,35,10|8|10|8,0:2|0:2|0:2|0:2,0:0:0:0:
258,343,194349,6,0,P|214:361|128:289,1,140,6|0,3:2|3:2,0:0:0:0:
68,259,194905,1,2,0:2:0:0:
140,204,195090,2,0,P|156:166|144:130,1,70,8|2,0:2|0:2,0:0:0:0:
88,72,195460,1,2,0:2:0:0:
159,16,195645,2,0,B|212:26|212:26|227:52|227:52|300:64,1,140,0|2,3:2|3:2,0:0:0:0:
366,27,196201,2,0,P|392:56|394:100,1,70,2|0,3:2|0:0,0:0:0:0:
463,147,196571,2,0,P|450:184|413:207,1,70,8|0,0:2|0:0,0:0:0:0:
394,288,196942,1,2,3:2:0:0:
394,288,197127,1,0,3:2:0:0:
305,212,197312,6,0,P|268:210|235:232,1,70,14|0,0:2|0:0,0:0:0:0:
188,300,197682,1,0,3:2:0:0:
276,381,197868,6,0,L|351:363,1,70,14|0,0:2|0:0,0:0:0:0:
394,288,198238,1,0,3:2:0:0:
493,361,198423,6,0,P|477:257|467:152,1,210,14|10,0:2|0:2,0:0:0:0:
507,70,199164,2,0,B|516:37|516:37|494:1,1,70,2|0,3:2|3:2,0:0:0:0:
420,55,199534,1,10,0:2:0:0:
420,55,199719,1,8,0:2:0:0:
338,14,199905,1,10,0:2:0:0:
338,14,200090,1,8,0:2:0:0:
276,80,200275,6,0,P|259:127|278:164,1,70,4|0,3:2|0:0,0:0:0:0:
332,204,200645,2,0,P|349:251|330:288,1,70,10|8,0:2|0:2,0:0:0:0:
286,339,201016,2,0,L|135:372,1,140,10|10,0:2|0:2,0:0:0:0:
61,344,201571,1,10,0:2:0:0:
127,281,201757,2,0,P|136:243|152:191,1,70,8|2,0:2|0:2,0:0:0:0:
152,122,202127,2,0,P|118:131|84:139,1,70,8|8,0:2|0:2,0:0:0:0:
49,167,202405,1,8,0:0:0:0:
49,167,202497,2,0,P|9:113|34:52,1,140,8|10,0:2|0:2,0:0:0:0:
122,15,203053,1,10,0:2:0:0:
122,15,203145,1,8,0:2:0:0:
122,15,203238,6,0,B|186:41|186:41|254:-6,1,140,6|10,3:2|0:2,0:0:0:0:
335,2,203794,1,10,0:2:0:0:
391,73,203979,2,0,L|372:163,1,70,8|10,0:2|0:2,0:0:0:0:
311,204,204349,2,0,L|345:350,1,140,10|8,0:2|0:2,0:0:0:0:
437,374,204905,1,8,0:2:0:0:
437,374,204997,1,8,0:2:0:0:
437,374,205090,2,0,L|448:323,3,35,10|8|8|8,0:2|0:2|0:2|0:2,0:0:0:0:
453,295,205460,5,10,0:2:0:0:
401,220,205645,1,10,0:2:0:0:
463,153,205831,2,0,P|471:113|447:68,1,70,10|8,0:2|0:2,0:0:0:0:
436,55,206108,1,8,0:2:0:0:
436,55,206201,5,14,0:2:0:0:
436,55,207868,5,2,3:2:0:0:
378,113,208053,2,0,L|299:96,1,62.9999980773926,8|0,0:2|3:2,0:0:0:0:
244,60,208423,6,0,L|236:15,2,41.9999987182618,10|8|8,0:2|0:2|0:2,0:0:0:0:
193,81,208794,6,0,L|185:36,2,41.9999987182618,10|8|8,0:3|0:3|0:3,0:0:0:0:
160,125,209164,6,0,B|151:155|128:181|128:181|154:201|171:246,1,125.999996154785,14|2,0:2|3:2,0:0:0:0:
245,259,209719,1,8,0:3:0:0:
245,259,209905,2,0,L|313:243,1,62.9999980773926,2|0,0:2|3:2,0:0:0:0:
352,176,210275,2,0,L|493:209,1,125.999996154785,10|0,0:2|3:2,0:0:0:0:
499,283,210831,2,0,P|473:331|394:314,1,125.999996154785,8|0,0:3|3:2,0:0:0:0:
342,376,211386,1,10,0:2:0:0:
342,376,211571,1,0,3:2:0:0:
283,318,211757,1,10,0:2:0:0:
386,191,212127,6,0,B|410:123|410:123|372:75,1,125.999996154785,10|0,0:2|3:2,0:0:0:0:
316,24,212682,2,0,B|268:42|268:42|255:66|255:66|199:84,1,125.999996154785,10|0,0:3|0:0,0:0:0:0:
129,64,213238,2,0,B|105:132|105:132|143:180,1,125.999996154785,10|0,0:2|3:2,0:0:0:0:
170,249,213793,2,0,B|218:267|218:267|231:291|231:291|287:309,1,125.999996154785,10|0,0:3|0:0,0:0:0:0:
351,269,214349,1,10,0:2:0:0:
351,269,214534,1,0,3:2:0:0:
311,197,214719,1,8,0:2:0:0:
443,99,215090,6,0,L|508:118,2,62.9999980773926,10|0|0,0:2|3:2|3:2,0:0:0:0:
373,34,215645,1,10,0:2:0:0:
179,186,216201,6,0,L|114:205,2,62.9999980773926,10|0|0,0:2|3:2|3:2,0:0:0:0:
244,119,216756,1,10,0:2:0:0:
442,273,217312,5,10,0:2:0:0:
442,273,217497,1,0,3:2:0:0:
390,337,217682,1,10,0:2:0:0:
390,337,217868,1,0,3:2:0:0:
324,288,218053,6,0,L|348:148,1,125.999996154785,6|0,3:2|0:0,0:0:0:0:
207,252,218794,2,0,L|231:112,1,125.999996154785,2|0,0:2|0:0,0:0:0:0:
121,3,219534,2,0,L|52:19,2,62.9999980773926,2|2|2,0:2|0:2|0:2,0:0:0:0:
61,155,220275,2,0,L|-8:171,2,62.9999980773926,2|2|2,0:2|0:2|0:2,0:0:0:0:
144,296,221016,6,0,P|174:302|205:310,1,62.9999980773926,2|2,0:2|0:2,0:0:0:0:
279,276,221386,2,0,P|309:282|340:290,1,62.9999980773926,2|2,0:2|0:2,0:0:0:0:
408,335,221757,2,0,P|425:301|421:263,1,62.9999980773926,2|2,0:2|0:2,0:0:0:0:
496,237,222127,2,0,P|475:205|440:189,1,62.9999980773926,2|2,0:2|0:2,0:0:0:0:
385,123,222497,6,0,P|349:123|311:146,1,62.9999980773926,2|2,0:2|0:2,0:0:0:0:
257,198,222868,2,0,P|221:198|183:175,1,62.9999980773926,2|2,0:2|0:2,0:0:0:0:
130,135,223238,1,2,0:2:0:0:
130,135,223423,1,2,0:2:0:0:
65,197,223608,1,2,0:2:0:0:
122,280,223794,1,2,0:2:0:0:
