osu file format v14

[General]
AudioFilename: audio.mp3
AudioLeadIn: 0
PreviewTime: 47867
Countdown: 0
SampleSet: Soft
StackLeniency: 0.7
Mode: 0
LetterboxInBreaks: 0
WidescreenStoryboard: 1

[Editor]
DistanceSpacing: 0.5
BeatDivisor: 4
GridSize: 4
TimelineZoom: 1.7

[Metadata]
Title:Black Bird
TitleUnicode:Black Bird
Artist:Aimer
ArtistUnicode:Aimer
Creator:SeaRasp
Version:Will's Insane
Source:Kasane
Tags:エメ 黒鳥 William K Live Action Movie Theme Song 累-かさね-
BeatmapID:1776020
BeatmapSetID:849225

[Difficulty]
HPDrainRate:5.5
CircleSize:3.8
OverallDifficulty:8.2
ApproachRate:8.7
SliderMultiplier:2.79999990463257
SliderTickRate:1

[Events]
//Background and Video events
0,0,"BG.jpg",0,0
//Break Periods
//Storyboard Layer 0 (Background)
//Storyboard Layer 1 (Fail)
//Storyboard Layer 2 (Pass)
//Storyboard Layer 3 (Foreground)
//Storyboard Sound Samples

[TimingPoints]
12682,740.740740740741,4,2,1,70,1,0
12682,-100,4,2,1,70,0,0
13608,740.740740740741,4,2,1,70,1,0
13608,-83.3333333333333,4,2,1,70,0,0
14996,-83.3333333333333,4,2,1,5,0,0
15089,-83.3333333333333,4,2,1,70,0,0
15830,-83.3333333333333,4,2,1,80,0,0
16570,-83.3333333333333,4,2,1,70,0,0
18793,-83.3333333333333,4,2,1,80,0,0
19533,-83.3333333333333,4,2,1,60,0,0
19811,-83.3333333333333,4,2,1,5,0,0
19904,-83.3333333333333,4,2,1,60,0,0
25459,-125,4,2,1,40,0,0
31385,-111.111111111111,4,2,1,45,0,0
37219,-111.111111111111,4,2,1,5,0,0
37311,-111.111111111111,4,2,1,45,0,0
46200,-83.3333333333333,4,2,1,35,0,0
46570,-76.9230769230769,4,2,1,45,0,0
46941,-71.4285714285714,4,2,1,55,0,0
47311,-100,4,2,1,65,0,0
48052,-83.3333333333333,4,2,1,60,0,0
49163,-83.3333333333333,4,2,1,80,0,1
72867,-83.3333333333333,4,2,1,70,0,0
75830,-83.3333333333333,4,2,1,70,0,1
78793,-100,4,2,1,60,0,0
80645,-76.9230769230769,4,2,1,60,0,0
81663,-76.9230769230769,4,2,1,5,0,0
81756,-83.3333333333333,4,2,1,70,0,0
83145,-83.3333333333333,4,2,1,5,0,0
83237,-83.3333333333333,4,2,1,70,0,0
83978,-83.3333333333333,4,2,1,70,0,0
84719,-83.3333333333333,4,2,1,70,0,0
84996,-83.3333333333333,4,2,1,5,0,0
85089,-83.3333333333333,4,2,1,70,0,0
96570,-83.3333333333333,4,2,1,5,0,0

[Colours]
Combo1 : 138,138,255
Combo2 : 102,0,0
Combo3 : 65,65,65
Combo4 : 149,43,255

[HitObjects]
300,143,12867,5,8,0:0:0:0:
453,227,13052,1,8,0:0:0:0:
282,233,13237,5,8,0:0:0:0:
470,137,13422,1,8,0:0:0:0:
221,173,13608,6,0,B|125:174|185:246|72:235,1,167.999989151001,14|0,0:0|0:0,0:0:0:0:
92,154,14163,1,2,3:0:0:0:
222,252,14348,2,0,P|210:300|200:363,1,83.9999945755007,0|0,0:0|0:0,0:0:0:0:
409,228,14719,2,0,P|373:304|279:303,1,167.999989151001,10|0,0:0|0:0,0:0:0:0:
279,172,15274,2,0,P|362:165|408:247,1,167.999989151001,0|0,0:0|0:0,0:0:0:0:
329,71,15830,5,10,0:0:0:0:
328,237,16015,1,0,0:0:0:0:
403,30,16200,5,10,0:0:0:0:
481,121,16385,1,0,0:0:0:0:
260,28,16570,6,0,B|162:10|205:102|60:54,1,167.999989151001,14|0,0:0|0:0,0:0:0:0:
35,15,17126,1,2,3:0:0:0:
20,149,17311,2,0,P|3:189|35:272,1,83.9999945755007,0|0,0:0|0:0,0:0:0:0:
240,205,17682,2,0,P|144:145|74:203,1,167.999989151001,10|0,3:0|0:0,0:0:0:0:
134,302,18237,2,0,P|233:248|218:159,1,167.999989151001,0|0,0:0|0:0,0:0:0:0:
258,19,18793,6,0,P|254:74|292:125,1,83.9999945755007,10|0,0:0|0:0,0:0:0:0:
404,280,19163,2,0,P|359:249|292:256,1,83.9999945755007,10|0,0:0|0:0,0:0:0:0:
339,52,19533,6,0,L|441:32,1,83.9999945755007,14|0,0:0|0:0,0:0:0:0:
343,137,19904,1,0,3:0:0:0:
182,83,20089,2,0,L|264:99,1,83.9999945755007,2|0,3:0|0:0,0:0:0:0:
262,13,20459,1,0,0:0:0:0:
154,172,20645,2,0,P|156:96|103:-17,1,167.999989151001,10|0,0:0|3:0,0:0:0:0:
0,118,21200,2,0,P|64:157|189:168,1,167.999989151001,2|0,3:0|0:0,0:0:0:0:
327,281,21756,5,10,0:0:0:0:
177,328,21941,1,0,0:0:0:0:
382,209,22126,2,0,P|449:227|510:260,1,83.9999945755007,8|0,0:0|0:0,0:0:0:0:
242,268,22496,5,14,3:0:0:0:
393,336,22682,1,0,0:0:0:0:
327,281,22867,1,0,3:0:0:0:
101,353,23052,1,10,0:0:0:0:
101,353,23422,1,0,3:0:0:0:
327,281,23608,5,10,3:0:0:0:
242,268,23793,1,0,0:0:0:0:
393,336,23978,1,2,0:0:0:0:
101,353,24163,1,10,3:0:0:0:
101,353,24533,1,0,0:0:0:0:
327,281,24719,5,8,0:0:0:0:
242,268,24904,1,0,0:0:0:0:
296,198,25089,1,2,0:0:0:0:
381,185,25274,1,0,0:0:0:0:
328,121,25459,5,0,0:0:0:0:
328,121,25830,2,0,L|200:101,2,111.999996185303,2|0|0,0:0|0:0|0:0,0:0:0:0:
431,255,26941,2,0,L|303:275,1,111.999996185303,2|0,0:0|0:0,0:0:0:0:
245,240,27496,1,2,0:0:0:0:
261,160,27682,2,0,L|389:180,1,111.999996185303,0|0,0:0|0:0,0:0:0:0:
253,320,28422,5,2,0:0:0:0:
253,320,28793,2,0,P|191:331|135:284,2,111.999996185303,2|0|2,0:0|0:0|0:0,0:0:0:0:
261,160,29904,2,0,P|211:135|158:147,2,111.999996185303,2|0|0,0:0|0:0|0:0,0:0:0:0:
203,218,30830,1,2,0:0:0:0:
282,239,31015,1,0,3:0:0:0:
282,239,31385,6,0,L|421:218,1,125.999991863251,2|2,0:0|0:0,0:0:0:0:
233,77,32126,2,0,L|372:98,1,125.999991863251,0|0,0:0|0:0,0:0:0:0:
157,257,32867,2,0,L|296:236,1,125.999991863251,2|0,0:0|0:0,0:0:0:0:
242,162,33422,1,2,0:0:0:0:
233,77,33608,2,0,L|372:98,1,125.999991863251,0|0,0:0|3:0,0:0:0:0:
157,257,34348,6,0,P|132:321|160:391,1,125.999991863251,0|2,3:0|0:0,0:0:0:0:
242,162,35089,2,0,P|266:218|252:279,1,125.999991863251,0|0,0:0|0:0,0:0:0:0:
106,65,35830,2,0,P|81:129|109:199,1,125.999991863251,0|0,0:0|0:0,0:0:0:0:
166,135,36385,1,2,0:0:0:0:
242,162,36570,2,0,P|267:176|309:177,1,62.9999959316255,0|0,0:0|0:0,0:0:0:0:
399,75,36941,1,2,0:0:0:0:
399,75,37311,6,0,L|376:245,1,125.999991863251,0|2,3:0|0:0,0:0:0:0:
463,229,37867,1,0,0:0:0:0:
502,156,38052,2,0,L|479:-14,1,125.999991863251,0|0,0:0|0:0,0:0:0:0:
382,199,38793,2,0,P|347:218|281:209,1,62.9999959316255,0|2,0:0|0:0,0:0:0:0:
267,161,39163,2,0,P|242:220|310:304,1,125.999991863251,0|2,0:0|0:0,0:0:0:0:
341,298,39719,1,0,0:0:0:0:
382,199,39904,2,0,P|351:204|324:220,1,62.9999959316255,0|2,3:0|0:0,0:0:0:0:
214,340,40274,6,0,B|150:363|150:306|64:345,1,125.999991863251,2|0,3:0|0:0,0:0:0:0:
33,277,40830,1,2,0:0:0:0:
5,199,41015,2,0,B|69:176|69:233|155:194,1,125.999991863251,0|0,0:0|0:0,0:0:0:0:
144,51,41756,1,0,0:0:0:0:
100,121,41941,1,2,0:0:0:0:
183,126,42126,2,0,L|270:109,1,62.9999959316255,0|0,0:0|0:0,0:0:0:0:
236,197,42496,2,0,L|323:180,1,62.9999959316255,0|2,0:0|0:0,0:0:0:0:
304,49,42867,1,0,0:0:0:0:
304,49,43237,6,0,L|448:76,1,125.999991863251,4|2,0:0|0:0,0:0:0:0:
505,251,43978,2,0,L|361:224,1,125.999991863251,2|0,0:0|0:0,0:0:0:0:
212,263,44719,2,0,P|240:276|291:275,1,62.9999959316255,2|0,0:0|0:0,0:0:0:0:
340,156,45089,2,0,P|314:173|290:218,1,62.9999959316255,0|0,0:0|0:0,0:0:0:0:
440,243,45459,2,0,P|412:230|361:231,1,62.9999959316255,2|0,0:0|0:0,0:0:0:0:
310,358,45830,2,0,P|335:340|359:295,1,62.9999959316255,0|0,3:0|0:0,0:0:0:0:
215,175,46200,6,0,B|147:143|158:204|63:155,1,125.999991863251,2|0,0:0|0:0,0:0:0:0:
65,153,46570,6,0,P|87:227|92:268,1,90.9999927349095,10|0,0:0|0:0,0:0:0:0:
246,82,46941,2,0,P|218:154|213:195,1,97.9999936714175,10|0,0:0|0:0,0:0:0:0:
44,309,47311,6,0,P|96:322|168:253,1,139.999995231629,10|0,0:0|0:0,0:0:0:0:
89,240,47867,1,0,3:0:0:0:
215,175,48052,2,0,P|271:177|308:212,1,83.9999945755007,8|0,3:0|0:0,0:0:0:0:
437,358,48422,5,10,0:0:0:0:
451,131,48608,1,10,0:0:0:0:
437,358,48793,6,0,L|422:289,1,41.9999972877504,8|0,0:0|0:0,0:0:0:0:
451,131,48978,2,0,L|459:89,1,41.9999972877504,8|0,0:0|0:0,0:0:0:0:
337,266,49163,6,0,B|243:305|260:231|163:267,1,167.999989151001,6|0,0:0|3:0,0:0:0:0:
201,343,49719,1,2,0:0:0:0:
294,194,49904,2,0,P|371:190|418:289,1,167.999989151001,8|0,0:0|0:0,0:0:0:0:
433,140,50459,1,2,3:0:0:0:
337,266,50645,5,0,0:0:0:0:
287,108,50830,1,0,3:0:0:0:
420,258,51015,2,0,P|416:304|375:345,1,83.9999945755007,2|0,3:0|0:0,0:0:0:0:
247,185,51385,2,0,P|212:146|236:39,1,167.999989151001,8|0,0:0|0:0,0:0:0:0:
287,108,51941,1,0,0:0:0:0:
268,283,52126,6,0,P|216:263|155:255,1,83.9999945755007,2|0,3:0|0:0,0:0:0:0:
54,214,52496,2,0,P|94:204|133:188,1,83.9999945755007,0|0,3:0|0:0,0:0:0:0:
332,144,52867,2,0,P|268:129|241:19,1,167.999989151001,10|0,0:0|0:0,0:0:0:0:
162,106,53422,1,2,3:0:0:0:
321,56,53608,5,0,0:0:0:0:
139,16,53793,1,0,3:0:0:0:
321,56,53978,2,0,P|382:44|429:47,1,83.9999945755007,2|0,3:0|0:0,0:0:0:0:
414,290,54348,1,10,0:0:0:0:
448,145,54533,1,0,0:0:0:0:
493,309,54719,2,0,P|477:350|433:373,1,83.9999945755007,0|0,0:0|0:0,0:0:0:0:
242,329,55089,6,0,P|165:306|56:316,1,167.999989151001,6|0,0:0|3:0,0:0:0:0:
22,375,55645,1,0,0:0:0:0:
160,227,55830,2,0,P|144:178|111:124,1,83.9999945755007,10|0,0:0|0:0,0:0:0:0:
382,203,56200,6,0,P|347:283|326:378,1,167.999989151001,0|0,3:0|0:0,0:0:0:0:
413,340,56756,1,0,0:0:0:0:
499,362,56941,2,0,P|486:308|448:252,1,83.9999945755007,2|0,3:0|0:0,0:0:0:0:
354,111,57311,2,0,L|224:96,1,125.999991863251,8|0,0:0|0:0,0:0:0:0:
217,103,57682,1,2,0:0:0:0:
270,21,57867,1,2,0:0:0:0:
382,203,58052,5,2,3:0:0:0:
353,25,58237,1,8,0:0:0:0:
305,232,58422,1,0,3:0:0:0:
458,175,58608,1,2,0:0:0:0:
270,21,58793,2,0,L|146:7,1,83.9999945755007,8|0,0:0|0:0,0:0:0:0:
38,229,59163,6,0,P|94:241|166:149,1,167.999989151001,6|0,0:0|0:0,0:0:0:0:
82,153,59719,1,10,0:0:0:0:
35,315,59904,1,0,0:0:0:0:
35,315,60089,1,0,0:0:0:0:
27,92,60274,5,10,0:0:0:0:
122,236,60459,1,0,0:0:0:0:
186,11,60645,1,0,3:0:0:0:
186,11,61015,6,0,B|268:7|247:67|353:62,1,167.999989151001,4|2,0:0|3:0,0:0:0:0:
419,20,61570,1,0,0:0:0:0:
435,225,61756,1,8,0:0:0:0:
460,111,61941,1,2,0:0:0:0:
349,258,62126,1,0,0:0:0:0:
309,183,62311,1,2,3:0:0:0:
468,309,62496,5,0,0:0:0:0:
385,148,62682,1,2,3:0:0:0:
266,256,62867,1,2,3:0:0:0:
320,98,63052,1,0,0:0:0:0:
302,330,63237,2,0,P|243:337|185:246,1,167.999989151001,10|2,0:0|0:0,0:0:0:0:
266,256,63793,1,0,0:0:0:0:
377,373,63978,6,0,P|429:351|480:354,1,83.9999945755007,2|2,3:0|0:0,0:0:0:0:
339,216,64348,2,0,P|391:238|442:235,1,83.9999945755007,0|2,3:0|0:0,0:0:0:0:
213,347,64719,1,10,0:0:0:0:
225,181,64904,1,0,0:1:0:0:
302,330,65089,1,0,0:1:0:0:
225,181,65274,1,2,3:0:0:0:
133,360,65459,6,0,L|16:333,1,83.9999945755007,0|0,0:0|3:0,0:0:0:0:
0,153,65830,2,0,L|81:134,1,83.9999945755007,2|0,3:0|0:0,0:0:0:0:
309,200,66200,2,0,P|271:257|169:243,1,167.999989151001,10|0,0:0|0:0,0:0:0:0:
225,181,66756,1,2,0:0:0:0:
322,329,66941,6,0,B|412:303|379:377|482:349,1,167.999989151001,4|0,0:0|3:0,0:0:0:0:
446,266,67496,1,2,0:0:0:0:
250,365,67682,1,8,0:0:0:0:
302,246,67867,1,0,0:0:0:0:
165,343,68052,2,0,P|121:346|64:306,1,83.9999945755007,2|2,0:0|3:0,0:0:0:0:
89,194,68422,5,0,0:0:0:0:
139,262,68608,1,2,0:0:0:0:
224,131,68793,2,0,P|222:91|190:34,1,83.9999945755007,2|0,3:0|0:0,0:0:0:0:
221,279,69163,2,0,P|264:237|363:200,1,167.999989151001,8|2,0:0|0:0,0:0:0:0:
313,126,69719,1,0,0:0:0:0:
402,355,69904,6,0,P|419:301|404:242,1,83.9999945755007,6|0,3:0|0:0,0:0:0:0:
313,126,70274,1,0,0:0:0:0:
253,325,70459,2,0,P|308:312|351:270,1,83.9999945755007,14|0,3:0|0:0,0:0:0:0:
387,84,70830,1,0,3:0:0:0:
202,184,71015,6,0,P|240:225|298:242,1,83.9999945755007,10|2,0:0|3:0,0:0:0:0:
439,150,71385,1,0,0:0:0:0:
314,40,71570,1,8,0:0:0:0:
385,215,71756,2,0,P|419:233|491:220,1,83.9999945755007,0|0,0:0|3:0,0:0:0:0:
390,0,72126,5,8,0:0:0:0:
318,170,72311,1,8,0:0:0:0:
238,15,72496,5,8,0:0:0:0:
387,84,72682,1,8,0:0:0:0:
226,198,72867,6,0,L|127:186,1,83.9999945755007,4|0,0:0|0:0,0:0:0:0:
311,334,73237,2,0,L|212:346,1,83.9999945755007,10|0,0:3|3:0,0:0:0:0:
340,184,73608,2,0,L|241:172,1,83.9999945755007,10|0,0:3|3:0,0:0:0:0:
425,320,73978,2,0,L|326:332,1,83.9999945755007,8|0,0:3|3:0,0:0:0:0:
420,133,74348,5,8,0:3:0:0:
470,207,74533,1,0,3:0:0:0:
450,48,74719,2,0,P|388:54|348:76,1,83.9999945755007,10|0,3:2|3:0,0:0:0:0:
256,173,75089,5,8,0:2:0:0:
216,185,75182,1,8,3:1:0:0:
175,176,75274,1,8,3:1:0:0:
145,148,75367,1,8,3:1:0:0:
133,108,75460,1,10,0:0:0:0:
121,68,75552,1,8,3:1:0:0:
91,40,75645,1,10,3:1:0:0:
50,31,75737,1,8,3:1:0:0:
11,44,75830,5,10,0:2:0:0:
44,124,76015,1,0,3:0:0:0:
213,91,76200,5,10,0:2:0:0:
137,260,76385,1,2,3:0:0:0:
182,2,76570,5,10,0:2:0:0:
256,173,76756,1,2,3:0:0:0:
372,19,76941,5,10,0:2:0:0:
213,91,77126,1,0,3:0:0:0:
423,190,77311,5,10,0:2:0:0:
409,229,77405,1,8,3:1:0:0:
378,256,77497,1,8,3:1:0:0:
337,264,77590,1,8,3:1:0:0:
298,252,77682,1,10,0:3:0:0:
259,239,77774,1,8,3:1:0:0:
218,247,77867,1,8,3:1:0:0:
187,274,77959,1,8,3:1:0:0:
173,314,78052,6,0,P|182:357|190:380,1,41.9999972877504,10|0,0:3|0:0,0:0:0:0:
337,171,78237,2,0,P|328:128|319:104,1,41.9999972877504,2|0,3:0|0:0,0:0:0:0:
201,37,78422,2,0,L|142:24,3,41.9999972877504,2|0|0|0,3:0|0:0|3:0|0:0,0:0:0:0:
97,83,78793,5,2,0:0:0:0:
97,83,80459,6,0,L|87:132,1,34.9999988079071,2|0,0:0|0:0,0:0:0:0:
64,192,80645,6,0,B|139:214|122:159|207:169,1,136.499989102364,8|0,0:0|0:0,0:0:0:0:
277,216,81015,2,0,L|291:157,2,60.666661823273,10|8|0,0:0|3:0|3:0,0:0:0:0:
202,313,81385,2,0,L|188:255,2,60.666661823273,10|8|0,0:0|3:0|3:0,0:0:0:0:
372,221,81756,6,0,B|350:338|350:338|389:387,1,167.999989151001,6|0,0:0|3:0,0:0:0:0:
440,313,82311,1,2,0:0:0:0:
492,245,82496,2,0,L|466:149,1,83.9999945755007,0|0,0:0|0:0,0:0:0:0:
380,376,82867,2,0,B|287:381|310:316|190:328,1,167.999989151001,10|0,0:0|3:0,0:0:0:0:
344,215,83422,2,0,B|394:293|327:305|397:403,1,167.999989151001,2|0,3:0|0:0,0:0:0:0:
263,237,83978,5,10,0:0:0:0:
152,360,84163,1,0,0:0:0:0:
82,134,84348,1,10,0:0:0:0:
82,134,84719,6,0,L|188:120,1,83.9999945755007,14|0,0:0|0:0,0:0:0:0:
85,50,85089,1,0,0:0:0:0:
69,217,85274,2,0,L|99:308,1,83.9999945755007,2|0,3:0|0:0,0:0:0:0:
3,168,85645,1,0,0:0:0:0:
152,360,85830,2,0,P|235:365|285:279,1,167.999989151001,10|0,0:0|3:0,0:0:0:0:
300,161,86385,2,0,P|254:230|303:316,1,167.999989151001,2|0,3:0|0:0,0:0:0:0:
382,133,86941,5,10,0:0:0:0:
344,237,87126,1,0,0:0:0:0:
231,40,87311,1,10,0:0:0:0:
231,40,87682,5,14,0:0:0:0:
314,57,87867,1,0,3:0:0:0:
168,97,88052,1,0,0:0:0:0:
391,27,88237,1,10,3:0:0:0:
391,27,88608,1,0,0:0:0:0:
168,97,88793,5,10,3:0:0:0:
314,57,88978,1,0,0:0:0:0:
231,40,89163,1,2,0:0:0:0:
436,97,89348,1,10,0:0:0:0:
436,97,89719,1,0,3:0:0:0:
168,97,89904,5,10,3:0:0:0:
231,40,90089,1,0,0:0:0:0:
314,57,90274,1,2,0:0:0:0:
391,27,90459,1,0,0:0:0:0:
443,177,90645,5,2,0:0:0:0:
256,192,90830,12,0,96570,0:0:0:0:
