osu file format v14

[General]
AudioFilename: audio.mp3
AudioLeadIn: 0
PreviewTime: 47867
Countdown: 0
SampleSet: Soft
StackLeniency: 0.7
Mode: 0
LetterboxInBreaks: 0
WidescreenStoryboard: 1

[Editor]
DistanceSpacing: 1.1
BeatDivisor: 4
GridSize: 4
TimelineZoom: 1.7

[Metadata]
Title:Black Bird
TitleUnicode:Black Bird
Artist:Aimer
ArtistUnicode:Aimer
Creator:SeaRasp
Version:Normal
Source:Kasane
Tags:エメ 黒鳥 William K Live Action Movie Theme Song 累-かさね-
BeatmapID:1776103
BeatmapSetID:849225

[Difficulty]
HPDrainRate:4
CircleSize:3.5
OverallDifficulty:4
ApproachRate:5
SliderMultiplier:1.59999990463257
SliderTickRate:2

[Events]
//Background and Video events
0,0,"BG.jpg",0,0
//Break Periods
//Storyboard Layer 0 (Background)
//Storyboard Layer 1 (Fail)
//Storyboard Layer 2 (Pass)
//Storyboard Layer 3 (Foreground)
//Storyboard Sound Samples

[TimingPoints]
12682,740.740740740741,4,2,1,70,1,0
12682,-100,4,2,1,70,0,0
13608,740.740740740741,4,2,1,70,1,0
13608,-100,4,2,1,70,0,0
15830,-100,4,2,1,80,0,0
16570,-100,4,2,1,70,0,0
18793,-100,4,2,1,80,0,0
19533,-100,4,2,1,60,0,0
25459,-100,4,2,1,40,0,0
31385,-100,4,2,1,45,0,0
46200,-100,4,2,1,35,0,0
46570,-100,4,2,1,45,0,0
46941,-100,4,2,1,55,0,0
47311,-100,4,2,1,65,0,0
48052,-100,4,2,1,60,0,0
49163,-100,4,2,1,80,0,1
72867,-100,4,2,1,70,0,0
75830,-100,4,2,1,70,0,1
78793,-100,4,2,1,60,0,0
81756,-100,4,2,1,70,0,0
83978,-100,4,2,1,70,0,0
84719,-100,4,2,1,70,0,0
96570,-100,4,2,1,5,0,0

[Colours]
Combo1 : 138,138,255
Combo2 : 102,0,0
Combo3 : 65,65,65
Combo4 : 149,43,255

[HitObjects]
469,59,12682,6,0,P|427:90|346:84,1,119.999992847443,0|8,0:0|0:0,0:0:0:0:
281,52,13608,6,0,P|238:55|194:83,1,79.9999952316285,14|0,0:0|0:0,0:0:0:0:
156,144,14348,1,0,0:0:0:0:
78,102,14719,2,0,B|65:145|65:145|94:264,1,159.999990463257,10|0,0:0|0:0,0:0:0:0:
161,310,15830,2,0,L|248:296,1,79.9999952316285,10|10,0:0|0:0,0:0:0:0:
308,242,16570,2,0,L|386:254,1,79.9999952316285,14|0,0:0|0:0,0:0:0:0:
454,311,17311,1,0,0:0:0:0:
497,234,17682,2,0,B|523:152|460:155|486:77,1,159.999990463257,10|0,3:0|0:0,0:0:0:0:
412,29,18793,2,0,P|368:38|338:70,1,79.9999952316285,10|10,0:0|0:0,0:0:0:0:
274,116,19533,6,0,P|230:107|200:75,1,79.9999952316285,14|0,0:0|3:0,0:0:0:0:
188,42,20089,1,2,3:0:0:0:
56,27,20645,2,0,L|64:117,1,79.9999952316285,10|0,0:0|3:0,0:0:0:0:
68,150,21200,1,2,3:0:0:0:
145,256,21756,2,0,L|135:348,1,79.9999952316285,10|8,0:0|0:0,0:0:0:0:
222,320,22496,2,0,P|282:312|339:354,1,119.999992847443,14|10,3:0|0:0,0:0:0:0:
414,314,23422,1,0,3:0:0:0:
414,314,23608,2,0,L|426:187,1,119.999992847443,10|10,3:0|3:0,0:0:0:0:
459,66,24719,2,0,P|412:95|375:98,1,79.9999952316285,8|2,0:0|0:0,0:0:0:0:
306,66,25459,5,0,0:0:0:0:
248,132,25830,2,0,L|161:118,2,79.9999952316285,2|0|0,0:0|0:0|0:0,0:0:0:0:
311,192,26941,2,0,P|335:257|316:310,1,119.999992847443,2|2,0:0|0:0,0:0:0:0:
284,328,27682,2,0,L|205:340,1,79.9999952316285,0|0,0:0|0:0,0:0:0:0:
136,284,28422,5,2,0:0:0:0:
60,328,28793,2,0,B|26:250|87:245|54:168,1,159.999990463257,2|2,0:0|0:0,0:0:0:0:
118,110,29904,2,0,P|158:133|207:130,1,79.9999952316285,2|0,0:0|0:0,0:0:0:0:
262,82,30645,2,0,L|264:33,2,39.9999976158142,0|2|0,0:0|0:0|3:0,0:0:0:0:
337,126,31385,5,2,0:0:0:0:
408,75,31756,2,0,L|489:68,2,79.9999952316285,2|0|0,0:0|0:0|0:0,0:0:0:0:
337,126,32867,2,0,P|326:195|353:251,1,119.999992847443,2|2,0:0|0:0,0:0:0:0:
378,267,33608,2,0,P|389:313|380:351,1,79.9999952316285,0|0,0:0|3:0,0:0:0:0:
299,371,34348,6,0,L|212:360,1,79.9999952316285,0|2,3:0|0:0,0:0:0:0:
150,306,35089,2,0,P|102:347|33:348,1,119.999992847443,0|2,0:0|0:0,0:0:0:0:
17,319,35830,2,0,L|24:228,1,79.9999952316285,0|0,0:0|0:0,0:0:0:0:
64,161,36570,2,0,L|60:117,2,39.9999976158142,0|0|2,0:0|0:0|0:0,0:0:0:0:
143,198,37311,5,0,3:0:0:0:
204,135,37682,2,0,L|194:86,1,39.9999976158142,2|0,0:0|0:0,0:0:0:0:
187,52,38052,2,0,P|235:88|338:65,1,159.999990463257,0|0,0:0|0:0,0:0:0:0:
362,43,38978,1,2,0:0:0:0:
362,43,39163,2,0,B|358:131,1,79.9999952316285
320,202,39904,1,0,0:0:0:0:
352,285,40274,6,0,P|411:274|474:306,2,119.999992847443,2|2|0,3:0|0:0|0:0,0:0:0:0:
235,347,41941,1,2,0:0:0:0:
235,347,42126,2,0,P|170:345|144:329,1,79.9999952316285,0|0,0:0|0:0,0:0:0:0:
79,298,42867,2,0,P|49:308|27:321,2,39.9999976158142,0|0|4,0:0|0:0|0:0,0:0:0:0:
153,250,43608,5,2,0:0:0:0:
83,196,43978,2,0,L|72:69,1,119.999992847443,2|2,0:0|0:0,0:0:0:0:
101,43,44719,2,0,P|147:43|183:61,1,79.9999952316285,2|0,0:0|0:0,0:0:0:0:
246,110,45459,2,0,P|292:110|328:92,1,79.9999952316285,2|0,0:0|3:0,0:0:0:0:
379,29,46200,5,2,0:0:0:0:
464,49,46570,1,10,0:0:0:0:
464,137,46941,1,10,0:0:0:0:
381,167,47311,2,0,B|371:208|371:208|389:297,1,119.999992847443,10|0,0:0|3:0,0:0:0:0:
371,325,48052,1,8,3:0:0:0:
293,360,48422,2,0,P|262:349|246:337,1,39.9999976158142,10|10,0:0|0:0,0:0:0:0:
217,324,48793,2,0,P|186:335|170:347,1,39.9999976158142,10|10,0:0|0:0,0:0:0:0:
144,363,49163,6,0,P|102:361|52:338,1,79.9999952316285,6|0,0:0|3:0,0:0:0:0:
46,308,49719,1,2,0:0:0:0:
46,308,49904,2,0,L|37:177,1,119.999992847443,8|2,0:0|3:0,0:0:0:0:
95,121,50830,1,0,3:0:0:0:
95,121,51015,2,0,P|141:134|185:130,1,79.9999952316285,2|8,3:0|0:0,0:0:0:0:
251,92,51756,2,0,L|257:46,1,39.9999976158142,0|0,0:0|0:0,0:0:0:0:
289,23,52126,6,0,L|374:17,1,79.9999952316285,2|0,3:0|3:0,0:0:0:0:
445,60,52867,2,0,P|424:106|434:185,1,119.999992847443,10|2,0:0|3:0,0:0:0:0:
488,238,53793,2,0,P|488:264|485:293,1,39.9999976158142,0|2,3:0|3:0,0:0:0:0:
428,343,54348,2,0,L|341:333,1,79.9999952316285,10|0,0:0|0:0,0:0:0:0:
304,327,54904,1,0,0:0:0:0:
304,327,55089,6,0,B|224:308|236:375|136:341,1,159.999990463257,6|10,0:0|0:0,0:0:0:0:
183,263,56200,1,0,3:0:0:0:
183,263,56385,2,0,L|187:169,1,79.9999952316285,2|0,3:0|0:0,0:0:0:0:
190,139,56941,2,0,P|162:153|99:156,1,79.9999952316285,2|8,3:0|0:0,0:0:0:0:
33,122,57682,1,0,0:0:0:0:
66,40,58052,5,0,0:0:0:0:
66,40,58237,2,0,P|93:50|119:52,1,39.9999976158142,8|0,0:0|3:0,0:0:0:0:
189,28,58793,1,8,0:0:0:0:
264,72,59163,2,0,P|333:51|389:76,1,119.999992847443,6|10,0:0|0:0,0:0:0:0:
406,98,59904,1,0,0:0:0:0:
455,171,60274,2,0,L|442:221,1,39.9999976158142,10|0,0:0|0:0,0:0:0:0:
421,246,60645,2,0,L|434:296,1,39.9999976158142,0|0,3:0|3:0,0:0:0:0:
453,322,61015,6,0,P|420:343|367:344,1,79.9999952316285,4|2,0:0|3:0,0:0:0:0:
320,281,61756,1,8,0:0:0:0:
320,281,61941,2,0,P|287:260|234:259,1,79.9999952316285,2|2,0:0|3:0,0:0:0:0:
176,308,62682,2,0,P|150:316|133:319,1,39.9999976158142,2|2,3:0|3:0,0:0:0:0:
64,269,63237,2,0,L|49:180,1,79.9999952316285,10|2,0:0|0:0,0:0:0:0:
69,149,63793,1,0,0:0:0:0:
69,149,63978,6,0,P|108:149|152:124,1,79.9999952316285,2|0,3:0|3:0,0:0:0:0:
218,83,64719,1,10,0:0:0:0:
218,83,64904,2,0,P|257:83|301:108,1,79.9999952316285,0|2,0:0|3:0,0:0:0:0:
327,127,65459,2,0,L|332:34,1,79.9999952316285,0|2,0:0|3:0,0:0:0:0:
417,30,66200,2,0,L|412:109,1,79.9999952316285,10|0,0:0|0:0,0:0:0:0:
436,147,66756,1,2,0:0:0:0:
436,147,66941,6,0,L|426:274,1,119.999992847443,4|2,0:0|0:0,0:0:0:0:
423,310,67682,1,8,0:0:0:0:
342,274,68052,1,2,0:0:0:0:
342,274,68237,2,0,P|302:275|256:299,1,79.9999952316285,2|2,3:0|0:0,0:0:0:0:
230,318,68793,2,0,P|193:334|153:335,1,79.9999952316285,2|2,3:0|0:0,0:0:0:0:
67,317,69533,1,2,0:0:0:0:
93,232,69904,6,0,L|86:101,2,119.999992847443,2|10|10,3:0|0:0|0:0,0:0:0:0:
129,256,71200,2,0,P|175:252|215:229,1,79.9999952316285,2|0,3:0|0:0,0:0:0:0:
231,201,71756,1,0,0:0:0:0:
280,128,72126,2,0,P|274:102|268:88,1,39.9999976158142,8|8,0:0|0:0,0:0:0:0:
233,63,72496,2,0,P|239:37|245:23,1,39.9999976158142,8|0,0:0|0:0,0:0:0:0:
283,0,72867,5,4,0:0:0:0:
356,48,73237,1,10,0:0:0:0:
438,17,73608,2,0,P|440:56|426:102,1,79.9999952316285,10|8,0:0|0:0,0:0:0:0:
367,157,74348,2,0,P|365:196|379:242,1,79.9999952316285,8|10,0:0|0:0,0:0:0:0:
446,287,75089,2,0,P|448:326|434:372,1,79.9999952316285,8|10,0:0|0:0,0:0:0:0:
365,314,75830,5,10,0:0:0:0:
291,362,76200,1,10,0:0:0:0:
226,301,76570,1,8,0:0:0:0:
152,349,76941,1,10,0:0:0:0:
91,285,77311,2,0,L|83:187,1,79.9999952316285,8|10,0:0|0:0,0:0:0:0:
79,117,78052,2,0,P|100:123|130:131,1,39.9999976158142,2|2,0:0|0:0,0:0:0:0:
161,128,78422,2,0,P|180:122|199:116,1,39.9999976158142,2|2,0:0|0:0,0:0:0:0:
233,88,78793,5,2,0:0:0:0:
237,92,80459,1,2,0:0:0:0:
237,92,80645,2,0,P|287:104|330:97,1,79.9999952316285,8|10,0:0|0:0,0:0:0:0:
379,42,81385,1,2,0:0:0:0:
442,102,81756,2,0,L|433:197,1,79.9999952316285,6|0,0:0|3:0,0:0:0:0:
375,247,82496,1,0,0:0:0:0:
431,314,82867,2,0,B|353:357|347:295|259:328,1,159.999990463257,10|0,0:0|0:0,0:0:0:0:
190,298,83978,2,0,P|166:333|159:384,1,79.9999952316285,10|10,0:0|0:0,0:0:0:0:
70,365,84719,6,0,P|61:326|38:293,1,79.9999952316285,14|0,0:0|0:0,0:0:0:0:
3,266,85274,1,2,3:0:0:0:
84,162,85830,2,0,P|92:123|115:90,1,79.9999952316285,10|0,0:0|3:0,0:0:0:0:
151,63,86385,1,2,3:0:0:0:
228,170,86941,2,0,L|312:164,1,79.9999952316285,10|10,0:0|0:0,0:0:0:0:
379,112,87682,6,0,P|427:113|479:179,1,119.999992847443,14|10,0:0|3:0,0:0:0:0:
444,244,88608,1,0,0:0:0:0:
444,244,88793,2,0,L|450:330,1,79.9999952316285,10|2,3:0|0:0,0:0:0:0:
415,351,89348,1,10,0:0:0:0:
415,351,89533,2,0,L|359:342,1,39.9999976158142,0|0,3:0|3:0,0:0:0:0:
335,325,89904,2,0,P|291:327|250:348,1,79.9999952316285,10|2,3:0|0:0,0:0:0:0:
256,192,90645,12,0,96570,0:0:0:0:
