osu file format v14

[General]
AudioFilename: audio.mp3
AudioLeadIn: 0
PreviewTime: 87848
Countdown: 1
SampleSet: Soft
StackLeniency: 0.9
Mode: 0
LetterboxInBreaks: 0
WidescreenStoryboard: 0

[Editor]
DistanceSpacing: 0.8
BeatDivisor: 8
GridSize: 4
TimelineZoom: 2

[Metadata]
Title:Anata Ni Deawanakereba
TitleUnicode:あなたに出会わなければ~夏雪冬花~
Artist:Aimer
ArtistUnicode:Aimer
Creator:0oRonieo0
Version:Insane
Source:夏雪ランデブー
Tags:Aimer 夏雪ランデブー あなたに出会わなければ 〜夏雪冬花〜/星屑ビーナス Full version
BeatmapID:1970732
BeatmapSetID:943659

[Difficulty]
HPDrainRate:7
CircleSize:4.5
OverallDifficulty:8
ApproachRate:8.5
SliderMultiplier:3.39999990463257
SliderTickRate:1

[Events]
//Background and Video events
0,0,"花と女の子.jpg",0,0
//Break Periods
//Storyboard Layer 0 (Background)
//Storyboard Layer 1 (Fail)
//Storyboard Layer 2 (Pass)
//Storyboard Layer 3 (Foreground)
//Storyboard Sound Samples

[TimingPoints]
725,821.917808219178,4,2,1,50,1,0
1341,-200,4,2,1,50,0,0
3807,-333.333333333333,4,2,1,50,0,0
5245,-200,4,2,1,50,0,0
7300,-133.333333333333,4,2,1,50,0,0
11820,-181.818181818181,4,2,1,50,0,0
15519,-133.333333333333,4,2,1,50,0,0
53327,-181.818181818181,4,2,1,50,0,0
58259,-285.714285714284,4,2,1,50,0,0
59903,-83.3333333333333,4,2,1,65,0,0
74286,-133.333333333333,4,2,1,65,0,0
76135,-153.846153846153,4,2,1,65,0,0
77574,-133.333333333333,4,2,1,65,0,0
79423,-153.846153846153,4,2,1,65,0,0
80656,-100,4,2,1,65,0,0
87437,-76.9230769230769,4,2,1,65,0,1
124012,-83.3333333333333,4,2,1,65,0,0
139218,-181.818181818181,4,2,1,65,0,0
140040,-133.333333333333,4,2,1,65,0,0
176307,-181.818181818181,4,2,1,65,0,0
184834,-100,4,2,1,65,0,0
185861,-83.3333333333333,4,2,1,65,0,0
199012,-100,4,2,1,65,0,0
201067,-133.333333333333,4,2,1,65,0,0
201683,-100,4,2,1,65,0,0
204355,-133.333333333333,4,2,1,65,0,0
205588,-100,4,2,1,65,0,0
212779,-83.3333333333333,4,2,1,65,0,1
248944,-100,4,2,1,65,0,0
285314,821.917808219178,4,1,0,100,1,0
301752,-83.3333333333333,4,1,0,100,0,1
321478,-100,4,1,0,100,0,0
332677,-133.333333333333,4,1,0,100,0,0
340382,-100,4,1,0,100,0,0
347779,-133.333333333333,4,1,0,100,0,0

[Colours]
Combo1 : 230,115,0
Combo2 : 128,128,128
Combo3 : 202,0,101
Combo4 : 0,172,86

[HitObjects]
168,44,725,5,0,0:0:0:0:
68,98,930,1,0,0:0:0:0:
116,196,1135,1,0,0:0:0:0:
216,128,1341,2,0,P|232:184|216:204,1,84.9999976158143
100,288,1957,1,0,0:0:0:0:
212,348,2163,2,0,P|252:360|300:340,1,84.9999976158143
252,272,2779,5,0,0:0:0:0:
208,188,2985,2,0,P|248:180|304:196,1,84.9999976158143
368,272,3601,1,0,0:0:0:0:
428,344,3807,2,0,P|472:272|444:208,1,152.999991039276
420,104,5245,5,0,0:0:0:0:
288,92,5451,1,0,0:0:0:0:
280,236,5656,2,0,P|328:220|352:188,1,84.9999976158143
408,112,6272,5,2,0:0:0:0:
408,112,6375,1,2,0:0:0:0:
408,112,6478,2,0,P|352:96|308:104,1,84.9999976158143,12|2,0:0|0:0,0:0:0:0:
108,40,7300,5,8,0:0:0:0:
192,92,7608,2,0,P|200:120|172:200,1,95.6250009655953,0|8,0:0|0:0,0:0:0:0:
112,136,8122,1,8,0:0:0:0:
32,220,8327,1,8,0:0:0:0:
124,280,8533,2,0,P|196:300|236:260,1,127.50000128746,8|2,0:0|0:0,0:0:0:0:
356,112,9355,5,2,0:0:0:0:
176,52,9766,1,2,0:0:0:0:
136,248,10177,1,2,0:0:0:0:
372,300,10588,5,8,0:0:0:0:
372,300,10998,2,0,P|384:240|372:212,1,63.7500006437302,8|2,0:0|0:0,0:0:0:0:
464,176,11409,1,8,0:0:0:0:
464,132,11512,1,8,0:0:0:0:
432,116,11615,1,8,0:0:0:0:
368,44,11820,2,0,P|320:72|320:120,1,93.5000002307892,2|12,0:0|0:0,0:0:0:0:
256,192,12540,12,0,15108,0:0:0:0:
400,48,15519,6,0,P|416:80|412:124,1,63.7500006437302
468,180,15930,1,0,0:0:0:0:
428,256,16135,2,0,P|408:312|339:303,1,127.50000128746
332,228,16752,1,0,0:0:0:0:
244,212,16957,2,0,P|244:192|329:137,1,127.50000128746
304,40,17574,5,0,0:0:0:0:
212,108,17779,2,0,P|120:96|68:116,1,127.50000128746
292,180,18396,2,0,P|324:172|364:184,1,63.7500006437302
212,252,18807,2,0,P|120:240|68:260,1,127.50000128746
152,32,19629,6,0,P|120:68|176:132,1,127.50000128746
328,56,20451,1,0,0:0:0:0:
408,148,20656,1,0,0:0:0:0:
300,208,20861,1,0,0:0:0:0:
392,312,21067,1,0,0:0:0:0:
168,60,21478,6,0,P|136:96|140:124,1,63.7500006437302
176,196,21889,1,0,0:0:0:0:
104,272,22094,2,0,P|136:296|220:276,1,127.50000128746
176,196,22711,1,0,0:0:0:0:
72,192,22916,2,0,P|64:140|93:72,1,127.50000128746
179,30,23533,5,0,0:0:0:0:
240,112,23738,2,0,P|248:132|232:196,1,63.7500006437302
320,36,24149,1,0,0:0:0:0:
396,104,24355,2,0,P|404:152|392:184,1,63.7500006437302
320,36,24766,1,0,0:0:0:0:
248,92,24971,2,0,P|236:120|252:172,1,63.7500006437302
156,68,25382,6,0,P|84:68|72:132,1,127.50000128746
268,296,26204,2,0,P|336:272|328:208,1,127.50000128746
88,212,27026,1,0,0:0:0:0:
236,132,27231,1,0,0:0:0:0:
76,104,27437,1,0,0:0:0:0:
208,32,27642,1,0,0:0:0:0:
333,58,28053,5,0,0:0:0:0:
436,128,28259,1,0,0:0:0:0:
336,193,28464,1,0,0:0:0:0:
251,143,28670,2,0,P|221:193|252:255,1,127.50000128746
336,193,29286,1,0,0:0:0:0:
412,132,29492,2,0,P|449:189|408:256,1,127.50000128746
336,193,30108,5,0,0:0:0:0:
276,304,30314,2,0,P|340:328|400:288,1,127.50000128746
212,364,30930,1,0,0:0:0:0:
156,304,31135,2,0,P|96:324|24:296,1,127.50000128746
96,224,31752,2,0,B|56:180|56:180|128:68,1,191.250001931191
256,192,32779,1,0,0:0:0:0:
436,48,33190,6,0,P|448:80|436:120,1,63.7500006437302
360,172,33601,2,0,P|356:224|376:244,1,63.7500006437302
428,312,34012,1,0,0:0:0:0:
252,192,34218,1,0,0:0:0:0:
252,64,34834,2,0,L|252:196,1,127.50000128746
240,292,35451,5,0,0:0:0:0:
104,344,35656,1,0,0:0:0:0:
92,208,35861,1,0,0:0:0:0:
368,136,36272,2,0,P|348:168|300:164,1,63.7500006437302
340,64,36683,2,0,P|304:80|296:124,1,63.7500006437302
68,344,37300,6,0,P|52:296|60:272,1,63.7500006437302
68,204,37711,1,0,0:0:0:0:
68,204,38122,2,0,P|84:136|144:108,1,127.50000128746
360,60,38944,6,0,P|388:96|384:184,1,127.50000128746
148,112,39766,2,0,P|108:180|116:248,1,127.50000128746
352,348,40588,2,0,P|388:284|368:228,1,127.50000128746
344,104,41615,5,0,0:0:0:0:
312,84,41718,1,0,0:0:0:0:
280,80,41820,2,0,P|228:96|184:152,1,127.50000128746,2|0,0:0|0:0,0:0:0:0:
304,192,42437,1,0,0:0:0:0:
344,324,42642,2,0,P|392:272|444:256,1,127.50000128746,8|0,0:0|0:0,0:0:0:0:
256,288,43259,5,0,0:0:0:0:
168,328,43464,2,0,P|96:272|36:272,1,127.50000128746,2|2,0:0|0:0,0:0:0:0:
184,48,44081,2,0,P|157:82|125:89,1,63.7500006437302,0|8,0:0|0:0,0:0:0:0:
68,132,44492,1,0,0:0:0:0:
127,194,44697,2,0,L|203:194,1,63.7500006437302
264,256,45108,5,0,0:0:0:0:
209,106,45314,1,0,0:0:0:0:
359,51,45519,1,0,0:0:0:0:
413,201,45724,1,0,0:0:0:0:
188,188,46135,5,0,0:0:0:0:
260,45,46341,1,0,0:0:0:0:
402,118,46546,1,0,0:0:0:0:
330,260,46752,1,0,0:0:0:0:
144,72,47163,6,0,P|116:116|120:148,1,63.7500006437302,2|0,0:0|0:0,0:0:0:0:
108,208,47574,2,0,P|108:252|172:324,1,127.50000128746,8|0,0:0|0:0,0:0:0:0:
280,344,48190,1,0,0:0:0:0:
312,324,48293,1,0,0:0:0:0:
340,300,48396,2,0,P|368:264|384:184,1,127.50000128746,2|0,0:0|0:0,0:0:0:0:
348,80,49012,5,0,0:0:0:0:
220,296,49218,2,0,P|248:260|264:180,1,127.50000128746,8|0,0:0|0:0,0:0:0:0:
168,112,49834,1,0,0:0:0:0:
100,292,50040,2,0,P|76:244|92:184,1,95.6250009655953,2|0,0:0|0:0,0:0:0:0:
88,176,50451,2,0,P|100:120|168:84,1,127.50000128746,2|8,0:0|0:0,0:0:0:0:
424,48,51272,5,0,0:0:0:0:
420,128,51478,2,0,P|424:168|404:208,1,63.7500006437302,0|2,0:0|0:0,0:0:0:0:
314,144,51889,1,0,0:0:0:0:
362,282,52094,1,0,0:0:0:0:
223,330,52300,1,0,0:0:0:0:
176,192,52505,1,8,0:0:0:0:
144,220,52916,5,0,0:0:0:0:
144,220,53327,2,0,P|144:144|168:128,1,93.5000002307892,0|2,0:0|0:0,0:0:0:0:
208,80,53944,2,0,P|249:72|273:72,1,46.7500001153946,0|8,0:0|0:0,0:0:0:0:
348,32,54355,1,0,0:0:0:0:
392,112,54560,2,0,P|448:152|456:192,1,93.5000002307892
372,260,55177,5,0,0:0:0:0:
208,332,55382,1,0,0:0:0:0:
168,168,55588,1,0,0:0:0:0:
292,92,55793,2,0,P|316:116|328:144,1,46.7500001153946,8|0,0:0|0:0,0:0:0:0:
352,184,56204,2,0,P|376:232|364:280,1,93.5000002307892
124,320,57026,6,0,P|96:284|96:244,1,70.1250001730919
92,228,57437,2,0,P|104:184|208:128,1,163.625000403881,8|0,0:0|0:0,0:0:0:0:
220,128,58259,2,0,P|280:128|368:268,1,237.999986061097,2|4,0:0|0:0,0:0:0:0:
360,64,60314,1,2,0:0:0:0:
116,312,60724,1,12,0:0:0:0:
80,216,60930,6,0,P|56:156|76:108,1,101.999994026184
116,60,61341,1,0,0:0:0:0:
192,116,61546,2,0,P|256:128|308:120,1,101.999994026184
292,28,61957,1,2,0:0:0:0:
424,28,62163,1,2,0:0:0:0:
424,156,62368,1,8,0:0:0:0:
440,344,62574,6,0,P|404:280|368:260,1,101.999994026184
328,324,62985,1,0,0:0:0:0:
264,264,63190,2,0,P|280:216|316:176,1,101.999994026184
388,216,63601,1,2,0:0:0:0:
472,124,63807,1,2,0:0:0:0:
360,64,64012,1,8,0:0:0:0:
256,244,64423,6,0,P|232:200|240:136,1,101.999994026184
176,316,64834,2,0,P|152:272|156:212,1,101.999994026184
234,149,65245,1,2,0:0:0:0:
160,48,65451,2,0,P|224:40|276:56,1,101.999994026184,2|8,0:0|0:0,0:0:0:0:
380,64,65861,1,0,0:0:0:0:
336,232,66067,5,0,0:0:0:0:
448,176,66272,2,0,B|444:260|424:300|424:300|320:360,1,203.999988052369
256,268,66889,1,2,0:0:0:0:
168,340,67094,2,0,P|120:308|120:256,1,101.999994026184,2|8,0:0|0:0,0:0:0:0:
36,224,67505,1,0,0:0:0:0:
72,144,67711,6,0,P|72:84|112:40,1,101.999994026184
208,136,68122,1,0,0:0:0:0:
308,56,68327,1,0,0:0:0:0:
392,160,68533,2,0,P|380:216|336:252,1,101.999994026184,2|2,0:0|0:0,0:0:0:0:
292,168,68944,2,0,P|256:196|260:276,1,101.999994026184,8|0,0:0|0:0,0:0:0:0:
192,328,69355,6,0,L|304:328,1,101.999994026184
416,328,69766,1,0,0:0:0:0:
464,184,69971,1,0,0:0:0:0:
312,136,70177,1,2,0:0:0:0:
356,232,70382,2,0,L|256:280,1,101.999994026184,2|8,0:0|0:0,0:0:0:0:
44,112,70998,6,0,P|109:94|153:114,1,101.999994026184
160,192,71409,2,0,P|230:204|273:175,1,101.999994026184
256,104,71820,2,0,P|321:86|365:106,1,101.999994026184,2|2,0:0|0:0,0:0:0:0:
255,191,72231,2,0,L|256:328,1,101.999994026184,8|0,0:0|0:0,0:0:0:0:
256,104,72642,1,0,0:0:0:0:
256,192,72848,2,0,L|256:308,1,101.999994026184
156,332,73259,5,2,0:0:0:0:
156,332,73361,1,2,0:0:0:0:
156,332,73464,2,0,P|100:272|104:228,1,101.999994026184,2|2,0:0|0:0,0:0:0:0:
96,228,73772,1,0,0:0:0:0:
96,196,73875,2,0,L|96:84,1,101.999994026184,8|0,0:0|0:0,0:0:0:0:
220,64,74286,6,0,P|256:52|300:64,1,63.7500006437302
364,136,74697,2,0,P|372:200|364:220,1,63.7500006437302
332,320,75108,1,2,0:0:0:0:
256,228,75314,1,2,0:0:0:0:
192,332,75519,2,0,P|144:304|140:216,1,127.50000128746,8|0,0:0|0:0,0:0:0:0:
72,160,76135,2,0,P|96:112|204:120,1,165.749987763406,0|2,0:0|0:0,0:0:0:0:
256,44,76957,1,2,0:0:0:0:
296,120,77163,1,8,0:0:0:0:
448,328,77574,6,0,P|400:336|364:320,1,63.7500006437302
280,216,77985,1,0,0:0:0:0:
408,216,78190,1,0,0:0:0:0:
444,104,78396,2,0,P|404:96|376:108,1,63.7500006437302,2|2,0:0|0:0,0:0:0:0:
296,40,78807,2,0,P|224:56|192:112,1,127.50000128746,8|0,0:0|0:0,0:0:0:0:
288,128,79423,2,0,B|312:208|312:208|292:292,1,165.749987763406,0|2,0:0|0:0,0:0:0:0:
168,220,80245,1,2,0:0:0:0:
296,288,80451,1,8,0:0:0:0:
360,164,80656,5,0,0:0:0:0:
424,92,80861,2,0,P|364:64|336:76,1,84.9999976158143
264,144,81272,2,0,P|220:148|176:116,1,84.9999976158143,2|0,0:0|0:0,0:0:0:0:
128,48,81683,2,0,P|84:68|84:128,1,84.9999976158143,2|0,0:0|0:0,0:0:0:0:
40,208,82094,1,2,0:0:0:0:
156,344,82300,1,0,0:0:0:0:
180,176,82505,1,2,0:0:0:0:
276,280,82711,2,0,P|332:292|376:264,1,84.9999976158143,0|2,0:0|0:0,0:0:0:0:
116,80,83327,5,2,0:0:0:0:
72,164,83533,2,0,P|76:216|116:248,1,84.9999976158143,0|2,0:0|0:0,0:0:0:0:
200,172,83944,1,0,0:0:0:0:
328,120,84149,1,2,0:0:0:0:
320,260,84355,1,0,0:0:0:0:
320,260,84766,6,0,P|352:216|344:180,1,84.9999976158143
92,72,85382,1,8,0:0:0:0:
332,52,85793,5,2,0:0:0:0:
332,52,85896,1,2,0:0:0:0:
332,52,85998,2,0,P|344:104|336:144,1,84.9999976158143,8|8,0:0|0:0,0:0:0:0:
220,204,86409,1,2,0:0:0:0:
220,204,86512,1,2,0:0:0:0:
220,204,86615,2,0,P|232:268|252:296,1,84.9999976158143,8|8,0:0|0:0,0:0:0:0:
64,200,87231,1,12,0:0:0:0:
112,84,87437,5,2,0:0:0:0:
140,72,87540,1,2,0:0:0:0:
168,68,87642,1,2,0:0:0:0:
200,68,87745,1,2,0:0:0:0:
232,72,87848,6,0,P|312:88|348:108,1,110.49999184227,12|0,0:0|0:0,0:0:0:0:
252,192,88259,1,2,0:0:0:0:
368,236,88464,2,0,P|316:288|268:292,1,110.49999184227,2|8,0:0|0:0,0:0:0:0:
252,192,88875,2,0,P|176:212|160:256,1,110.49999184227
252,192,89286,1,2,0:0:0:0:
104,264,89492,1,8,0:0:0:0:
184,184,89697,1,2,0:0:0:0:
48,268,89903,1,2,0:0:0:0:
16,192,90108,6,0,P|24:112|52:64,1,110.49999184227,2|8,0:0|0:0,0:0:0:0:
200,184,90519,1,0,0:0:0:0:
296,40,90725,1,0,0:0:0:0:
380,116,90930,2,0,P|396:176|348:224,1,110.49999184227,0|2,0:0|0:0,0:0:0:0:
348,232,91238,5,2,0:0:0:0:
320,248,91341,1,2,0:0:0:0:
288,264,91444,1,2,0:0:0:0:
256,272,91546,1,2,0:0:0:0:
224,276,91649,1,2,0:0:0:0:
188,276,91752,1,2,0:0:0:0:
156,272,91855,1,2,0:0:0:0:
120,260,91957,1,12,0:0:0:0:
96,168,92163,6,0,P|120:112|184:80,1,110.49999184227
272,232,92574,2,0,P|324:188|400:192,1,110.49999184227,2|2,0:0|0:0,0:0:0:0:
252,44,92985,1,2,0:0:0:0:
328,264,93190,1,2,0:0:0:0:
172,112,93396,1,2,0:0:0:0:
424,228,93601,1,8,0:0:0:0:
344,68,93807,5,0,0:0:0:0:
240,272,94012,1,0,0:0:0:0:
416,120,94218,1,0,0:0:0:0:
160,220,94423,1,2,0:0:0:0:
208,128,94629,2,0,P|264:156|292:212,1,110.49999184227,8|2,0:0|0:0,0:0:0:0:
216,44,95040,2,0,P|272:60|316:120,1,110.49999184227,2|8,0:0|0:0,0:0:0:0:
308,96,95656,5,0,0:0:0:0:
308,96,95861,2,0,P|332:160|308:224,1,110.49999184227,2|2,0:0|0:0,0:0:0:0:
196,72,96272,2,0,P|216:136|212:196,1,110.49999184227,2|2,0:0|0:0,0:0:0:0:
148,300,96683,1,2,0:0:0:0:
232,192,96889,1,8,0:0:0:0:
120,340,97094,1,0,0:0:0:0:
204,208,97300,1,0,0:0:0:0:
252,312,97505,6,0,P|320:324|388:300,1,110.49999184227,0|2,0:0|0:0,0:0:0:0:
440,248,97916,1,0,0:0:0:0:
296,196,98122,1,2,0:0:0:0:
488,120,98327,2,0,P|456:112|356:132,1,110.49999184227,0|8,0:0|0:0,0:0:0:0:
256,124,98738,1,0,0:0:0:0:
32,120,98944,6,0,P|84:128|176:112,1,110.49999184227,2|8,0:0|0:0,0:0:0:0:
124,288,99355,1,2,0:0:0:0:
292,232,99560,1,2,0:0:0:0:
140,124,99766,1,2,0:0:0:0:
224,304,99971,1,2,0:0:0:0:
280,104,100177,1,8,0:0:0:0:
424,64,100588,5,0,0:0:0:0:
304,192,100793,1,0,0:0:0:0:
408,80,100998,2,0,L|320:176,1,110.49999184227,8|0,0:0|0:0,0:0:0:0:
460,160,101409,1,0,0:0:0:0:
348,284,101615,1,0,0:0:0:0:
448,176,101820,2,0,L|360:272,1,110.49999184227,8|0,0:0|0:0,0:0:0:0:
200,288,102231,5,0,0:0:0:0:
168,256,102437,2,0,L|76:168,1,110.49999184227,2|8,0:0|0:0,0:0:0:0:
244,48,102848,1,2,0:0:0:0:
304,280,103053,1,2,0:0:0:0:
192,160,103259,1,2,0:0:0:0:
68,288,103464,5,8,0:0:0:0:
100,276,103567,1,8,0:0:0:0:
136,260,103670,1,8,0:0:0:0:
164,236,103772,1,8,0:0:0:0:
196,212,103875,1,8,0:0:0:0:
224,184,103978,1,8,0:0:0:0:
248,160,104081,1,8,0:0:0:0:
268,132,104183,1,8,0:0:0:0:
288,96,104286,6,0,P|356:76|400:124,1,110.49999184227,4|0,0:0|0:0,0:0:0:0:
340,180,104697,1,2,0:0:0:0:
432,136,104903,2,0,P|448:188|408:256,1,110.49999184227,2|8,0:0|0:0,0:0:0:0:
340,180,105314,1,0,0:0:0:0:
364,212,105416,1,0,0:0:0:0:
340,244,105519,2,0,P|284:264|224:224,1,110.49999184227,2|2,0:0|0:0,0:0:0:0:
364,212,105930,1,8,0:0:0:0:
264,120,106135,6,0,L|220:64,2,55.2499959211352,0|0|2,0:0|0:0|0:0,0:0:0:0:
164,40,106546,2,0,P|96:112|96:152,1,110.49999184227,0|8,0:0|0:0,0:0:0:0:
72,240,106957,1,0,0:0:0:0:
176,192,107163,2,0,P|216:124|288:80,1,165.749987763406
320,72,107574,5,2,0:0:0:0:
360,88,107677,1,2,0:0:0:0:
388,120,107779,1,2,0:0:0:0:
384,160,107882,1,2,0:0:0:0:
364,196,107985,1,2,0:0:0:0:
348,228,108088,1,2,0:0:0:0:
332,256,108190,1,2,0:0:0:0:
312,288,108293,1,0,0:0:0:0:
288,316,108396,6,0,P|244:332|168:328,1,110.49999184227,12|0,0:0|0:0,0:0:0:0:
204,216,108807,1,0,0:0:0:0:
292,212,109012,2,0,L|416:212,1,110.49999184227,2|8,0:0|0:0,0:0:0:0:
248,216,109423,1,2,0:0:0:0:
356,128,109629,1,2,0:0:0:0:
248,52,109834,1,2,0:0:0:0:
248,216,110040,1,8,0:0:0:0:
144,48,110245,5,0,0:0:0:0:
96,248,110451,1,0,0:0:0:0:
224,56,110656,1,0,0:0:0:0:
40,216,110861,2,0,P|104:176|164:180,1,110.49999184227,2|0,0:0|0:0,0:0:0:0:
256,200,111272,1,2,0:0:0:0:
376,172,111478,2,0,P|424:240|436:296,1,110.49999184227,0|8,0:0|0:0,0:0:0:0:
256,200,111889,1,0,0:0:0:0:
164,108,112094,2,0,P|196:88|236:88,1,55.2499959211352
244,84,112300,2,0,P|312:92|356:132,1,110.49999184227,2|2,0:0|0:0,0:0:0:0:
380,208,112711,6,0,P|388:252|352:320,2,110.49999184227,2|2|2,0:0|0:0|0:0,0:0:0:0:
256,52,113327,1,8,0:0:0:0:
112,252,113738,1,0,0:0:0:0:
272,356,113944,1,0,0:0:0:0:
404,252,114149,2,0,P|408:188|368:128,1,110.49999184227,2|0,0:0|0:0,0:0:0:0:
256,200,114560,1,2,0:0:0:0:
256,200,114766,2,0,L|256:80,2,110.49999184227,0|8|0,0:0|0:0|0:0,0:0:0:0:
256,240,115382,6,0,L|256:356,2,110.49999184227,0|0|2,0:0|0:0|0:0,0:0:0:0:
204,160,115998,2,0,P|256:144|316:172,1,110.49999184227,2|2,0:0|0:0,0:0:0:0:
256,240,116409,1,2,0:0:0:0:
256,240,116615,2,0,L|256:388,1,110.49999184227,8|0,0:0|0:0,0:0:0:0:
364,272,117026,5,0,0:0:0:0:
144,216,117231,1,0,0:0:0:0:
352,128,117437,2,0,P|276:136|236:160,1,110.49999184227,2|0,0:0|0:0,0:0:0:0:
144,84,117848,1,2,0:0:0:0:
144,84,118053,2,0,P|128:156|160:196,2,110.49999184227,0|8|0,0:0|0:0|0:0,0:0:0:0:
252,148,118670,5,0,0:0:0:0:
256,148,118875,2,0,P|332:224|300:336,1,220.999983684541
196,264,119492,1,2,0:0:0:0:
196,264,119697,2,0,P|124:196|168:72,1,220.999983684541
256,156,120314,1,0,0:0:0:0:
256,156,120519,2,0,P|292:236|280:268,1,110.49999184227,0|2,0:0|0:0,0:0:0:0:
248,56,120930,5,0,0:0:0:0:
132,136,121135,1,8,0:0:0:0:
256,212,121341,2,0,P|316:192|376:208,1,110.49999184227
204,328,121752,1,2,0:0:0:0:
76,276,121957,2,0,P|64:212|104:168,1,110.49999184227,8|2,0:0|0:0,0:0:0:0:
116,152,122266,5,0,0:0:0:0:
144,124,122368,1,8,0:0:0:0:
180,132,122471,1,8,0:0:0:0:
200,164,122574,1,8,0:0:0:0:
192,200,122677,1,8,0:0:0:0:
212,232,122779,1,8,0:0:0:0:
248,248,122882,1,8,0:0:0:0:
280,216,122985,1,8,0:0:0:0:
312,192,123088,1,8,0:0:0:0:
352,184,123190,6,0,P|408:204|456:144,1,110.49999184227,8|8,0:0|0:0,0:0:0:0:
392,84,123601,1,8,0:0:0:0:
288,40,123807,1,8,0:0:0:0:
124,100,124012,2,0,P|108:160|116:200,2,101.999994026184,12|0|0,0:0|0:0|0:0,0:0:0:0:
400,276,124834,1,8,0:0:0:0:
116,76,125245,2,8,P|88:116|112:192,2,101.999994026184
208,160,125861,5,8,0:0:0:0:
332,260,126067,1,8,0:0:0:0:
200,288,126272,1,8,0:0:0:0:
304,76,126478,1,8,0:0:0:0:
336,300,126683,2,0,B|308:224|308:224|216:140,1,203.999988052369,12|0,0:0|0:0,0:0:0:0:
136,264,127300,5,2,0:0:0:0:
220,52,127505,1,0,0:0:0:0:
248,216,127711,1,2,0:0:0:0:
148,56,127916,2,0,P|144:124|176:160,1,101.999994026184,0|12,0:0|0:0,0:0:0:0:
256,88,128327,5,0,0:0:0:0:
256,88,128533,1,0,0:0:0:0:
336,216,128738,1,2,0:0:0:0:
336,216,128944,2,0,P|348:264|296:340,1,101.999994026184,2|0,0:0|0:0,0:0:0:0:
140,348,129355,1,2,0:0:0:0:
272,180,129560,2,0,P|284:248|252:300,1,101.999994026184,0|8,0:0|0:0,0:0:0:0:
256,76,129971,2,0,P|192:92|168:132,2,101.999994026184
388,96,130588,5,2,0:0:0:0:
300,308,130793,1,0,0:0:0:0:
204,112,130998,1,2,0:0:0:0:
408,272,131204,2,0,P|364:220|316:200,1,101.999994026184,0|8,0:0|0:0,0:0:0:0:
120,208,131615,1,0,0:0:0:0:
312,208,131820,1,0,0:0:0:0:
80,208,132026,1,0,0:0:0:0:
216,152,132231,6,0,L|120:64,1,101.999994026184,2|0,0:0|0:0,0:0:0:0:
296,232,132642,2,0,L|384:312,1,101.999994026184,2|0,0:0|0:0,0:0:0:0:
216,232,133053,2,0,L|120:320,1,101.999994026184,8|0,0:0|0:0,0:0:0:0:
296,152,133464,2,0,L|392:64,1,101.999994026184
256,312,133875,2,0,L|256:184,1,101.999994026184,2|2,0:0|0:0,0:0:0:0:
256,176,134183,1,2,0:0:0:0:
256,136,134286,2,0,L|256:32,2,101.999994026184,2|2|8,0:0|0:0|0:0,0:0:0:0:
208,208,134903,2,0,P|184:264|152:304,1,101.999994026184
160,80,135314,5,0,0:0:0:0:
200,296,135519,1,2,0:0:0:0:
296,168,135725,2,0,P|328:224|336:280,1,101.999994026184,0|2,0:0|0:0,0:0:0:0:
216,120,136135,1,0,0:0:0:0:
264,328,136341,1,8,0:0:0:0:
360,176,136546,2,0,P|392:224|392:288,1,101.999994026184,0|2,0:0|0:0,0:0:0:0:
312,104,136957,1,2,0:0:0:0:
136,80,137163,6,0,P|120:144|144:192,1,101.999994026184,2|0,0:0|0:0,0:0:0:0:
256,152,137574,2,0,P|272:216|248:264,1,101.999994026184,2|0,0:0|0:0,0:0:0:0:
352,64,137985,1,8,0:0:0:0:
224,224,138190,1,8,0:0:0:0:
376,136,138396,1,8,0:0:0:0:
160,168,138601,1,8,0:0:0:0:
368,208,138807,1,8,0:0:0:0:
144,96,139012,1,8,0:0:0:0:
328,256,139218,2,0,P|288:280|184:296,1,140.250000346184,12|2,0:0|0:0,0:0:0:0:
88,224,140040,5,2,0:0:0:0:
120,112,140245,1,2,0:0:0:0:
208,184,140451,2,0,P|256:176|288:192,1,63.7500006437302
368,184,140861,1,0,0:0:0:0:
240,88,141067,2,0,P|288:80|312:96,1,63.7500006437302
128,168,141478,5,0,0:0:0:0:
128,168,141683,1,0,0:0:0:0:
208,264,141889,2,0,P|272:256|352:272,1,127.50000128746
416,192,142505,1,0,0:0:0:0:
208,104,142711,2,0,P|288:120|344:96,1,127.50000128746
408,48,143327,2,0,L|424:88,1,31.8750003218651
432,112,143533,2,0,P|448:152|440:184,1,63.7500006437302
344,320,143944,5,0,0:0:0:0:
168,232,144149,1,0,0:0:0:0:
328,128,144355,1,0,0:0:0:0:
176,80,144560,5,0,0:0:0:0:
176,80,144663,1,0,0:0:0:0:
176,80,144766,2,0,P|136:128|136:152,1,63.7500006437302
96,216,145177,1,0,0:0:0:0:
56,336,145382,1,0,0:0:0:0:
192,328,145588,1,0,0:0:0:0:
304,288,145793,2,0,P|328:256|336:208,1,63.7500006437302
240,224,146204,2,0,P|256:176|328:144,1,127.50000128746
112,64,147026,5,0,0:0:0:0:
80,176,147231,1,0,0:0:0:0:
192,168,147437,1,0,0:0:0:0:
192,168,147642,2,0,P|256:160|328:128,1,127.50000128746
408,176,148259,5,0,0:0:0:0:
352,272,148464,2,0,P|288:304|216:304,1,127.50000128746
264,192,149081,1,0,0:0:0:0:
184,112,149286,2,0,P|160:144|160:184,1,63.7500006437302
152,272,149697,1,0,0:0:0:0:
152,272,149903,2,0,P|232:264|272:232,1,127.50000128746
160,136,150519,5,0,0:0:0:0:
72,56,150725,1,0,0:0:0:0:
208,184,150930,2,0,L|272:240,1,63.7500006437302
296,120,151341,5,0,0:0:0:0:
368,32,151546,1,0,0:0:0:0:
360,216,151752,1,0,0:0:0:0:
432,128,151957,2,0,P|448:184|448:272,1,127.50000128746
448,264,152471,1,0,0:0:0:0:
448,272,152574,1,0,0:0:0:0:
320,192,152779,2,0,P|296:224|336:304,1,127.50000128746
80,80,153601,6,0,P|120:72|160:96,1,63.7500006437302
112,160,154012,1,0,0:0:0:0:
112,160,154218,2,0,L|240:160,1,127.50000128746
304,72,154834,1,0,0:0:0:0:
360,160,155040,1,0,0:0:0:0:
360,160,155245,6,0,P|384:232|360:288,1,127.50000128746
288,336,155861,2,0,P|224:352|152:336,1,127.50000128746
224,240,156478,1,0,0:0:0:0:
224,128,156683,1,0,0:0:0:0:
224,128,156786,1,0,0:0:0:0:
224,128,156889,1,0,0:0:0:0:
384,40,157300,6,0,P|416:112|408:176,1,127.50000128746
304,112,157916,1,0,0:0:0:0:
352,224,158122,1,0,0:0:0:0:
240,192,158327,1,0,0:0:0:0:
296,304,158533,1,0,0:0:0:0:
296,304,158635,1,0,0:0:0:0:
296,304,158738,1,0,0:0:0:0:
168,304,158944,5,0,0:0:0:0:
168,304,159149,2,0,P|112:328|32:296,1,127.50000128746
32,280,159663,1,0,0:0:0:0:
48,240,159766,2,0,P|32:184|64:112,1,127.50000128746
152,192,160382,5,0,0:0:0:0:
232,64,160588,1,0,0:0:0:0:
320,192,160793,1,0,0:0:0:0:
72,64,160998,2,0,P|72:112|96:144,2,63.7500006437302
136,208,161615,1,0,0:0:0:0:
160,224,161718,1,0,0:0:0:0:
192,232,161820,1,0,0:0:0:0:
392,64,162231,6,0,P|400:120|384:192,1,127.50000128746
232,192,162848,1,0,0:0:0:0:
152,320,163053,2,0,P|88:256|80:200,1,127.50000128746
320,104,163875,6,0,P|336:96|368:96,2,31.8750003218651
272,240,164286,1,0,0:0:0:0:
184,144,164492,1,0,0:0:0:0:
152,264,164697,2,0,P|120:280|64:272,1,63.7500006437302
88,192,165108,5,0,0:0:0:0:
88,80,165314,1,0,0:0:0:0:
192,136,165519,2,0,L|280:136,1,63.7500006437302
256,232,165930,1,0,0:0:0:0:
256,344,166135,1,0,0:0:0:0:
352,288,166341,2,0,L|440:288,1,63.7500006437302
400,112,166752,6,0,L|400:176,2,63.7500006437302
296,48,167368,2,0,P|248:80|240:152,1,127.50000128746
336,216,167985,1,0,0:0:0:0:
248,288,168190,2,0,P|328:312|368:288,1,127.50000128746
432,200,168807,1,0,0:0:0:0:
432,200,168909,1,0,0:0:0:0:
432,200,169012,2,0,P|448:128|416:88,1,127.50000128746
336,144,169629,2,0,L|312:168,1,31.8750003218651
288,192,169834,2,0,P|248:216|216:208,1,63.7500006437302
144,72,170245,6,0,P|112:112|120:144,1,63.7500006437302
112,248,170656,2,0,L|112:312,1,63.7500006437302
240,344,171067,1,0,0:0:0:0:
272,176,171272,1,0,0:0:0:0:
352,280,171478,1,0,0:0:0:0:
416,144,171683,2,0,P|392:104|304:88,1,127.50000128746
312,200,172300,2,0,P|280:240|248:248,1,63.7500006437302
192,336,172711,1,0,0:0:0:0:
120,240,172916,2,0,L|112:208,4,31.8750003218651
376,64,173738,5,0,0:0:0:0:
376,152,173944,2,0,L|376:240,1,63.7500006437302
320,320,174355,1,0,0:0:0:0:
224,232,174560,1,0,0:0:0:0:
184,352,174766,1,0,0:0:0:0:
80,256,174971,1,0,0:0:0:0:
104,240,175382,2,0,P|104:176|136:128,1,95.6250009655953
144,120,175793,2,0,P|184:96|240:104,1,95.6250009655953
264,112,176204,1,0,0:0:0:0:
304,128,176307,2,0,P|352:160|416:256,1,163.625000403881
272,192,177437,5,0,0:0:0:0:
224,336,177642,1,0,0:0:0:0:
128,240,177848,2,0,P|112:200|136:144,1,93.5000002307892
224,72,178464,1,0,0:0:0:0:
224,208,178670,1,0,0:0:0:0:
312,152,178875,2,0,P|360:168|408:144,1,93.5000002307892
360,240,179492,2,0,L|360:328,1,70.1250001730919
352,336,179903,6,0,P|288:352|256:336,1,93.5000002307892
288,240,180519,2,0,L|240:240,1,46.7500001153946
152,304,180930,1,0,0:0:0:0:
64,232,181135,2,0,P|56:176|72:128,1,93.5000002307892
352,64,181957,6,0,P|376:104|360:160,1,93.5000002307892
224,128,182574,2,0,P|208:168|232:216,1,93.5000002307892
256,192,183190,12,0,184834,0:0:0:0:
232,88,185040,6,0,P|216:144|232:176,1,84.9999976158143
264,280,185451,1,0,0:0:0:0:
392,232,185656,2,0,P|448:248|472:280,1,84.9999976158143
416,120,186067,5,0,0:0:0:0:
320,216,186272,1,0,0:0:0:0:
264,56,186478,1,0,0:0:0:0:
176,136,186683,2,0,P|144:200|168:256,1,101.999994026184,0|2,0:0|0:0,0:0:0:0:
152,344,187094,2,0,L|152:232,1,101.999994026184,2|8,0:0|0:0,0:0:0:0:
64,136,187505,5,0,0:0:0:0:
144,40,187711,1,0,0:0:0:0:
216,200,187916,1,0,0:0:0:0:
304,112,188122,2,0,P|352:104|408:120,1,101.999994026184
216,200,188533,1,2,0:0:0:0:
352,216,188738,2,0,P|416:232|456:200,1,101.999994026184,2|8,0:0|0:0,0:0:0:0:
112,56,189355,6,0,P|72:152|120:232,1,203.999988052369
208,136,189971,1,0,0:0:0:0:
208,136,190177,1,0,0:0:0:0:
288,40,190382,2,0,P|344:128|320:224,1,203.999988052369
416,296,190998,1,0,0:0:0:0:
320,336,191204,6,0,P|240:344|88:328,1,203.999988052369
224,240,191820,1,2,0:0:0:0:
120,160,192026,1,2,0:0:0:0:
156,132,192129,1,0,0:0:0:0:
196,116,192231,1,8,0:0:0:0:
360,48,192642,5,0,0:0:0:0:
464,172,192848,1,0,0:0:0:0:
308,204,193053,2,0,P|280:264|292:308,1,101.999994026184
388,256,193464,2,0,P|412:200|304:116,1,203.999988052369,0|8,0:0|0:0,0:0:0:0:
176,68,194286,6,0,P|140:112|140:160,1,101.999994026184
256,192,194697,1,0,0:0:0:0:
256,192,195108,2,0,L|256:328,1,101.999994026184,2|2,0:0|0:0,0:0:0:0:
256,324,195519,1,8,0:0:0:0:
364,80,195930,5,0,0:0:0:0:
368,204,196135,1,0,0:0:0:0:
464,288,196341,2,0,P|388:320|272:292,1,203.999988052369,8|0,0:0|0:0,0:0:0:0:
368,204,196957,1,0,0:0:0:0:
472,112,197163,2,0,P|372:84|268:120,1,203.999988052369,8|0,0:0|0:0,0:0:0:0:
368,204,197779,2,0,L|164:204,1,203.999988052369,0|2,0:0|0:0,0:0:0:0:
164,324,198396,1,2,0:0:0:0:
48,204,198601,1,2,0:0:0:0:
168,84,198807,1,8,0:0:0:0:
272,200,199012,5,0,0:0:0:0:
272,200,199218,2,0,L|364:200,1,84.9999976158143
376,120,199629,2,0,P|356:68|388:32,1,84.9999976158143,8|0,0:0|0:0,0:0:0:0:
264,156,200040,2,0,P|196:140|184:96,1,84.9999976158143
372,200,200451,2,0,P|400:240|376:304,1,84.9999976158143,8|0,0:0|0:0,0:0:0:0:
368,108,200861,1,0,0:0:0:0:
368,108,201067,2,0,P|280:88|236:112,1,127.50000128746,0|2,0:0|0:0,0:0:0:0:
288,200,201683,2,0,P|228:208|204:192,1,84.9999976158143,2|2,0:0|0:0,0:0:0:0:
120,128,202094,1,8,0:0:0:0:
312,72,202505,6,0,P|356:108|352:152,1,84.9999976158143
448,280,202916,2,0,P|388:248|392:208,1,84.9999976158143,8|0,0:0|0:0,0:0:0:0:
228,264,203327,2,0,P|276:240|288:200,1,84.9999976158143
428,80,203738,2,0,P|388:108|380:164,1,84.9999976158143,8|0,0:0|0:0,0:0:0:0:
380,264,204149,1,0,0:0:0:0:
380,264,204355,2,0,P|304:304|256:280,1,127.50000128746,0|2,0:0|0:0,0:0:0:0:
116,288,204971,1,2,0:0:0:0:
272,292,205177,1,2,0:0:0:0:
116,288,205382,1,8,0:0:0:0:
200,176,205588,5,0,0:0:0:0:
116,104,205793,2,0,P|184:68|220:80,1,84.9999976158143
308,128,206204,2,0,P|336:168|392:168,1,84.9999976158143,8|0,0:0|0:0,0:0:0:0:
408,60,206615,1,0,0:0:0:0:
260,120,206820,2,0,P|248:168|256:212,1,84.9999976158143,0|8,0:0|0:0,0:0:0:0:
308,292,207231,1,0,0:0:0:0:
380,216,207437,1,0,0:0:0:0:
380,216,207642,2,0,L|380:120,1,84.9999976158143,0|8,0:0|0:0,0:0:0:0:
280,72,208053,5,8,0:0:0:0:
152,264,208259,1,8,0:0:0:0:
320,136,208464,1,8,0:0:0:0:
108,192,208670,1,8,0:0:0:0:
320,256,208875,1,8,0:0:0:0:
160,116,209081,1,8,0:0:0:0:
328,184,209286,1,8,0:0:0:0:
328,184,209697,2,0,P|304:248|256:276,1,84.9999976158143,0|8,0:0|0:0,0:0:0:0:
84,68,210314,1,8,0:0:0:0:
412,72,210930,5,2,0:0:0:0:
348,176,211135,1,2,0:0:0:0:
256,92,211341,1,2,0:0:0:0:
224,80,211444,1,2,0:0:0:0:
184,92,211546,1,2,0:0:0:0:
320,176,211752,2,0,P|288:216|236:216,1,84.9999976158143,8|0,0:0|0:0,0:0:0:0:
124,168,212163,2,0,P|80:180|68:248,1,84.9999976158143,8|0,0:0|0:0,0:0:0:0:
296,88,212779,6,0,P|360:104|380:172,1,101.999994026184,8|0,0:0|0:0,0:0:0:0:
284,196,213190,1,2,0:0:0:0:
176,268,213396,2,0,P|152:216|181:150,1,101.999994026184,2|8,0:0|0:0,0:0:0:0:
149,62,213807,1,0,0:0:0:0:
268,40,214012,1,2,0:0:0:0:
348,141,214218,2,0,P|391:158|422:208,1,101.999994026184,2|8,0:0|0:0,0:0:0:0:
232,236,214629,1,0,0:0:0:0:
337,333,214834,1,2,0:0:0:0:
424,196,215040,2,0,P|340:200|312:184,1,101.999994026184,2|8,0:0|0:0,0:0:0:0:
264,308,215451,1,0,0:0:0:0:
128,328,215656,6,0,P|72:316|76:232,1,152.999991039276,2|0,0:0|0:0,0:0:0:0:
92,208,216067,1,8,0:0:0:0:
112,196,216170,1,8,0:0:0:0:
136,192,216272,1,8,0:0:0:0:
156,192,216375,1,8,0:0:0:0:
180,192,216478,1,8,0:0:0:0:
204,192,216581,1,8,0:0:0:0:
228,192,216683,1,8,0:0:0:0:
316,128,216889,6,0,P|368:152|380:208,1,101.999994026184,12|0,0:0|0:0,0:0:0:0:
416,288,217300,1,2,0:0:0:0:
416,288,217505,2,0,L|280:288,1,101.999994026184,2|8,0:0|0:0,0:0:0:0:
216,288,217916,2,0,L|104:288,1,101.999994026184,0|2,0:0|0:0,0:0:0:0:
68,192,218327,2,0,P|56:148|80:100,1,101.999994026184,2|8,0:0|0:0,0:0:0:0:
184,176,218738,5,2,0:0:0:0:
304,284,218944,1,2,0:0:0:0:
368,144,219149,1,2,0:0:0:0:
304,284,219355,2,0,L|272:172,1,101.999994026184,8|0,0:0|0:0,0:0:0:0:
256,88,219766,1,2,0:0:0:0:
192,256,219971,2,0,L|160:152,1,101.999994026184,2|8,0:0|0:0,0:0:0:0:
104,328,220382,1,2,0:0:0:0:
48,152,220588,1,2,0:0:0:0:
88,288,220793,2,0,L|56:184,1,101.999994026184,2|8,0:0|0:0,0:0:0:0:
380,56,221409,6,0,P|408:120|400:164,1,101.999994026184,2|2,0:0|0:0,0:0:0:0:
376,300,221820,1,8,0:0:0:0:
232,120,222231,1,0,0:0:0:0:
176,232,222437,1,0,0:0:0:0:
312,216,222642,2,0,P|384:216|432:176,1,101.999994026184,8|0,0:0|0:0,0:0:0:0:
440,128,223053,1,2,0:0:0:0:
288,76,223259,2,0,P|360:76|408:36,1,101.999994026184,2|8,0:0|0:0,0:0:0:0:
208,120,223670,1,2,0:0:0:0:
32,104,223875,1,2,0:0:0:0:
168,120,224081,2,0,P|104:120|56:80,1,101.999994026184,0|8,0:0|0:0,0:0:0:0:
72,212,224492,5,2,0:0:0:0:
120,320,224697,1,8,0:0:0:0:
244,328,224903,1,8,0:0:0:0:
344,268,225108,1,8,0:0:0:0:
444,116,225519,5,2,0:0:0:0:
240,116,225724,1,2,0:0:0:0:
392,116,225930,2,0,L|256:116,1,101.999994026184,8|0,0:0|0:0,0:0:0:0:
444,272,226341,1,2,0:0:0:0:
240,268,226546,1,2,0:0:0:0:
392,268,226752,2,0,L|256:268,1,101.999994026184,8|0,0:0|0:0,0:0:0:0:
64,184,227163,5,2,0:0:0:0:
104,184,227368,2,0,L|220:184,1,101.999994026184,2|8,0:0|0:0,0:0:0:0:
208,80,227779,1,8,0:0:0:0:
320,188,227985,1,2,0:0:0:0:
212,292,228190,1,2,0:0:0:0:
44,208,228396,5,8,0:0:0:0:
72,192,228498,1,8,0:0:0:0:
104,180,228601,1,8,0:0:0:0:
136,172,228704,1,8,0:0:0:0:
168,168,228807,1,8,0:0:0:0:
200,168,228909,1,8,0:0:0:0:
236,168,229012,1,8,0:0:0:0:
264,172,229115,1,8,0:0:0:0:
296,184,229218,6,0,P|356:208|376:260,1,101.999994026184,12|0,0:0|0:0,0:0:0:0:
300,340,229629,1,2,0:0:0:0:
164,320,229834,2,0,L|165:195,1,101.999994026184,2|8,0:0|0:0,0:0:0:0:
48,192,230245,1,0,0:0:0:0:
280,192,230451,1,2,0:0:0:0:
164,140,230656,2,0,L|164:32,1,101.999994026184,2|8,0:0|0:0,0:0:0:0:
280,100,231067,1,0,0:0:0:0:
280,224,231272,1,2,0:0:0:0:
392,164,231478,2,0,L|392:272,1,101.999994026184,2|8,0:0|0:0,0:0:0:0:
280,340,231889,1,2,0:0:0:0:
156,268,232094,6,0,P|100:224|120:176,1,101.999994026184,2|2,0:0|0:0,0:0:0:0:
100,172,232403,1,2,0:0:0:0:
112,140,232505,1,2,0:0:0:0:
132,120,232608,1,2,0:0:0:0:
160,104,232711,1,2,0:0:0:0:
192,96,232814,1,2,0:0:0:0:
220,92,232916,1,2,0:0:0:0:
248,96,233019,1,2,0:0:0:0:
276,112,233122,1,2,0:0:0:0:
360,192,233327,6,0,P|376:248|352:304,1,101.999994026184,12|0,0:0|0:0,0:0:0:0:
252,240,233738,1,2,0:0:0:0:
252,240,233944,2,0,L|104:244,1,101.999994026184,2|8,0:0|0:0,0:0:0:0:
224,84,234355,1,2,0:0:0:0:
332,232,234560,1,2,0:0:0:0:
368,96,234766,1,2,0:0:0:0:
184,168,234971,5,8,0:0:0:0:
376,212,235177,1,2,0:0:0:0:
276,56,235382,1,2,0:0:0:0:
232,248,235588,1,2,0:0:0:0:
156,152,235793,2,0,P|108:180|124:240,1,101.999994026184,8|0,0:0|0:0,0:0:0:0:
232,248,236204,1,2,0:0:0:0:
304,156,236409,2,0,P|348:184|356:248,1,101.999994026184,2|8,0:0|0:0,0:0:0:0:
224,84,236820,2,0,P|184:116|172:176,2,101.999994026184,2|2|2,0:0|0:0|0:0,0:0:0:0:
340,44,237437,1,8,0:0:0:0:
124,312,237848,1,2,0:0:0:0:
348,108,238259,6,0,P|376:148|356:208,1,101.999994026184,8|0,0:0|0:0,0:0:0:0:
224,172,238670,2,0,P|200:248|228:296,1,101.999994026184
312,320,239081,1,8,0:0:0:0:
312,320,239492,1,0,0:0:0:0:
312,320,239697,2,0,P|368:256|372:212,1,101.999994026184,0|8,0:0|0:0,0:0:0:0:
312,140,240108,2,0,P|372:120|420:176,2,101.999994026184
184,144,240724,1,8,0:0:0:0:
368,140,240930,1,0,0:0:0:0:
144,144,241135,2,0,P|96:176|88:320,1,203.999988052369,0|8,0:0|0:0,0:0:0:0:
360,88,241957,6,0,P|360:144|344:196,1,101.999994026184,2|2,0:0|0:0,0:0:0:0:
256,288,242368,1,8,0:0:0:0:
196,172,242574,1,0,0:0:0:0:
112,280,242779,1,2,0:0:0:0:
48,168,242985,2,0,P|64:96|96:56,1,101.999994026184,2|8,0:0|0:0,0:0:0:0:
40,220,243396,1,0,0:0:0:0:
120,56,243601,1,2,0:0:0:0:
180,208,243807,6,0,P|196:152|236:88,1,101.999994026184,2|8,0:0|0:0,0:0:0:0:
168,252,244218,1,0,0:0:0:0:
256,88,244423,1,2,0:0:0:0:
352,280,244629,2,0,P|348:220|332:168,1,101.999994026184,2|8,0:0|0:0,0:0:0:0:
328,320,245040,1,2,0:0:0:0:
360,144,245245,1,2,0:0:0:0:
256,192,245451,12,0,246889,0:0:0:0:
