osu file format v14

[General]
AudioFilename: audio.mp3
AudioLeadIn: 0
PreviewTime: 52164
Countdown: 0
SampleSet: None
StackLeniency: 0.7
Mode: 0
LetterboxInBreaks: 0
StoryFireInFront: 0
WidescreenStoryboard: 1

[Editor]
DistanceSpacing: 1.4
BeatDivisor: 4
GridSize: 32
TimelineZoom: 1

[Metadata]
Title:Akane Sasu(TV size)
TitleUnicode:茜さす(TV size)
Artist:Aimer
ArtistUnicode:Aimer
Creator:S h i a
Version:Normal
Source:
Tags:
BeatmapID:1148084
BeatmapSetID:541304

[Difficulty]
HPDrainRate:4
CircleSize:4
OverallDifficulty:5
ApproachRate:5
SliderMultiplier:1.7
SliderTickRate:1

[Events]
//Background and Video events
0,0,"background_img.jpg",0,0
//Break Periods
//Storyboard Layer 0 (Background)
//Storyboard Layer 1 (Fail)
//Storyboard Layer 2 (Pass)
//Storyboard Layer 3 (Foreground)
//Storyboard Sound Samples

[TimingPoints]
1488.63247727059,810.810810810811,4,2,1,50,1,0
53380,-100,4,2,1,100,0,1
79326,-133.333333333333,4,2,1,80,0,0
86015,-133.333333333333,4,2,1,40,0,0
88853,-133.333333333333,4,2,1,10,0,0

[Colours]
Combo1 : 181,210,201
Combo2 : 137,150,184
Combo3 : 219,179,211
SliderBorder : 220,200,200

[HitObjects]
64,192,1488,5,0,0:0:0:0:
299,154,2299,1,0,0:0:0:0:
87,262,3110,1,0,0:0:0:0:
323,220,3921,1,0,0:0:0:0:
108,126,4731,2,0,P|148:71|252:49,1,170
354,90,5948,1,0,0:0:0:0:
252,152,6353,2,0,P|185:182|174:216,1,85
206,305,7164,2,0,P|185:244|144:222,1,85
81,153,7975,2,0,P|160:133|189:147,1,85
129,247,8785,1,0,0:0:0:0:
320,105,9596,6,0,P|270:150|226:168,1,85
139,128,10407,2,0,P|77:167|51:188,1,85
173,228,11218,2,0,P|243:175|345:221,1,170
210,242,12434,1,0,0:0:0:0:
99,198,12839,2,0,P|124:133|172:117,1,85
22,84,13650,1,0,0:0:0:0:
258,59,14461,6,0,P|341:56|358:77,1,85
402,152,15272,2,0,P|357:158|309:193,1,85
229,251,16083,2,0,P|208:198|155:170,1,85
73,147,16894,1,0,0:0:0:0:
309,170,17704,6,0,P|224:155|207:162,1,85
154,247,18515,2,0,P|115:194|90:180,1,85
57,72,19326,2,0,P|133:85|158:104,1,85
197,192,20137,1,0,0:0:0:0:
315,195,20542,1,0,0:0:0:0:
211,136,20948,6,0,P|145:117|106:135,1,85
249,136,21758,2,0,P|306:104|356:116,1,85
220,164,22569,1,0,0:0:0:0:
229,282,22975,1,0,0:0:0:0:
323,209,23380,1,0,0:0:0:0:
85,189,24191,6,0,P|52:131|30:129,1,85
152,170,25002,2,0,P|158:108|177:85,1,85
182,209,25812,1,0,0:0:0:0:
280,142,26218,1,0,0:0:0:0:
170,96,26623,1,0,0:0:0:0:
18,279,27434,6,0,P|66:191|160:184,1,170
206,265,28650,1,0,0:0:0:0:
293,184,29056,2,0,P|305:119|340:104,1,85
415,176,29867,2,0,P|409:232|379:245,1,85
293,171,30677,6,0,P|182:96|136:99,1,170
76,189,31894,1,0,0:0:0:0:
187,229,32299,2,0,P|176:156|186:123,1,85
284,199,33110,1,0,0:0:0:0:
386,138,33515,1,0,0:0:0:0:
283,76,33921,6,0,P|215:86|118:158,1,170
207,232,35137,1,0,0:0:0:0:
325,226,35542,1,0,0:0:0:0:
206,238,35948,2,0,P|126:192|106:184,1,85
79,301,36758,1,0,0:0:0:0:
196,282,37164,2,0,P|242:207|234:116,1,170
340,188,38380,2,0,P|412:140|440:59,1,170
329,109,39596,1,0,0:0:0:0:
217,150,40002,1,0,0:0:0:0:
152,49,40407,6,0,P|29:140|17:179,1,170
109,233,41623,1,0,0:0:0:0:
227,223,42029,1,0,0:0:0:0:
179,114,42434,2,0,P|125:129|94:156,1,85
159,250,43245,1,0,0:0:0:0:
248,171,43650,6,0,P|317:120|431:143,1,170
286,166,44867,1,0,0:0:0:0:
177,213,45272,1,0,0:0:0:0:
59,197,45677,2,0,P|73:129|100:112,1,85
201,119,46488,1,0,0:0:0:0:
301,183,46894,2,0,P|225:211|187:299,1,170
300,249,48110,1,0,0:0:0:0:
186,212,48515,2,0,P|140:143|143:112,1,85
255,176,49326,2,0,P|312:132|314:105,1,85
195,113,50137,1,0,0:0:0:0:
81,148,50542,1,0,0:0:0:0:
95,266,50948,1,0,0:0:0:0:
200,211,51353,6,0,L|267:208,2,42.5
107,135,52164,1,0,0:0:0:0:
214,84,52569,2,0,L|287:72,2,42.5
257,257,53380,2,0,P|325:213|337:185,1,85
214,170,54191,2,0,P|164:181|131:202,1,85
252,173,55002,2,0,P|301:114|393:111,1,170
344,220,56218,1,0,0:0:0:0:
225,213,56623,2,0,P|237:133|258:120,1,85
332,203,57434,1,0,0:0:0:0:
214,218,57839,1,0,0:0:0:0:
214,98,58245,2,0,P|153:115|120:145,1,85
187,234,59056,1,0,0:0:0:0:
284,166,59461,1,0,0:0:0:0:
192,90,59867,6,0,B|247:24|373:78,1,170
350,187,61083,2,0,P|318:141|265:132,1,85
208,215,61894,1,0,0:0:0:0:
139,118,62299,2,0,P|169:191|255:206,1,170
370,195,63515,2,0,P|307:223|295:253,1,85
182,220,64326,1,0,0:0:0:0:
196,102,64731,1,0,0:0:0:0:
111,186,65137,2,0,L|45:196,2,42.5
228,165,65948,1,0,0:0:0:0:
257,257,66353,6,0,P|325:213|337:185,1,85
214,170,67164,2,0,P|164:181|131:202,1,85
252,173,67975,2,0,P|301:114|393:111,1,170
344,220,69191,1,0,0:0:0:0:
225,213,69596,2,0,P|237:133|258:120,1,85
332,203,70407,1,0,0:0:0:0:
214,218,70812,1,0,0:0:0:0:
214,98,71218,2,0,P|153:115|120:145,1,85
187,234,72029,1,0,0:0:0:0:
284,166,72434,1,0,0:0:0:0:
192,90,72840,6,0,B|247:24|373:78,1,170
350,187,74056,2,0,P|318:141|265:132,1,85
208,215,74867,1,0,0:0:0:0:
139,118,75272,2,0,P|169:191|255:206,1,170
370,195,76488,2,0,P|307:223|295:253,1,85
182,220,77299,1,0,0:0:0:0:
196,102,77704,1,0,0:0:0:0:
111,186,78110,2,0,L|45:196,2,42.5
228,165,78921,1,0,0:0:0:0:
154,114,79326,5,0,0:0:0:0:
332,101,80137,1,0,0:0:0:0:
175,187,80948,1,0,0:0:0:0:
335,264,81758,1,0,0:0:0:0:
168,199,82569,2,0,P|73:124|66:109,1,127.500004863739
161,120,83785,1,0,0:0:0:0:
246,145,84191,2,0,P|331:145|383:172,1,127.500004863739
280,175,85407,1,0,0:0:0:0:
197,141,85812,2,0,P|294:100|189:245,1,510.000019454957
